  0
SECTION
  2
HEADER
  9
$ACADVER
  1
AC1027
  9
$ACADMAINTVER
 70
   105
  9
$DWGCODEPAGE
  3
DOS932
  9
$REQUIREDVERSIONS
160
                 0
  9
$INSBASE
 10
0.0
 20
0.0
 30
0.0
  9
$EXTMIN
 10
0.0
 20
0.0
 30
0.0
  9
$EXTMAX
 10
420.0
 20
297.0
 30
0.0
  9
$LIMMIN
 10
0.0
 20
0.0
  9
$LIMMAX
 10
420.0
 20
297.0
  9
$ORTHOMODE
 70
     0
  9
$REGENMODE
 70
     1
  9
$FILLMODE
 70
     1
  9
$QTEXTMODE
 70
     0
  9
$MIRRTEXT
 70
     1
  9
$LTSCALE
 40
1.0
  9
$ATTMODE
 70
     1
  9
$TEXTSIZE
 40
3.5
  9
$TRACEWID
 40
1.0
  9
$TEXTSTYLE
  7
Standard
  9
$CLAYER
  8
0
  9
$CELTYPE
  6
ByLayer
  9
$CECOLOR
 62
   256
  9
$CELTSCALE
 40
1.0
  9
$DISPSILH
 70
     0
  9
$DIMSCALE
 40
1.0
  9
$DIMASZ
 40
3.302
  9
$DIMEXO
 40
1.0
  9
$DIMDLI
 40
3.75
  9
$DIMRND
 40
0.0
  9
$DIMDLE
 40
0.0
  9
$DIMEXE
 40
1.0
  9
$DIMTP
 40
0.0
  9
$DIMTM
 40
0.0
  9
$DIMTXT
 40
3.5
  9
$DIMCEN
 40
2.5
  9
$DIMTSZ
 40
0.0
  9
$DIMTOL
 70
     0
  9
$DIMLIM
 70
     0
  9
$DIMTIH
 70
     1
  9
$DIMTOH
 70
     1
  9
$DIMSE1
 70
     0
  9
$DIMSE2
 70
     0
  9
$DIMTAD
 70
     1
  9
$DIMZIN
 70
     1
  9
$DIMBLK
  1

  9
$DIMASO
 70
     1
  9
$DIMSHO
 70
     1
  9
$DIMPOST
  1

  9
$DIMAPOST
  1

  9
$DIMALT
 70
     0
  9
$DIMALTD
 70
     3
  9
$DIMALTF
 40
0.0393700787
  9
$DIMLFAC
 40
1.0
  9
$DIMTOFL
 70
     1
  9
$DIMTVP
 40
0.0
  9
$DIMTIX
 70
     0
  9
$DIMSOXD
 70
     0
  9
$DIMSAH
 70
     0
  9
$DIMBLK1
  1

  9
$DIMBLK2
  1

  9
$DIMSTYLE
  2
ISO-25
  9
$DIMCLRD
 70
     0
  9
$DIMCLRE
 70
     0
  9
$DIMCLRT
 70
     0
  9
$DIMTFAC
 40
1.0
  9
$DIMGAP
 40
1.524
  9
$DIMJUST
 70
     0
  9
$DIMSD1
 70
     0
  9
$DIMSD2
 70
     0
  9
$DIMTOLJ
 70
     0
  9
$DIMTZIN
 70
     1
  9
$DIMALTZ
 70
     0
  9
$DIMALTTZ
 70
     0
  9
$DIMUPT
 70
     0
  9
$DIMDEC
 70
     2
  9
$DIMTDEC
 70
     2
  9
$DIMALTU
 70
     2
  9
$DIMALTTD
 70
     3
  9
$DIMTXSTY
  7
Standard
  9
$DIMAUNIT
 70
     0
  9
$DIMADEC
 70
     2
  9
$DIMALTRND
 40
0.0
  9
$DIMAZIN
 70
     0
  9
$DIMDSEP
 70
    44
  9
$DIMATFIT
 70
     3
  9
$DIMFRAC
 70
     0
  9
$DIMLDRBLK
  1

  9
$DIMLUNIT
 70
     2
  9
$DIMLWD
 70
    -2
  9
$DIMLWE
 70
    -2
  9
$DIMTMOVE
 70
     0
  9
$DIMFXL
 40
1.0
  9
$DIMFXLON
 70
     0
  9
$DIMJOGANG
 40
0.7853981634
  9
$DIMTFILL
 70
     0
  9
$DIMTFILLCLR
 70
     0
  9
$DIMARCSYM
 70
     0
  9
$DIMLTYPE
  6

  9
$DIMLTEX1
  6

  9
$DIMLTEX2
  6

  9
$DIMTXTDIRECTION
 70
     0
  9
$LUNITS
 70
     2
  9
$LUPREC
 70
     2
  9
$SKETCHINC
 40
1.0
  9
$FILLETRAD
 40
10.0
  9
$AUNITS
 70
     0
  9
$AUPREC
 70
     2
  9
$MENU
  1
.
  9
$ELEVATION
 40
0.0
  9
$PELEVATION
 40
0.0
  9
$THICKNESS
 40
0.0
  9
$LIMCHECK
 70
     0
  9
$CHAMFERA
 40
0.0
  9
$CHAMFERB
 40
0.0
  9
$CHAMFERC
 40
0.0
  9
$CHAMFERD
 40
0.0
  9
$SKPOLY
 70
     0
  9
$TDCREATE
 40
2459408.57609978
  9
$TDUCREATE
 40
2459408.20109978
  9
$TDUPDATE
 40
2459408.57610213
  9
$TDUUPDATE
 40
2459408.20110213
  9
$TDINDWG
 40
0.0000000116
  9
$TDUSRTIMER
 40
0.0000000116
  9
$USRTIMER
 70
     1
  9
$ANGBASE
 50
0.0
  9
$ANGDIR
 70
     0
  9
$PDMODE
 70
     0
  9
$PDSIZE
 40
-1.0
  9
$PLINEWID
 40
0.0
  9
$SPLFRAME
 70
     0
  9
$SPLINETYPE
 70
     6
  9
$SPLINESEGS
 70
     8
  9
$HANDSEED
  5
482
  9
$SURFTAB1
 70
     6
  9
$SURFTAB2
 70
     6
  9
$SURFTYPE
 70
     6
  9
$SURFU
 70
     6
  9
$SURFV
 70
     6
  9
$UCSBASE
  2

  9
$UCSNAME
  2

  9
$UCSORG
 10
0.0
 20
0.0
 30
0.0
  9
$UCSXDIR
 10
1.0
 20
0.0
 30
0.0
  9
$UCSYDIR
 10
0.0
 20
1.0
 30
0.0
  9
$UCSORTHOREF
  2

  9
$UCSORTHOVIEW
 70
     0
  9
$UCSORGTOP
 10
0.0
 20
0.0
 30
0.0
  9
$UCSORGBOTTOM
 10
0.0
 20
0.0
 30
0.0
  9
$UCSORGLEFT
 10
0.0
 20
0.0
 30
0.0
  9
$UCSORGRIGHT
 10
0.0
 20
0.0
 30
0.0
  9
$UCSORGFRONT
 10
0.0
 20
0.0
 30
0.0
  9
$UCSORGBACK
 10
0.0
 20
0.0
 30
0.0
  9
$PUCSBASE
  2

  9
$PUCSNAME
  2

  9
$PUCSORG
 10
0.0
 20
0.0
 30
0.0
  9
$PUCSXDIR
 10
1.0
 20
0.0
 30
0.0
  9
$PUCSYDIR
 10
0.0
 20
1.0
 30
0.0
  9
$PUCSORTHOREF
  2

  9
$PUCSORTHOVIEW
 70
     0
  9
$PUCSORGTOP
 10
0.0
 20
0.0
 30
0.0
  9
$PUCSORGBOTTOM
 10
0.0
 20
0.0
 30
0.0
  9
$PUCSORGLEFT
 10
0.0
 20
0.0
 30
0.0
  9
$PUCSORGRIGHT
 10
0.0
 20
0.0
 30
0.0
  9
$PUCSORGFRONT
 10
0.0
 20
0.0
 30
0.0
  9
$PUCSORGBACK
 10
0.0
 20
0.0
 30
0.0
  9
$USERI1
 70
     0
  9
$USERI2
 70
     0
  9
$USERI3
 70
     0
  9
$USERI4
 70
     0
  9
$USERI5
 70
     0
  9
$USERR1
 40
0.0
  9
$USERR2
 40
0.0
  9
$USERR3
 40
0.0
  9
$USERR4
 40
0.0
  9
$USERR5
 40
0.0
  9
$WORLDVIEW
 70
     1
  9
$SHADEDGE
 70
     3
  9
$SHADEDIF
 70
    70
  9
$TILEMODE
 70
     1
  9
$MAXACTVP
 70
    64
  9
$PINSBASE
 10
0.0
 20
0.0
 30
0.0
  9
$PLIMCHECK
 70
     0
  9
$PEXTMIN
 10
1.0000000000E+20
 20
1.0000000000E+20
 30
1.0000000000E+20
  9
$PEXTMAX
 10
-1.0000000000E+20
 20
-1.0000000000E+20
 30
-1.0000000000E+20
  9
$PLIMMIN
 10
0.0
 20
0.0
  9
$PLIMMAX
 10
420.0
 20
297.0
  9
$UNITMODE
 70
     0
  9
$VISRETAIN
 70
     1
  9
$PLINEGEN
 70
     0
  9
$PSLTSCALE
 70
     1
  9
$TREEDEPTH
 70
  3020
  9
$CMLSTYLE
  2
Standard
  9
$CMLJUST
 70
     0
  9
$CMLSCALE
 40
20.0
  9
$PROXYGRAPHICS
 70
     1
  9
$MEASUREMENT
 70
     1
  9
$CELWEIGHT
370
    -1
  9
$ENDCAPS
280
     0
  9
$JOINSTYLE
280
     0
  9
$LWDISPLAY
290
     1
  9
$INSUNITS
 70
     4
  9
$HYPERLINKBASE
  1

  9
$STYLESHEET
  1

  9
$XEDIT
290
     1
  9
$CEPSNTYPE
380
     0
  9
$PSTYLEMODE
290
     1
  9
$FINGERPRINTGUID
  2
{E5F27037-54D3-495A-9D94-8D637DDEAF99}
  9
$VERSIONGUID
  2
{FAEB1C32-E019-11D5-929B-00C0DF256EC4}
  9
$EXTNAMES
290
     1
  9
$PSVPSCALE
 40
0.0
  9
$OLESTARTUP
290
     0
  9
$SORTENTS
280
   127
  9
$INDEXCTL
280
     0
  9
$HIDETEXT
280
     1
  9
$XCLIPFRAME
280
     2
  9
$HALOGAP
280
     0
  9
$OBSCOLOR
 70
   257
  9
$OBSLTYPE
280
     0
  9
$INTERSECTIONDISPLAY
280
     0
  9
$INTERSECTIONCOLOR
 70
   257
  9
$DIMASSOC
280
     2
  9
$PROJECTNAME
  1

  9
$CAMERADISPLAY
290
     0
  9
$LENSLENGTH
 40
50.0
  9
$CAMERAHEIGHT
 40
0.0
  9
$STEPSPERSEC
 40
2.0
  9
$STEPSIZE
 40
6.0
  9
$3DDWFPREC
 40
2.0
  9
$PSOLWIDTH
 40
5.0
  9
$PSOLHEIGHT
 40
80.0
  9
$LOFTANG1
 40
1.5707963268
  9
$LOFTANG2
 40
1.5707963268
  9
$LOFTMAG1
 40
0.0
  9
$LOFTMAG2
 40
0.0
  9
$LOFTPARAM
 70
     7
  9
$LOFTNORMALS
280
     1
  9
$LATITUDE
 40
37.795
  9
$LONGITUDE
 40
-122.394
  9
$NORTHDIRECTION
 40
0.0
  9
$TIMEZONE
 70
 -8000
  9
$LIGHTGLYPHDISPLAY
280
     1
  9
$TILEMODELIGHTSYNCH
280
     1
  9
$CMATERIAL
347
44
  9
$SOLIDHIST
280
     0
  9
$SHOWHIST
280
     1
  9
$DWFFRAME
280
     2
  9
$DGNFRAME
280
     2
  9
$REALWORLDSCALE
290
     1
  9
$INTERFERECOLOR
 62
   256
  9
$CSHADOW
280
     0
  9
$SHADOWPLANELOCATION
 40
0.0
  0
ENDSEC
  0
SECTION
  2
CLASSES
  0
CLASS
  1
ACDBDICTIONARYWDFLT
  2
AcDbDictionaryWithDefault
  3
ObjectDBX Classes
 90
        0
 91
        4
280
     0
281
     0
  0
CLASS
  1
VISUALSTYLE
  2
AcDbVisualStyle
  3
ObjectDBX Classes
 90
     4095
 91
        4
280
     0
281
     0
  0
CLASS
  1
MATERIAL
  2
AcDbMaterial
  3
ObjectDBX Classes
 90
     1153
 91
        4
280
     0
281
     0
  0
CLASS
  1
SCALE
  2
AcDbScale
  3
ObjectDBX Classes
 90
     1153
 91
        4
280
     0
281
     0
  0
CLASS
  1
TABLESTYLE
  2
AcDbTableStyle
  3
ObjectDBX Classes
 90
     4095
 91
        4
280
     0
281
     0
  0
CLASS
  1
MLEADERSTYLE
  2
AcDbMLeaderStyle
  3
ACDB_MLEADERSTYLE_CLASS
 90
     4095
 91
        4
280
     0
281
     0
  0
CLASS
  1
SUN
  2
AcDbSun
  3
SCENEOE
 90
     1153
 91
        4
280
     0
281
     0
  0
CLASS
  1
DICTIONARYVAR
  2
AcDbDictionaryVar
  3
ObjectDBX Classes
 90
        0
 91
        4
280
     0
281
     0
  0
CLASS
  1
CELLSTYLEMAP
  2
AcDbCellStyleMap
  3
ObjectDBX Classes
 90
     1152
 91
        4
280
     0
281
     0
  0
ENDSEC
  0
SECTION
  2
TABLES
  0
TABLE
  2
VPORT
  5
8
330
0
100
AcDbSymbolTable
 70
     1
  0
VPORT
  5
29
330
8
100
AcDbSymbolTableRecord
100
AcDbViewportTableRecord
  2
*Active
 70
     0
 10
0.0
 20
0.0
 11
1.0
 21
1.0
 12
210.0
 22
148.5
 13
0.0
 23
0.0
 14
10.0
 24
10.0
 15
10.0
 25
10.0
 16
0.0
 26
0.0
 36
1.0
 17
0.0
 27
0.0
 37
0.0
 40
297.0
 41
1.4141414141
 42
50.0
 43
0.0
 44
0.0
 50
0.0
 51
0.0
 71
     0
 72
  2000
 73
     1
 74
     3
 75
     0
 76
     0
 77
     0
 78
     0
281
     0
 65
     1
110
0.0
120
0.0
130
0.0
111
1.0
121
0.0
131
0.0
112
0.0
122
1.0
132
0.0
 79
     0
146
0.0
348
2F
 60
     3
 61
     5
292
     1
282
     1
141
0.0
142
0.0
 63
   250
361
6D
  0
ENDTAB
  0
TABLE
  2
LTYPE
  5
5
330
0
100
AcDbSymbolTable
 70
     6
  0
LTYPE
  5
14
330
5
100
AcDbSymbolTableRecord
100
AcDbLinetypeTableRecord
  2
ByBlock
 70
     0
  3

 72
    65
 73
     0
 40
0.0
  0
LTYPE
  5
15
330
5
100
AcDbSymbolTableRecord
100
AcDbLinetypeTableRecord
  2
ByLayer
 70
     0
  3

 72
    65
 73
     0
 40
0.0
  0
LTYPE
  5
16
330
5
100
AcDbSymbolTableRecord
100
AcDbLinetypeTableRecord
  2
Continuous
 70
     0
  3
Solid line
 72
    65
 73
     0
 40
0.0
  0
LTYPE
  5
6E
330
5
100
AcDbSymbolTableRecord
100
AcDbLinetypeTableRecord
  2
HIDDEN
 70
     0
  3
Hidden __ __ __ __ __ __ __ __ __ __ __ __ __ __
 72
    65
 73
     2
 40
1.905
 49
1.27
 74
     0
 49
-0.635
 74
     0
  0
LTYPE
  5
6F
330
5
100
AcDbSymbolTableRecord
100
AcDbLinetypeTableRecord
  2
PHANTOM
 70
     0
  3
Phantom ______  __  __  ______  __  __  ______
 72
    65
 73
     6
 40
12.7
 49
6.35
 74
     0
 49
-1.27
 74
     0
 49
1.27
 74
     0
 49
-1.27
 74
     0
 49
1.27
 74
     0
 49
-1.27
 74
     0
  0
LTYPE
  5
70
330
5
100
AcDbSymbolTableRecord
100
AcDbLinetypeTableRecord
  2
CENTER
 70
     0
  3
Center ____ _ ____ _ ____ _ ____ _ ____ _ ____
 72
    65
 73
     4
 40
10.16
 49
6.35
 74
     0
 49
-1.27
 74
     0
 49
1.27
 74
     0
 49
-1.27
 74
     0
  0
LTYPE
  5
71
330
5
100
AcDbSymbolTableRecord
100
AcDbLinetypeTableRecord
  2
CENTERX2
 70
     0
  3
Center (2x) ________  __  ________  __  _____
 72
    65
 73
     4
 40
20.32
 49
12.7
 74
     0
 49
-2.54
 74
     0
 49
2.54
 74
     0
 49
-2.54
 74
     0
  0
LTYPE
  5
72
330
5
100
AcDbSymbolTableRecord
100
AcDbLinetypeTableRecord
  2
DOT2
 70
     0
  3
Dot (.5x) ........................................
 72
    65
 73
     2
 40
0.635
 49
0.0
 74
     0
 49
-0.635
 74
     0
  0
ENDTAB
  0
TABLE
  2
LAYER
  5
2
330
0
100
AcDbSymbolTable
 70
     6
  0
LAYER
  5
10
330
2
100
AcDbSymbolTableRecord
100
AcDbLayerTableRecord
  2
0
 70
     0
 62
     7
  6
Continuous
370
    -3
390
F
347
46
348
0
  0
LAYER
  5
73
330
2
100
AcDbSymbolTableRecord
100
AcDbLayerTableRecord
  2
FORMAT
 70
     0
 62
     7
  6
Continuous
370
    -3
390
F
347
46
348
0
  0
LAYER
  5
74
330
2
100
AcDbSymbolTableRecord
100
AcDbLayerTableRecord
  2
太線
 70
     0
 62
     7
  6
Continuous
370
    35
390
F
347
46
348
0
  0
LAYER
  5
75
330
2
100
AcDbSymbolTableRecord
100
AcDbLayerTableRecord
  2
非表示
 70
     0
 62
    -3
  6
Continuous
290
     0
370
    -3
390
F
347
46
348
0
  0
LAYER
  5
76
330
2
100
AcDbSymbolTableRecord
100
AcDbLayerTableRecord
  2
設変0
 70
     0
 62
     7
  6
Continuous
370
    -3
390
F
347
46
348
0
  0
LAYER
  5
77
330
2
100
AcDbSymbolTableRecord
100
AcDbLayerTableRecord
  2
作図用
 70
     0
 62
     7
  6
Continuous
370
    -3
390
F
347
46
348
0
  0
ENDTAB
  0
TABLE
  2
STYLE
  5
3
330
0
100
AcDbSymbolTable
 70
    13
  0
STYLE
  5
11
330
3
100
AcDbSymbolTableRecord
100
AcDbTextStyleTableRecord
  2
Standard
 70
     0
 40
0.0
 41
1.0
 50
0.0
 71
     0
 42
3.5
  3
txt
  4
bigfont
  0
STYLE
  5
DF
330
3
100
AcDbSymbolTableRecord
100
AcDbTextStyleTableRecord
  2
SLDTEXTSTYLE0
 70
     0
 40
0.0
 41
0.8381134104
 50
0.0
 71
     0
 42
3.5
  3
TXT
  4
bigfont
  0
STYLE
  5
E1
330
3
100
AcDbSymbolTableRecord
100
AcDbTextStyleTableRecord
  2
SLDTEXTSTYLE1
 70
     0
 40
0.0
 41
0.8368171345
 50
0.0
 71
     0
 42
3.5
  3
TXT
  4
bigfont
  0
STYLE
  5
E3
330
3
100
AcDbSymbolTableRecord
100
AcDbTextStyleTableRecord
  2
SLDTEXTSTYLE2
 70
     0
 40
0.0
 41
0.7
 50
0.0
 71
     0
 42
3.5
  3
TXT
  4
bigfont
  0
STYLE
  5
EA
330
3
100
AcDbSymbolTableRecord
100
AcDbTextStyleTableRecord
  2
SLDTEXTSTYLE3
 70
     0
 40
0.0
 41
0.466666669
 50
0.0
 71
     0
 42
3.5
  3
TXT
  4
bigfont
  0
STYLE
  5
EE
330
3
100
AcDbSymbolTableRecord
100
AcDbTextStyleTableRecord
  2
SLDTEXTSTYLE4
 70
     0
 40
0.0
 41
0.8088321234
 50
0.0
 71
     0
 42
3.5
  3
TXT
  4
bigfont
  0
STYLE
  5
F0
330
3
100
AcDbSymbolTableRecord
100
AcDbTextStyleTableRecord
  2
SLDTEXTSTYLE5
 70
     0
 40
0.0
 41
0.780339084
 50
0.0
 71
     0
 42
3.5
  3
TXT
  4
bigfont
  0
STYLE
  5
F2
330
3
100
AcDbSymbolTableRecord
100
AcDbTextStyleTableRecord
  2
SLDTEXTSTYLE6
 70
     0
 40
0.0
 41
0.7973422044
 50
0.0
 71
     0
 42
3.5
  3
TXT
  4
bigfont
  0
STYLE
  5
F4
330
3
100
AcDbSymbolTableRecord
100
AcDbTextStyleTableRecord
  2
SLDTEXTSTYLE7
 70
     0
 40
0.0
 41
0.858372984
 50
0.0
 71
     0
 42
3.5
  3
TXT
  4
bigfont
  0
STYLE
  5
F6
330
3
100
AcDbSymbolTableRecord
100
AcDbTextStyleTableRecord
  2
SLDTEXTSTYLE8
 70
     0
 40
0.0
 41
0.7910772324
 50
0.0
 71
     0
 42
3.5
  3
TXT
  4
bigfont
  0
STYLE
  5
F8
330
3
100
AcDbSymbolTableRecord
100
AcDbTextStyleTableRecord
  2
SLDTEXTSTYLE9
 70
     0
 40
0.0
 41
0.860070624
 50
0.0
 71
     0
 42
3.5
  3
TXT
  4
bigfont
  0
STYLE
  5
FA
330
3
100
AcDbSymbolTableRecord
100
AcDbTextStyleTableRecord
  2
SLDTEXTSTYLE10
 70
     0
 40
0.0
 41
0.84
 50
0.0
 71
     0
 42
3.5
  3
TXT
  4
bigfont
  0
STYLE
  5
259
330
3
100
AcDbSymbolTableRecord
100
AcDbTextStyleTableRecord
  2
SLDTEXTSTYLE11
 70
     0
 40
0.0
 41
0.75
 50
0.0
 71
     0
 42
3.5
  3
TXT
  4
bigfont
  0
ENDTAB
  0
TABLE
  2
VIEW
  5
6
330
0
100
AcDbSymbolTable
 70
     0
  0
ENDTAB
  0
TABLE
  2
UCS
  5
7
330
0
100
AcDbSymbolTable
 70
     0
  0
ENDTAB
  0
TABLE
  2
APPID
  5
9
330
0
100
AcDbSymbolTable
 70
     1
  0
APPID
  5
12
330
9
100
AcDbSymbolTableRecord
100
AcDbRegAppTableRecord
  2
ACAD
 70
     0
  0
ENDTAB
  0
TABLE
  2
DIMSTYLE
  5
A
330
0
100
AcDbSymbolTable
 70
     3
100
AcDbDimStyleTable
  0
DIMSTYLE
105
27
330
A
100
AcDbSymbolTableRecord
100
AcDbDimStyleTableRecord
  2
ISO-25
 70
     0
 41
2.5
 42
0.625
 43
3.75
 44
1.25
 73
     0
 74
     0
 77
     1
 78
     8
140
2.5
141
2.5
143
0.0393700787
147
0.625
171
     3
172
     1
178
     0
271
     2
272
     2
274
     3
278
    44
283
     0
284
     8
340
11
  0
DIMSTYLE
105
25A
102
{ACAD_REACTORS
330
258
330
2B8
102
}
330
A
100
AcDbSymbolTableRecord
100
AcDbDimStyleTableRecord
  2
SLDDIMSTYLE0
 70
     0
 41
3.302
 44
0.0
 45
0.000000001
 73
     0
 74
     0
 77
     3
 78
     4
 79
     1
140
3.5
147
0.875
173
     1
178
     0
271
     2
272
     2
276
     2
284
    12
340
259
341
25B
343
25B
344
25B
  0
DIMSTYLE
105
2C3
102
{ACAD_REACTORS
330
2C2
102
}
330
A
100
AcDbSymbolTableRecord
100
AcDbDimStyleTableRecord
  2
SLDDIMSTYLE1
 70
     0
 41
3.302
 44
0.0
 45
0.000000001
 73
     0
 74
     0
 77
     3
 78
     4
 79
     1
140
3.5
147
0.875
172
     1
173
     1
178
     0
271
     2
272
     2
276
     2
284
    12
289
     0
340
259
341
25B
343
25B
344
25B
  0
ENDTAB
  0
TABLE
  2
BLOCK_RECORD
  5
1
330
0
100
AcDbSymbolTable
 70
     5
  0
BLOCK_RECORD
  5
1F
330
1
100
AcDbSymbolTableRecord
100
AcDbBlockTableRecord
  2
*Model_Space
340
22
 70
     0
280
     1
281
     0
  0
BLOCK_RECORD
  5
1B
330
1
100
AcDbSymbolTableRecord
100
AcDbBlockTableRecord
  2
*Paper_Space
340
1E
 70
     0
280
     1
281
     0
  0
BLOCK_RECORD
  5
23
330
1
100
AcDbSymbolTableRecord
100
AcDbBlockTableRecord
  2
*Paper_Space0
340
26
 70
     0
280
     1
281
     0
  0
BLOCK_RECORD
  5
25B
330
1
100
AcDbSymbolTableRecord
100
AcDbBlockTableRecord
  2
_OPEN30
340
0
102
{BLKREFS
331
264
331
265
331
2BC
331
2BD
331
2C7
331
2C8
102
}
 70
     0
280
     1
281
     0
  0
BLOCK_RECORD
  5
261
330
1
100
AcDbSymbolTableRecord
100
AcDbBlockTableRecord
  2
_D
340
0
 70
     0
280
     1
281
     0
  0
BLOCK_RECORD
  5
2B9
330
1
100
AcDbSymbolTableRecord
100
AcDbBlockTableRecord
  2
_D_1
340
0
 70
     0
280
     1
281
     0
  0
BLOCK_RECORD
  5
2C4
330
1
100
AcDbSymbolTableRecord
100
AcDbBlockTableRecord
  2
_D_2
340
0
 70
     0
280
     1
281
     0
  0
ENDTAB
  0
ENDSEC
  0
SECTION
  2
BLOCKS
  0
BLOCK
  5
20
330
1F
100
AcDbEntity
  8
0
100
AcDbBlockBegin
  2
*Model_Space
 70
     0
 10
0.0
 20
0.0
 30
0.0
  3
*Model_Space
  1

  0
ENDBLK
  5
21
330
1F
100
AcDbEntity
  8
0
100
AcDbBlockEnd
  0
BLOCK
  5
1C
330
1B
100
AcDbEntity
 67
     1
  8
0
100
AcDbBlockBegin
  2
*Paper_Space
 70
     0
 10
0.0
 20
0.0
 30
0.0
  3
*Paper_Space
  1

  0
ENDBLK
  5
1D
330
1B
100
AcDbEntity
 67
     1
  8
0
100
AcDbBlockEnd
  0
BLOCK
  5
24
330
23
100
AcDbEntity
  8
0
100
AcDbBlockBegin
  2
*Paper_Space0
 70
     0
 10
0.0
 20
0.0
 30
0.0
  3
*Paper_Space0
  1

  0
ENDBLK
  5
25
330
23
100
AcDbEntity
  8
0
100
AcDbBlockEnd
  0
BLOCK
  5
25C
330
25B
100
AcDbEntity
  8
0
100
AcDbBlockBegin
  2
_OPEN30
 70
     0
 10
0.0
 20
0.0
 30
0.0
  3
_OPEN30
  1

  0
LINE
  5
25E
330
25B
100
AcDbEntity
  8
0
  6
ByBlock
 62
     0
370
    -2
100
AcDbLine
 10
-1.0
 20
0.267949
 30
0.0
 11
0.0
 21
0.0
 31
0.0
  0
LINE
  5
25F
330
25B
100
AcDbEntity
  8
0
  6
ByBlock
 62
     0
370
    -2
100
AcDbLine
 10
0.0
 20
0.0
 30
0.0
 11
-1.0
 21
-0.267949
 31
0.0
  0
LINE
  5
260
330
25B
100
AcDbEntity
  8
0
  6
ByBlock
 62
     0
370
    -2
100
AcDbLine
 10
0.0
 20
0.0
 30
0.0
 11
-1.0
 21
0.0
 31
0.0
  0
ENDBLK
  5
25D
330
25B
100
AcDbEntity
  8
0
100
AcDbBlockEnd
  0
BLOCK
  5
262
330
261
100
AcDbEntity
  8
0
100
AcDbBlockBegin
  2
_D
 70
     0
 10
0.0
 20
0.0
 30
0.0
  3
_D
  1

  0
INSERT
  5
264
330
261
100
AcDbEntity
  8
FORMAT
100
AcDbBlockReference
  2
_OPEN30
 10
92.1616223847
 20
153.7998172512
 30
-1.5
 41
3.302
 42
3.302
 50
180.0
  0
INSERT
  5
265
330
261
100
AcDbEntity
  8
FORMAT
100
AcDbBlockReference
  2
_OPEN30
 10
114.7616223847
 20
153.7998172512
 30
-1.5
 41
3.302
 42
3.302
 50
0.0
  0
LINE
  5
266
330
261
100
AcDbEntity
  8
FORMAT
100
AcDbLine
 10
92.1616223847
 20
167.8130804732
 30
0.0
 11
92.1616223847
 21
152.7998172512
 31
0.0
  0
LINE
  5
267
330
261
100
AcDbEntity
  8
FORMAT
100
AcDbLine
 10
114.7616223847
 20
167.8130804732
 30
0.0
 11
114.7616223847
 21
152.7998172512
 31
0.0
  0
LINE
  5
268
330
261
100
AcDbEntity
  8
FORMAT
100
AcDbLine
 10
92.1616223847
 20
153.7998172512
 30
0.0
 11
114.7616223847
 21
153.7998172512
 31
0.0
  0
MTEXT
  5
269
330
261
100
AcDbEntity
  8
FORMAT
100
AcDbMText
 10
98.7333088671
 20
158.3115541658
 30
0.0
 40
3.5
 41
0.0
 46
0.0
 71
     1
 72
     1
  1
22.60
  7
SLDTEXTSTYLE11
 73
     1
 44
1.0
  0
ENDBLK
  5
263
330
261
100
AcDbEntity
  8
0
100
AcDbBlockEnd
  0
BLOCK
  5
2BA
330
2B9
100
AcDbEntity
  8
0
100
AcDbBlockBegin
  2
_D_1
 70
     0
 10
0.0
 20
0.0
 30
0.0
  3
_D_1
  1

  0
INSERT
  5
2BC
330
2B9
100
AcDbEntity
  8
FORMAT
100
AcDbBlockReference
  2
_OPEN30
 10
166.0122788646
 20
154.9945289903
 30
11.3
 41
3.302
 42
3.302
 50
180.0
  0
INSERT
  5
2BD
330
2B9
100
AcDbEntity
  8
FORMAT
100
AcDbBlockReference
  2
_OPEN30
 10
213.0122788646
 20
154.9945289903
 30
11.3
 41
3.302
 42
3.302
 50
0.0
  0
LINE
  5
2BE
330
2B9
100
AcDbEntity
  8
FORMAT
100
AcDbLine
 10
166.0122788646
 20
167.8130804732
 30
0.0
 11
166.0122788646
 21
153.9945289903
 31
0.0
  0
LINE
  5
2BF
330
2B9
100
AcDbEntity
  8
FORMAT
100
AcDbLine
 10
213.0122788646
 20
166.6130804732
 30
0.0
 11
213.0122788646
 21
153.9945289903
 31
0.0
  0
LINE
  5
2C0
330
2B9
100
AcDbEntity
  8
FORMAT
100
AcDbLine
 10
166.0122788646
 20
154.9945289903
 30
0.0
 11
213.0122788646
 21
154.9945289903
 31
0.0
  0
MTEXT
  5
2C1
330
2B9
100
AcDbEntity
  8
FORMAT
100
AcDbMText
 10
183.7406461282
 20
159.5062659049
 30
0.0
 40
3.5
 41
0.0
 46
0.0
 71
     1
 72
     1
  1
47.00
  7
SLDTEXTSTYLE11
 73
     1
 44
1.0
  0
ENDBLK
  5
2BB
330
2B9
100
AcDbEntity
  8
0
100
AcDbBlockEnd
  0
BLOCK
  5
2C5
330
2C4
100
AcDbEntity
  8
0
100
AcDbBlockBegin
  2
_D_2
 70
     0
 10
0.0
 20
0.0
 30
0.0
  3
_D_2
  1

  0
INSERT
  5
2C7
330
2C4
100
AcDbEntity
  8
FORMAT
100
AcDbBlockReference
  2
_OPEN30
 10
152.4308151216
 20
179.0130804732
 30
11.3
 41
3.302
 42
3.302
 50
270.0
  0
INSERT
  5
2C8
330
2C4
100
AcDbEntity
  8
FORMAT
100
AcDbBlockReference
  2
_OPEN30
 10
152.4308151216
 20
164.2130804732
 30
11.3
 41
3.302
 42
3.302
 50
90.0
  0
LINE
  5
2C9
330
2C4
100
AcDbEntity
  8
FORMAT
100
AcDbLine
 10
165.3122788646
 20
179.0130804732
 30
0.0
 11
151.4308151216
 21
179.0130804732
 31
0.0
  0
LINE
  5
2CA
330
2C4
100
AcDbEntity
  8
FORMAT
100
AcDbLine
 10
193.1122788646
 20
164.2130804732
 30
0.0
 11
151.4308151216
 21
164.2130804732
 31
0.0
  0
LINE
  5
2CB
330
2C4
100
AcDbEntity
  8
FORMAT
100
AcDbLine
 10
152.4308151216
 20
179.0130804732
 30
0.0
 11
152.4308151216
 21
194.8318307169
 31
0.0
  0
LINE
  5
2CC
330
2C4
100
AcDbEntity
  8
FORMAT
100
AcDbLine
 10
152.4308151216
 20
179.0130804732
 30
0.0
 11
152.4308151216
 21
164.2130804732
 31
0.0
  0
LINE
  5
2CD
330
2C4
100
AcDbEntity
  8
FORMAT
100
AcDbLine
 10
152.4308151216
 20
164.2130804732
 30
0.0
 11
152.4308151216
 21
157.8630804732
 31
0.0
  0
MTEXT
  5
2CE
330
2C4
100
AcDbEntity
  8
FORMAT
100
AcDbMText
 10
147.9190782071
 20
183.1943302296
 30
0.0
 40
3.5
 41
0.0
 46
0.0
 71
     1
 72
     1
  1
14.80
  7
SLDTEXTSTYLE11
 11
-7.044195017643634E-15
 21
1.0
 31
0.0
 73
     1
 44
1.0
  0
ENDBLK
  5
2C6
330
2C4
100
AcDbEntity
  8
0
100
AcDbBlockEnd
  0
ENDSEC
  0
SECTION
  2
ENTITIES
  0
LINE
  5
78
330
1F
100
AcDbEntity
  8
太線
100
AcDbLine
 10
404.8999
 20
39.9593928705
 30
0.0
 11
360.7628548659
 21
39.9593928705
 31
0.0
  0
LINE
  5
79
330
1F
100
AcDbEntity
  8
0
  6
Continuous
 62
     7
370
    18
100
AcDbLine
 10
248.0
 20
5.0
 30
0.0
 11
248.0
 21
10.0
 31
0.0
  0
LINE
  5
7A
330
1F
100
AcDbEntity
  8
0
  6
Continuous
 62
     7
370
    18
100
AcDbLine
 10
313.0
 20
5.0
 30
0.0
 11
313.0
 21
10.0
 31
0.0
  0
LINE
  5
7B
330
1F
100
AcDbEntity
  8
0
  6
Continuous
 62
     7
370
    18
100
AcDbLine
 10
312.0
 20
5.0
 30
0.0
 11
312.0
 21
10.0
 31
0.0
  0
LINE
  5
7C
330
1F
100
AcDbEntity
  8
0
  6
Continuous
 62
     7
370
    18
100
AcDbLine
 10
311.0
 20
5.0
 30
0.0
 11
311.0
 21
10.0
 31
0.0
  0
LINE
  5
7D
330
1F
100
AcDbEntity
  8
0
  6
Continuous
 62
     7
370
    18
100
AcDbLine
 10
310.0
 20
5.0
 30
0.0
 11
310.0
 21
10.0
 31
0.0
  0
LINE
  5
7E
330
1F
100
AcDbEntity
  8
0
  6
Continuous
 62
     7
370
    18
100
AcDbLine
 10
309.0
 20
5.0
 30
0.0
 11
309.0
 21
10.0
 31
0.0
  0
LINE
  5
7F
330
1F
100
AcDbEntity
  8
0
  6
Continuous
 62
     7
370
    18
100
AcDbLine
 10
308.0
 20
5.0
 30
0.0
 11
308.0
 21
10.0
 31
0.0
  0
LINE
  5
80
330
1F
100
AcDbEntity
  8
0
  6
Continuous
 62
     7
370
    18
100
AcDbLine
 10
304.0
 20
5.0
 30
0.0
 11
304.0
 21
10.0
 31
0.0
  0
LINE
  5
81
330
1F
100
AcDbEntity
  8
0
  6
Continuous
 62
     7
370
    18
100
AcDbLine
 10
303.0
 20
5.0
 30
0.0
 11
303.0
 21
10.0
 31
0.0
  0
LINE
  5
82
330
1F
100
AcDbEntity
  8
0
  6
Continuous
 62
     7
370
    18
100
AcDbLine
 10
302.0
 20
5.0
 30
0.0
 11
302.0
 21
10.0
 31
0.0
  0
LINE
  5
83
330
1F
100
AcDbEntity
  8
0
  6
Continuous
 62
     7
370
    18
100
AcDbLine
 10
301.0
 20
5.0
 30
0.0
 11
301.0
 21
10.0
 31
0.0
  0
LINE
  5
84
330
1F
100
AcDbEntity
  8
0
  6
Continuous
 62
     7
370
    18
100
AcDbLine
 10
300.0
 20
5.0
 30
0.0
 11
300.0
 21
10.0
 31
0.0
  0
LINE
  5
85
330
1F
100
AcDbEntity
  8
0
  6
Continuous
 62
     7
370
    18
100
AcDbLine
 10
299.0
 20
5.0
 30
0.0
 11
299.0
 21
10.0
 31
0.0
  0
LINE
  5
86
330
1F
100
AcDbEntity
  8
0
  6
Continuous
 62
     7
370
    18
100
AcDbLine
 10
298.0
 20
5.0
 30
0.0
 11
298.0
 21
10.0
 31
0.0
  0
LINE
  5
87
330
1F
100
AcDbEntity
  8
0
  6
Continuous
 62
     7
370
    18
100
AcDbLine
 10
294.0
 20
5.0
 30
0.0
 11
294.0
 21
10.0
 31
0.0
  0
LINE
  5
88
330
1F
100
AcDbEntity
  8
0
  6
Continuous
 62
     7
370
    18
100
AcDbLine
 10
293.0
 20
5.0
 30
0.0
 11
293.0
 21
10.0
 31
0.0
  0
LINE
  5
89
330
1F
100
AcDbEntity
  8
0
  6
Continuous
 62
     7
370
    18
100
AcDbLine
 10
292.0
 20
5.0
 30
0.0
 11
292.0
 21
10.0
 31
0.0
  0
LINE
  5
8A
330
1F
100
AcDbEntity
  8
0
  6
Continuous
 62
     7
370
    18
100
AcDbLine
 10
291.0
 20
5.0
 30
0.0
 11
291.0
 21
10.0
 31
0.0
  0
LINE
  5
8B
330
1F
100
AcDbEntity
  8
0
  6
Continuous
 62
     7
370
    18
100
AcDbLine
 10
290.0
 20
5.0
 30
0.0
 11
290.0
 21
10.0
 31
0.0
  0
LINE
  5
8C
330
1F
100
AcDbEntity
  8
0
  6
Continuous
 62
     7
370
    18
100
AcDbLine
 10
289.0
 20
5.0
 30
0.0
 11
289.0
 21
10.0
 31
0.0
  0
LINE
  5
8D
330
1F
100
AcDbEntity
  8
0
  6
Continuous
 62
     7
370
    18
100
AcDbLine
 10
288.0
 20
5.0
 30
0.0
 11
288.0
 21
10.0
 31
0.0
  0
LINE
  5
8E
330
1F
100
AcDbEntity
  8
0
  6
Continuous
 62
     7
370
    18
100
AcDbLine
 10
284.0
 20
5.0
 30
0.0
 11
284.0
 21
10.0
 31
0.0
  0
LINE
  5
8F
330
1F
100
AcDbEntity
  8
0
  6
Continuous
 62
     7
370
    18
100
AcDbLine
 10
283.0
 20
5.0
 30
0.0
 11
283.0
 21
10.0
 31
0.0
  0
LINE
  5
90
330
1F
100
AcDbEntity
  8
0
  6
Continuous
 62
     7
370
    18
100
AcDbLine
 10
282.0
 20
5.0
 30
0.0
 11
282.0
 21
10.0
 31
0.0
  0
LINE
  5
91
330
1F
100
AcDbEntity
  8
0
  6
Continuous
 62
     7
370
    18
100
AcDbLine
 10
281.0
 20
5.0
 30
0.0
 11
281.0
 21
10.0
 31
0.0
  0
LINE
  5
92
330
1F
100
AcDbEntity
  8
0
  6
Continuous
 62
     7
370
    18
100
AcDbLine
 10
280.0
 20
5.0
 30
0.0
 11
280.0
 21
10.0
 31
0.0
  0
LINE
  5
93
330
1F
100
AcDbEntity
  8
0
  6
Continuous
 62
     7
370
    18
100
AcDbLine
 10
279.0
 20
5.0
 30
0.0
 11
279.0
 21
10.0
 31
0.0
  0
LINE
  5
94
330
1F
100
AcDbEntity
  8
0
  6
Continuous
 62
     7
370
    18
100
AcDbLine
 10
278.0
 20
5.0
 30
0.0
 11
278.0
 21
10.0
 31
0.0
  0
LINE
  5
95
330
1F
100
AcDbEntity
  8
0
  6
Continuous
 62
     7
370
    18
100
AcDbLine
 10
274.0
 20
5.0
 30
0.0
 11
274.0
 21
10.0
 31
0.0
  0
LINE
  5
96
330
1F
100
AcDbEntity
  8
0
  6
Continuous
 62
     7
370
    18
100
AcDbLine
 10
273.0
 20
5.0
 30
0.0
 11
273.0
 21
10.0
 31
0.0
  0
LINE
  5
97
330
1F
100
AcDbEntity
  8
0
  6
Continuous
 62
     7
370
    18
100
AcDbLine
 10
272.0
 20
5.0
 30
0.0
 11
272.0
 21
10.0
 31
0.0
  0
LINE
  5
98
330
1F
100
AcDbEntity
  8
0
  6
Continuous
 62
     7
370
    18
100
AcDbLine
 10
271.0
 20
5.0
 30
0.0
 11
271.0
 21
10.0
 31
0.0
  0
LINE
  5
99
330
1F
100
AcDbEntity
  8
0
  6
Continuous
 62
     7
370
    18
100
AcDbLine
 10
270.0
 20
5.0
 30
0.0
 11
270.0
 21
10.0
 31
0.0
  0
LINE
  5
9A
330
1F
100
AcDbEntity
  8
0
  6
Continuous
 62
     7
370
    18
100
AcDbLine
 10
269.0
 20
5.0
 30
0.0
 11
269.0
 21
10.0
 31
0.0
  0
LINE
  5
9B
330
1F
100
AcDbEntity
  8
0
  6
Continuous
 62
     7
370
    18
100
AcDbLine
 10
268.0
 20
5.0
 30
0.0
 11
268.0
 21
10.0
 31
0.0
  0
LINE
  5
9C
330
1F
100
AcDbEntity
  8
0
  6
Continuous
 62
     7
370
    18
100
AcDbLine
 10
264.0
 20
5.0
 30
0.0
 11
264.0
 21
10.0
 31
0.0
  0
LINE
  5
9D
330
1F
100
AcDbEntity
  8
0
  6
Continuous
 62
     7
370
    18
100
AcDbLine
 10
263.0
 20
5.0
 30
0.0
 11
263.0
 21
10.0
 31
0.0
  0
LINE
  5
9E
330
1F
100
AcDbEntity
  8
0
  6
Continuous
 62
     7
370
    18
100
AcDbLine
 10
262.0
 20
5.0
 30
0.0
 11
262.0
 21
10.0
 31
0.0
  0
LINE
  5
9F
330
1F
100
AcDbEntity
  8
0
  6
Continuous
 62
     7
370
    18
100
AcDbLine
 10
261.0
 20
5.0
 30
0.0
 11
261.0
 21
10.0
 31
0.0
  0
LINE
  5
A0
330
1F
100
AcDbEntity
  8
0
  6
Continuous
 62
     7
370
    18
100
AcDbLine
 10
260.0
 20
5.0
 30
0.0
 11
260.0
 21
10.0
 31
0.0
  0
LINE
  5
A1
330
1F
100
AcDbEntity
  8
0
  6
Continuous
 62
     7
370
    18
100
AcDbLine
 10
259.0
 20
5.0
 30
0.0
 11
259.0
 21
10.0
 31
0.0
  0
LINE
  5
A2
330
1F
100
AcDbEntity
  8
0
  6
Continuous
 62
     7
370
    18
100
AcDbLine
 10
258.0
 20
5.0
 30
0.0
 11
258.0
 21
10.0
 31
0.0
  0
LINE
  5
A3
330
1F
100
AcDbEntity
  8
0
  6
Continuous
 62
     7
370
    18
100
AcDbLine
 10
254.0
 20
5.0
 30
0.0
 11
254.0
 21
10.0
 31
0.0
  0
LINE
  5
A4
330
1F
100
AcDbEntity
  8
0
  6
Continuous
 62
     7
370
    18
100
AcDbLine
 10
253.0
 20
5.0
 30
0.0
 11
253.0
 21
10.0
 31
0.0
  0
LINE
  5
A5
330
1F
100
AcDbEntity
  8
0
  6
Continuous
 62
     7
370
    18
100
AcDbLine
 10
252.0
 20
5.0
 30
0.0
 11
252.0
 21
10.0
 31
0.0
  0
LINE
  5
A6
330
1F
100
AcDbEntity
  8
0
  6
Continuous
 62
     7
370
    18
100
AcDbLine
 10
251.0
 20
5.0
 30
0.0
 11
251.0
 21
10.0
 31
0.0
  0
LINE
  5
A7
330
1F
100
AcDbEntity
  8
0
  6
Continuous
 62
     7
370
    18
100
AcDbLine
 10
250.0
 20
5.0
 30
0.0
 11
250.0
 21
10.0
 31
0.0
  0
LINE
  5
A8
330
1F
100
AcDbEntity
  8
0
  6
Continuous
 62
     7
370
    18
100
AcDbLine
 10
249.0
 20
5.0
 30
0.0
 11
249.0
 21
10.0
 31
0.0
  0
LINE
  5
A9
330
1F
100
AcDbEntity
  8
0
  6
Continuous
 62
     7
370
    18
100
AcDbLine
 10
240.0
 20
5.0
 30
0.0
 11
240.0
 21
10.0
 31
0.0
  0
LINE
  5
AA
330
1F
100
AcDbEntity
  8
0
  6
Continuous
 62
     7
370
    18
100
AcDbLine
 10
239.0
 20
5.0
 30
0.0
 11
239.0
 21
10.0
 31
0.0
  0
LINE
  5
AB
330
1F
100
AcDbEntity
  8
0
  6
Continuous
 62
     7
370
    18
100
AcDbLine
 10
243.0
 20
5.0
 30
0.0
 11
243.0
 21
10.0
 31
0.0
  0
LINE
  5
AC
330
1F
100
AcDbEntity
  8
0
  6
Continuous
 62
     7
370
    18
100
AcDbLine
 10
242.0
 20
5.0
 30
0.0
 11
242.0
 21
10.0
 31
0.0
  0
LINE
  5
AD
330
1F
100
AcDbEntity
  8
0
  6
Continuous
 62
     7
370
    18
100
AcDbLine
 10
241.0
 20
5.0
 30
0.0
 11
241.0
 21
10.0
 31
0.0
  0
LINE
  5
AE
330
1F
100
AcDbEntity
  8
0
  6
Continuous
 62
     7
370
    18
100
AcDbLine
 10
314.0
 20
5.0
 30
0.0
 11
314.0
 21
10.0
 31
0.0
  0
LINE
  5
AF
330
1F
100
AcDbEntity
  8
0
  6
Continuous
 62
     7
370
    18
100
AcDbLine
 10
244.0
 20
5.0
 30
0.0
 11
244.0
 21
10.0
 31
0.0
  0
LINE
  5
B0
330
1F
100
AcDbEntity
  8
0
  6
Continuous
 62
     7
370
    18
100
AcDbLine
 10
307.0
 20
5.0
 30
0.0
 11
307.0
 21
10.0
 31
0.0
  0
LINE
  5
B1
330
1F
100
AcDbEntity
  8
0
  6
Continuous
 62
     7
370
    18
100
AcDbLine
 10
297.0
 20
5.0
 30
0.0
 11
297.0
 21
10.0
 31
0.0
  0
LINE
  5
B2
330
1F
100
AcDbEntity
  8
0
  6
Continuous
 62
     7
370
    18
100
AcDbLine
 10
287.0
 20
5.0
 30
0.0
 11
287.0
 21
10.0
 31
0.0
  0
LINE
  5
B3
330
1F
100
AcDbEntity
  8
0
  6
Continuous
 62
     7
370
    18
100
AcDbLine
 10
277.0
 20
5.0
 30
0.0
 11
277.0
 21
10.0
 31
0.0
  0
LINE
  5
B4
330
1F
100
AcDbEntity
  8
0
  6
Continuous
 62
     7
370
    18
100
AcDbLine
 10
267.0
 20
5.0
 30
0.0
 11
267.0
 21
10.0
 31
0.0
  0
LINE
  5
B5
330
1F
100
AcDbEntity
  8
0
  6
Continuous
 62
     7
370
    18
100
AcDbLine
 10
257.0
 20
5.0
 30
0.0
 11
257.0
 21
10.0
 31
0.0
  0
LINE
  5
B6
330
1F
100
AcDbEntity
  8
0
  6
Continuous
 62
     7
370
    18
100
AcDbLine
 10
247.0
 20
5.0
 30
0.0
 11
247.0
 21
10.0
 31
0.0
  0
LINE
  5
B7
330
1F
100
AcDbEntity
  8
0
  6
Continuous
 62
     7
370
    18
100
AcDbLine
 10
238.0
 20
5.0
 30
0.0
 11
238.0
 21
10.0
 31
0.0
  0
LINE
  5
B8
330
1F
100
AcDbEntity
  8
0
  6
Continuous
 62
     7
370
    18
100
AcDbLine
 10
237.0
 20
5.0
 30
0.0
 11
237.0
 21
10.0
 31
0.0
  0
LINE
  5
B9
330
1F
100
AcDbEntity
  8
0
  6
Continuous
 62
     7
370
    18
100
AcDbLine
 10
266.0
 20
5.0
 30
0.0
 11
266.0
 21
10.0
 31
0.0
  0
LINE
  5
BA
330
1F
100
AcDbEntity
  8
0
  6
Continuous
 62
     7
370
    18
100
AcDbLine
 10
256.0
 20
5.0
 30
0.0
 11
256.0
 21
10.0
 31
0.0
  0
LINE
  5
BB
330
1F
100
AcDbEntity
  8
0
  6
Continuous
 62
     7
370
    18
100
AcDbLine
 10
306.0
 20
5.0
 30
0.0
 11
306.0
 21
10.0
 31
0.0
  0
LINE
  5
BC
330
1F
100
AcDbEntity
  8
0
  6
Continuous
 62
     7
370
    18
100
AcDbLine
 10
296.0
 20
5.0
 30
0.0
 11
296.0
 21
10.0
 31
0.0
  0
LINE
  5
BD
330
1F
100
AcDbEntity
  8
0
  6
Continuous
 62
     7
370
    18
100
AcDbLine
 10
286.0
 20
5.0
 30
0.0
 11
286.0
 21
10.0
 31
0.0
  0
LINE
  5
BE
330
1F
100
AcDbEntity
  8
0
  6
Continuous
 62
     7
370
    18
100
AcDbLine
 10
276.0
 20
5.0
 30
0.0
 11
276.0
 21
10.0
 31
0.0
  0
LINE
  5
BF
330
1F
100
AcDbEntity
  8
0
  6
Continuous
 62
     7
370
    18
100
AcDbLine
 10
246.0
 20
5.0
 30
0.0
 11
246.0
 21
10.0
 31
0.0
  0
LINE
  5
C0
330
1F
100
AcDbEntity
  8
0
  6
Continuous
 62
     7
370
    18
100
AcDbLine
 10
236.0
 20
5.0
 30
0.0
 11
236.0
 21
10.0
 31
0.0
  0
LINE
  5
C1
330
1F
100
AcDbEntity
  8
0
  6
Continuous
 62
     7
370
    18
100
AcDbLine
 10
295.0
 20
5.0
 30
0.0
 11
295.0
 21
15.0
 31
0.0
  0
LINE
  5
C2
330
1F
100
AcDbEntity
  8
0
  6
Continuous
 62
     7
370
    18
100
AcDbLine
 10
265.0
 20
5.0
 30
0.0
 11
265.0
 21
15.0
 31
0.0
  0
LINE
  5
C3
330
1F
100
AcDbEntity
  8
0
  6
Continuous
 62
     7
370
    18
100
AcDbLine
 10
305.0
 20
5.0
 30
0.0
 11
305.0
 21
15.0
 31
0.0
  0
LINE
  5
C4
330
1F
100
AcDbEntity
  8
0
  6
Continuous
 62
     7
370
    18
100
AcDbLine
 10
285.0
 20
5.0
 30
0.0
 11
285.0
 21
15.0
 31
0.0
  0
LINE
  5
C5
330
1F
100
AcDbEntity
  8
0
  6
Continuous
 62
     7
370
    18
100
AcDbLine
 10
255.0
 20
5.0
 30
0.0
 11
255.0
 21
15.0
 31
0.0
  0
LINE
  5
C6
330
1F
100
AcDbEntity
  8
0
  6
Continuous
 62
     7
370
    18
100
AcDbLine
 10
245.0
 20
5.0
 30
0.0
 11
245.0
 21
15.0
 31
0.0
  0
LINE
  5
C7
330
1F
100
AcDbEntity
  8
0
  6
Continuous
 62
     7
370
    18
100
AcDbLine
 10
235.0
 20
5.0
 30
0.0
 11
235.0
 21
15.0
 31
0.0
  0
LINE
  5
C8
330
1F
100
AcDbEntity
  8
0
  6
Continuous
 62
     7
370
    18
100
AcDbLine
 10
315.0
 20
5.0
 30
0.0
 11
315.0
 21
15.0
 31
0.0
  0
LINE
  5
C9
330
1F
100
AcDbEntity
  8
0
  6
Continuous
 62
     7
370
    18
100
AcDbLine
 10
275.0
 20
5.0
 30
0.0
 11
275.0
 21
15.0
 31
0.0
  0
LINE
  5
CA
330
1F
100
AcDbEntity
  8
0
  6
Continuous
 62
     7
370
    18
100
AcDbLine
 10
0.099999964
 20
50.0
 30
0.0
 11
0.099999964
 21
0.099999964
 31
0.0
  0
LINE
  5
CB
330
1F
100
AcDbEntity
  8
0
  6
Continuous
 62
     7
370
    18
100
AcDbLine
 10
0.099999964
 20
0.099999964
 30
0.0
 11
50.0
 21
0.099999964
 31
0.0
  0
LINE
  5
CC
330
1F
100
AcDbEntity
  8
0
  6
Continuous
 62
     7
370
    18
100
AcDbLine
 10
0.099999964
 20
296.8999
 30
0.0
 11
0.099999964
 21
247.0
 31
0.0
  0
LINE
  5
CD
330
1F
100
AcDbEntity
  8
0
  6
Continuous
 62
     7
370
    18
100
AcDbLine
 10
0.099999964
 20
296.8999
 30
0.0
 11
50.0
 21
296.8999
 31
0.0
  0
LINE
  5
CE
330
1F
100
AcDbEntity
  8
0
  6
Continuous
 62
     7
370
    18
100
AcDbLine
 10
370.0
 20
296.8999
 30
0.0
 11
419.8999
 21
296.8999
 31
0.0
  0
LINE
  5
CF
330
1F
100
AcDbEntity
  8
0
  6
Continuous
 62
     7
370
    18
100
AcDbLine
 10
419.8999
 20
296.8999
 30
0.0
 11
419.8999
 21
247.0
 31
0.0
  0
LINE
  5
D0
330
1F
100
AcDbEntity
  8
0
  6
Continuous
 62
     7
370
    18
100
AcDbLine
 10
370.0
 20
0.099999964
 30
0.0
 11
419.8999
 21
0.099999964
 31
0.0
  0
LINE
  5
D1
330
1F
100
AcDbEntity
  8
0
  6
Continuous
 62
     7
370
    18
100
AcDbLine
 10
419.8999
 20
50.0
 30
0.0
 11
419.8999
 21
0.099999964
 31
0.0
  0
LINE
  5
D2
330
1F
100
AcDbEntity
  8
太線
100
AcDbLine
 10
360.7628548659
 20
45.0
 30
0.0
 11
360.7628548659
 21
35.0
 31
0.0
  0
LINE
  5
D3
330
1F
100
AcDbEntity
  8
太線
100
AcDbLine
 10
392.8097166694
 20
45.0
 30
0.0
 11
392.8097166694
 21
35.0
 31
0.0
  0
LINE
  5
D4
330
1F
100
AcDbEntity
  8
太線
100
AcDbLine
 10
383.8999
 20
45.0
 30
0.0
 11
383.8999
 21
35.0
 31
0.0
  0
LINE
  5
D5
330
1F
100
AcDbEntity
  8
0
  6
Continuous
 62
     7
370
    50
100
AcDbLine
 10
15.0
 20
282.0
 30
0.0
 11
15.0
 21
15.0
 31
0.0
  0
LINE
  5
D6
330
1F
100
AcDbEntity
  8
0
  6
HIDDEN
 62
     7
370
    35
100
AcDbLine
 10
290.46899
 20
55.0
 30
0.0
 11
404.8999
 21
55.0
 31
0.0
  0
LINE
  5
D7
330
1F
100
AcDbEntity
  8
0
  6
Continuous
 62
     7
370
    35
100
AcDbLine
 10
275.0
 20
45.0
 30
0.0
 11
404.8999
 21
45.0
 31
0.0
  0
LINE
  5
D8
330
1F
100
AcDbEntity
  8
0
  6
Continuous
 62
     7
370
    35
100
AcDbLine
 10
275.0
 20
25.0
 30
0.0
 11
404.8999
 21
25.0
 31
0.0
  0
LINE
  5
D9
330
1F
100
AcDbEntity
  8
0
  6
Continuous
 62
     7
370
    35
100
AcDbLine
 10
275.0
 20
65.0
 30
0.0
 11
404.8999
 21
65.0
 31
0.0
  0
LINE
  5
DA
330
1F
100
AcDbEntity
  8
0
  6
Continuous
 62
     7
370
    35
100
AcDbLine
 10
275.0
 20
35.0
 30
0.0
 11
404.8999
 21
35.0
 31
0.0
  0
LINE
  5
DB
330
1F
100
AcDbEntity
  8
0
  6
Continuous
 62
     7
370
    35
100
AcDbLine
 10
275.0
 20
15.0
 30
0.0
 11
275.0
 21
65.0
 31
0.0
  0
LINE
  5
DC
330
1F
100
AcDbEntity
  8
0
  6
Continuous
 62
     7
370
    50
100
AcDbLine
 10
15.0
 20
282.0
 30
0.0
 11
404.8999
 21
282.0
 31
0.0
  0
LINE
  5
DD
330
1F
100
AcDbEntity
  8
0
  6
Continuous
 62
     7
370
    50
100
AcDbLine
 10
404.8999
 20
282.0
 30
0.0
 11
404.8999
 21
15.0
 31
0.0
  0
LINE
  5
DE
330
1F
100
AcDbEntity
  8
0
  6
Continuous
 62
     7
370
    50
100
AcDbLine
 10
15.0
 20
15.0
 30
0.0
 11
404.8999
 21
15.0
 31
0.0
  0
MTEXT
  5
E0
330
1F
100
AcDbEntity
  8
0
  6
Continuous
 62
     7
370
     0
100
AcDbMText
 10
276.47336
 20
39.1785177399
 30
0.0
 40
2.7999992
 41
0.0
 46
0.0
 71
     1
 72
     1
  1
CH. CODE
  7
SLDTEXTSTYLE0
 73
     1
 44
1.0
  0
MTEXT
  5
E2
330
1F
100
AcDbEntity
  8
0
  6
Continuous
 62
     7
370
     0
100
AcDbMText
 10
276.38037
 20
44.1004537399
 30
0.0
 40
2.7999992
 41
0.0
 46
0.0
 71
     1
 72
     1
  1
PART NO.
  7
SLDTEXTSTYLE1
 73
     1
 44
1.0
  0
MTEXT
  5
E4
330
1F
100
AcDbEntity
  8
0
  6
Continuous
 62
     7
370
     0
100
AcDbMText
 10
318.04688
 20
14.4453388795
 30
0.0
 40
5.0
 41
0.0
 46
0.0
 71
     1
 72
     1
  1
3
  7
SLDTEXTSTYLE2
 73
     1
 44
1.0
  0
MTEXT
  5
E5
330
1F
100
AcDbEntity
  8
0
  6
Continuous
 62
     7
370
     0
100
AcDbMText
 10
218.04688
 20
14.4453388795
 30
0.0
 40
5.0
 41
0.0
 46
0.0
 71
     1
 72
     1
  1
2
  7
SLDTEXTSTYLE2
 73
     1
 44
1.0
  0
MTEXT
  5
E6
330
1F
100
AcDbEntity
  8
0
  6
Continuous
 62
     7
370
     0
100
AcDbMText
 10
405.44678
 20
112.9453388795
 30
0.0
 40
5.0
 41
0.0
 46
0.0
 71
     1
 72
     1
  1
A
  7
SLDTEXTSTYLE2
 73
     1
 44
1.0
  0
MTEXT
  5
E7
330
1F
100
AcDbEntity
  8
0
  6
Continuous
 62
     7
370
     0
100
AcDbMText
 10
405.44678
 20
212.9453388795
 30
0.0
 40
5.0
 41
0.0
 46
0.0
 71
     1
 72
     1
  1
B
  7
SLDTEXTSTYLE2
 73
     1
 44
1.0
  0
MTEXT
  5
E8
330
1F
100
AcDbEntity
  8
0
  6
Continuous
 62
     7
370
     0
100
AcDbMText
 10
318.04688
 20
288.4453388795
 30
0.0
 40
5.0
 41
0.0
 46
0.0
 71
     1
 72
     1
  1
3
  7
SLDTEXTSTYLE2
 73
     1
 44
1.0
  0
MTEXT
  5
E9
330
1F
100
AcDbEntity
  8
0
  6
Continuous
 62
     7
370
     0
100
AcDbMText
 10
218.04688
 20
288.4453388795
 30
0.0
 40
5.0
 41
0.0
 46
0.0
 71
     1
 72
     1
  1
2
  7
SLDTEXTSTYLE2
 73
     1
 44
1.0
  0
MTEXT
  5
EB
330
1F
100
AcDbEntity
  8
0
  6
Continuous
 62
     7
370
     0
100
AcDbMText
 10
118.04688
 20
288.4453388795
 30
0.0
 40
5.0
 41
0.0
 46
0.0
 71
     1
 72
     1
  1
1
  7
SLDTEXTSTYLE3
 73
     1
 44
1.0
  0
MTEXT
  5
EC
330
1F
100
AcDbEntity
  8
0
  6
Continuous
 62
     7
370
     0
100
AcDbMText
 10
10.546875
 20
212.9453388795
 30
0.0
 40
5.0
 41
0.0
 46
0.0
 71
     1
 72
     1
  1
B
  7
SLDTEXTSTYLE2
 73
     1
 44
1.0
  0
MTEXT
  5
ED
330
1F
100
AcDbEntity
  8
0
  6
Continuous
 62
     7
370
     0
100
AcDbMText
 10
10.546875
 20
112.9453388795
 30
0.0
 40
5.0
 41
0.0
 46
0.0
 71
     1
 72
     1
  1
A
  7
SLDTEXTSTYLE2
 73
     1
 44
1.0
  0
MTEXT
  5
EF
330
1F
100
AcDbEntity
  8
0
  6
Continuous
 62
     7
370
     0
100
AcDbMText
 10
276.22412
 20
34.3027534143
 30
0.0
 40
3.199995
 41
0.0
 46
0.0
 71
     1
 72
     1
  1
DWG NO.
  7
SLDTEXTSTYLE4
 73
     1
 44
1.0
  0
MTEXT
  5
F1
330
1F
100
AcDbEntity
  8
0
  6
Continuous
 62
     7
370
     0
100
AcDbMText
 10
276.22412
 20
63.0649764143
 30
0.0
 40
3.199995
 41
0.0
 46
0.0
 71
     1
 72
     1
  1
NAME
  7
SLDTEXTSTYLE5
 73
     1
 44
1.0
  0
MTEXT
  5
F3
330
1F
100
AcDbEntity
  8
0
  6
Continuous
 62
     7
370
     0
100
AcDbMText
 10
384.7885377118
 20
44.550520557
 30
0.0
 40
3.199995
 41
0.0
 46
0.0
 71
     1
 72
     1
  1
SCL
  7
SLDTEXTSTYLE6
 73
     1
 44
1.0
  0
MTEXT
  5
F5
330
1F
100
AcDbEntity
  8
0
  6
Continuous
 62
     7
370
     0
100
AcDbMText
 10
394.6824034847
 20
44.550520557
 30
0.0
 40
3.199995
 41
0.0
 46
0.0
 71
     1
 72
     1
  1
UNIT
  7
SLDTEXTSTYLE7
 73
     1
 44
1.0
  0
MTEXT
  5
F7
330
1F
100
AcDbEntity
  8
0
  6
Continuous
 62
     7
370
     0
100
AcDbMText
 10
361.7371312641
 20
44.550520557
 30
0.0
 40
3.199995
 41
0.0
 46
0.0
 71
     1
 72
     1
  1
ISSUE DATE
  7
SLDTEXTSTYLE8
 73
     1
 44
1.0
  0
MTEXT
  5
F9
330
1F
100
AcDbEntity
  8
0
  6
Continuous
 62
     7
370
     0
100
AcDbMText
 10
284.98438
 20
22.9453388795
 30
0.0
 40
5.0
 41
0.0
 46
0.0
 71
     1
 72
     1
  1
YAZAKI Energy System Corporation
  7
SLDTEXTSTYLE9
 73
     1
 44
1.0
  0
MTEXT
  5
FB
330
1F
100
AcDbEntity
  8
0
  6
Continuous
 62
     7
370
     0
100
AcDbMText
 10
384.7885377118
 20
39.5269654684
 30
0.0
 40
3.175
 41
0.0
 46
0.0
 71
     1
 72
     1
  1
1:1
  7
SLDTEXTSTYLE10
 73
     1
 44
1.0
  0
MTEXT
  5
FC
330
1F
100
AcDbEntity
  8
0
  6
Continuous
 62
     7
370
     0
100
AcDbMText
 10
394.9834255673
 20
39.526965352
 30
0.0
 40
3.175
 41
0.0
 46
0.0
 71
     1
 72
     1
  1
ｍｍ
  7
SLDTEXTSTYLE2
 73
     1
 44
1.0
  0
MTEXT
  5
FD
330
1F
100
AcDbEntity
  8
0
  6
Continuous
 62
     7
370
     0
100
AcDbMText
 10
361.7371312641
 20
39.526965352
 30
0.0
 40
3.175
 41
0.0
 46
0.0
 71
     1
 72
     1
  1
2021/7/12
  7
SLDTEXTSTYLE2
 73
     1
 44
1.0
  0
MTEXT
  5
FE
330
1F
100
AcDbEntity
  8
0
  6
Continuous
 62
     7
370
     0
100
AcDbMText
 10
299.1532015809
 20
62.8931291987
 30
0.0
 40
4.7625
 41
0.0
 46
0.0
 71
     1
 72
     1
  1
分割型ジョイントボックス_メス
  7
SLDTEXTSTYLE2
 73
     1
 44
1.0
  0
MTEXT
  5
FF
330
1F
100
AcDbEntity
  8
FORMAT
100
AcDbMText
 10
404.8999
 20
15.1562711291
 30
0.0
 40
4.0
 41
0.0
 46
0.0
 71
     1
 72
     1
  1
A3
  7
SLDTEXTSTYLE2
 73
     1
 44
1.0
  0
LINE
  5
100
330
1F
100
AcDbEntity
  8
0
  6
Continuous
 62
     7
370
    25
100
AcDbLine
 10
114.7616223847
 20
177.5130805075
 30
0.0
 11
114.7616223847
 21
168.8130805017
 31
0.0
  0
LINE
  5
101
330
1F
100
AcDbEntity
  8
0
  6
Continuous
 62
     7
370
    25
100
AcDbLine
 10
114.7616223847
 20
168.8130805017
 30
0.0
 11
114.4616223705
 21
168.8130805017
 31
0.0
  0
LINE
  5
102
330
1F
100
AcDbEntity
  8
0
  6
Continuous
 62
     7
370
    25
100
AcDbLine
 10
114.4616223705
 20
168.8130805017
 30
0.0
 11
114.4616223705
 21
177.5130805075
 31
0.0
  0
LINE
  5
103
330
1F
100
AcDbEntity
  8
0
  6
Continuous
 62
     7
370
    25
100
AcDbLine
 10
114.7616223847
 20
177.5130805075
 30
0.0
 11
114.4616223705
 21
177.5130805075
 31
0.0
  0
LINE
  5
104
330
1F
100
AcDbEntity
  8
0
  6
Continuous
 62
     7
370
    25
100
AcDbLine
 10
97.611622647
 20
167.3130804887
 30
0.0
 11
93.6616228377
 21
167.3130804887
 31
0.0
  0
LINE
  5
105
330
1F
100
AcDbEntity
  8
0
  6
Continuous
 62
     7
370
    25
100
AcDbLine
 10
93.6616228377
 20
167.3130804887
 30
0.0
 11
93.6616228377
 21
167.6130804447
 31
0.0
  0
LINE
  5
106
330
1F
100
AcDbEntity
  8
0
  6
Continuous
 62
     7
370
    25
100
AcDbLine
 10
93.6616228377
 20
167.6130804447
 30
0.0
 11
97.7116224771
 21
167.6130804447
 31
0.0
  0
SPLINE
  5
107
330
1F
100
AcDbEntity
  8
0
  6
Continuous
 62
     7
370
    25
100
AcDbSpline
210
0.0
220
0.0
230
1.0
 70
     8
 71
     3
 72
    12
 73
     8
 74
     0
 42
0.000000001
 43
0.00000001
 40
0.0
 40
0.0
 40
0.0
 40
0.0
 40
0.2500000000000001
 40
0.2500000000000001
 40
0.5000000000000002
 40
0.5000000000000002
 40
1.0
 40
1.0
 40
1.0
 40
1.0
 10
97.71162238474689
 20
167.6130804732314
 30
0.0
 10
97.6868209069704
 20
167.5800118361961
 30
0.0
 10
97.6664783649908
 20
167.5440466614477
 30
0.0
 10
97.63623216717625
 20
167.4727761821968
 30
0.0
 10
97.6264680660083
 20
167.437702170817
 30
0.0
 10
97.60930301587152
 20
167.3490856624672
 30
0.0
 10
97.61162238474688
 20
167.3130804732314
 30
0.0
 10
97.61162238474688
 20
167.3130804732314
 30
0.0
  0
ARC
  5
108
330
1F
100
AcDbEntity
  8
0
  6
Continuous
 62
     7
370
    25
100
AcDbCircle
 10
93.6616223847
 20
168.8130804732
 30
0.0
 40
1.5
100
AcDbArc
 50
180.0
 51
270.0
  0
LINE
  5
109
330
1F
100
AcDbEntity
  8
0
  6
Continuous
 62
     7
370
    25
100
AcDbLine
 10
92.1616216606
 20
168.8130805017
 30
0.0
 11
92.4616230136
 21
168.8130805017
 31
0.0
  0
ARC
  5
10A
330
1F
100
AcDbEntity
  8
0
  6
Continuous
 62
     7
370
    25
100
AcDbCircle
 10
93.6616223847
 20
168.8130804732
 30
0.0
 40
1.200000000000003
100
AcDbArc
 50
180.0
 51
270.0
  0
LINE
  5
10B
330
1F
100
AcDbEntity
  8
0
  6
Continuous
 62
     7
370
    25
100
AcDbLine
 10
92.1616216606
 20
168.8130805017
 30
0.0
 11
92.1616216606
 21
177.5130805075
 31
0.0
  0
LINE
  5
10C
330
1F
100
AcDbEntity
  8
0
  6
Continuous
 62
     7
370
    25
100
AcDbLine
 10
92.1616216606
 20
177.5130805075
 30
0.0
 11
92.4616230136
 21
177.5130805075
 31
0.0
  0
LINE
  5
10D
330
1F
100
AcDbEntity
  8
0
  6
Continuous
 62
     7
370
    25
100
AcDbLine
 10
92.4616230136
 20
177.5130805075
 30
0.0
 11
92.4616230136
 21
168.8130805017
 31
0.0
  0
ARC
  5
10E
330
1F
100
AcDbEntity
  8
0
  6
Continuous
 62
     7
370
    25
100
AcDbCircle
 10
93.6616223847
 20
177.5130804732
 30
0.0
 40
1.5
100
AcDbArc
 50
90.0
 51
180.0
  0
LINE
  5
10F
330
1F
100
AcDbEntity
  8
0
  6
Continuous
 62
     7
370
    25
100
AcDbLine
 10
93.6616228377
 20
179.0130807534
 30
0.0
 11
93.6616228377
 21
178.7130803317
 31
0.0
  0
ARC
  5
110
330
1F
100
AcDbEntity
  8
0
  6
Continuous
 62
     7
370
    25
100
AcDbCircle
 10
93.6616223847
 20
177.5130804732
 30
0.0
 40
1.200000000000017
100
AcDbArc
 50
90.0
 51
180.0
  0
LINE
  5
111
330
1F
100
AcDbEntity
  8
0
  6
Continuous
 62
     7
370
    25
100
AcDbLine
 10
93.6616228377
 20
179.0130807534
 30
0.0
 11
113.2616223717
 21
179.0130807534
 31
0.0
  0
LINE
  5
112
330
1F
100
AcDbEntity
  8
0
  6
Continuous
 62
     7
370
    25
100
AcDbLine
 10
113.2616223717
 20
179.0130807534
 30
0.0
 11
113.2616223717
 21
178.7130803317
 31
0.0
  0
LINE
  5
113
330
1F
100
AcDbEntity
  8
0
  6
Continuous
 62
     7
370
    25
100
AcDbLine
 10
113.2616223717
 20
178.7130803317
 30
0.0
 11
93.6616228377
 21
178.7130803317
 31
0.0
  0
ARC
  5
114
330
1F
100
AcDbEntity
  8
0
  6
Continuous
 62
     7
370
    25
100
AcDbCircle
 10
113.2616223847
 20
177.5130804732
 30
0.0
 40
1.5
100
AcDbArc
 50
0.0
 51
90.0
  0
ARC
  5
115
330
1F
100
AcDbEntity
  8
0
  6
Continuous
 62
     7
370
    25
100
AcDbCircle
 10
113.2616223847
 20
177.5130804732
 30
0.0
 40
1.200000000000017
100
AcDbArc
 50
0.0
 51
90.0
  0
LINE
  5
116
330
1F
100
AcDbEntity
  8
0
  6
Continuous
 62
     7
370
    25
100
AcDbLine
 10
92.8616223341
 20
168.5130804875
 30
0.0
 11
92.8616223341
 21
177.8130809292
 31
0.0
  0
LINE
  5
117
330
1F
100
AcDbEntity
  8
0
  6
Continuous
 62
     7
370
    25
100
AcDbLine
 10
113.5616223277
 20
168.5130804875
 30
0.0
 11
92.8616223341
 21
168.5130804875
 31
0.0
  0
LINE
  5
118
330
1F
100
AcDbEntity
  8
0
  6
Continuous
 62
     7
370
    25
100
AcDbLine
 10
113.5616223277
 20
177.8130809292
 30
0.0
 11
113.5616223277
 21
168.5130804875
 31
0.0
  0
LINE
  5
119
330
1F
100
AcDbEntity
  8
0
  6
Continuous
 62
     7
370
    25
100
AcDbLine
 10
92.8616223341
 20
177.8130809292
 30
0.0
 11
113.5616223277
 21
177.8130809292
 31
0.0
  0
ARC
  5
11A
330
1F
100
AcDbEntity
  8
0
  6
Continuous
 62
     7
370
    25
100
AcDbCircle
 10
98.1116223847
 20
167.3130804732
 30
0.0
 40
0.5
100
AcDbArc
 50
90.0
 51
143.1301023542
  0
ARC
  5
11B
330
1F
100
AcDbEntity
  8
0
  6
Continuous
 62
     7
370
    25
100
AcDbCircle
 10
113.2616223847
 20
168.8130804732
 30
0.0
 40
1.200000000000003
100
AcDbArc
 50
270.0
 51
0.0
  0
LINE
  5
11C
330
1F
100
AcDbEntity
  8
0
  6
Continuous
 62
     7
370
    25
100
AcDbLine
 10
99.0116221314
 20
167.6130804447
 30
0.0
 11
113.2616223717
 21
167.6130804447
 31
0.0
  0
ARC
  5
11D
330
1F
100
AcDbEntity
  8
0
  6
Continuous
 62
     7
370
    25
100
AcDbCircle
 10
98.6116223847
 20
167.3130804732
 30
0.0
 40
0.5000000000000113
100
AcDbArc
 50
36.8698976458
 51
90.0
  0
LINE
  5
11E
330
1F
100
AcDbEntity
  8
0
  6
Continuous
 62
     7
370
    25
100
AcDbLine
 10
98.6116228109
 20
167.8130804833
 30
0.0
 11
98.1116217976
 21
167.8130804833
 31
0.0
  0
LINE
  5
11F
330
1F
100
AcDbEntity
  8
0
  6
Continuous
 62
     7
370
    25
100
AcDbLine
 10
93.1616218245
 20
177.5130805075
 30
0.0
 11
93.1616218245
 21
168.8130805017
 31
0.0
  0
LWPOLYLINE
  5
120
330
1F
100
AcDbEntity
  8
0
  6
Continuous
 62
     7
370
    25
100
AcDbPolyline
 90
        9
 70
   128
 43
0.0
 10
93.1616218245
 20
168.8130805017
 10
93.1558588004
 20
168.8073160807
 10
93.1387857949
 20
168.7902443558
 10
93.1110640472
 20
168.7625213857
 10
93.0737552648
 20
168.7252124869
 10
93.0282936847
 20
168.679751547
 10
92.9764283305
 20
168.6278854944
 10
92.92015037
 20
168.5716075629
 10
92.8616223341
 20
168.5130804875
  0
LWPOLYLINE
  5
121
330
1F
100
AcDbEntity
  8
0
  6
Continuous
 62
     7
370
    25
100
AcDbPolyline
 90
        9
 70
   128
 43
0.0
 10
92.8616223341
 20
177.8130809292
 10
92.92015037
 20
177.7545538247
 10
92.9764283305
 20
177.6982758641
 10
93.0282936847
 20
177.6464095786
 10
93.0737552648
 20
177.6009479985
 10
93.1110640472
 20
177.5636392161
 10
93.1387857949
 20
177.535916537
 10
93.1558588004
 20
177.5188444629
 10
93.1616218245
 20
177.5130805075
  0
LWPOLYLINE
  5
122
330
1F
100
AcDbEntity
  8
0
  6
Continuous
 62
     7
370
    25
100
AcDbPolyline
 90
        9
 70
   128
 43
0.0
 10
113.5616223277
 20
177.8130809292
 10
113.5030953396
 20
177.7545538247
 10
113.4468173791
 20
177.6982758641
 10
113.3949513264
 20
177.6464095786
 10
113.3494903283
 20
177.6009479985
 10
113.312181546
 20
177.5636392161
 10
113.2844585177
 20
177.535916537
 10
113.2673867928
 20
177.5188444629
 10
113.2616223717
 20
177.5130805075
  0
LINE
  5
123
330
1F
100
AcDbEntity
  8
0
  6
Continuous
 62
     7
370
    25
100
AcDbLine
 10
113.2616223717
 20
177.5130805075
 30
0.0
 11
93.1616218245
 21
177.5130805075
 31
0.0
  0
LINE
  5
124
330
1F
100
AcDbEntity
  8
0
  6
Continuous
 62
     7
370
    25
100
AcDbLine
 10
113.2616223717
 20
168.8130805017
 30
0.0
 11
113.2616223717
 21
177.5130805075
 31
0.0
  0
LWPOLYLINE
  5
125
330
1F
100
AcDbEntity
  8
0
  6
Continuous
 62
     7
370
    25
100
AcDbPolyline
 90
        9
 70
   128
 43
0.0
 10
113.2616223717
 20
168.8130805017
 10
113.2673867928
 20
168.8073160807
 10
113.2844585177
 20
168.7902443558
 10
113.312181546
 20
168.7625213857
 10
113.3494903283
 20
168.7252124869
 10
113.3949513264
 20
168.679751547
 10
113.4468173791
 20
168.6278854944
 10
113.5030953396
 20
168.5716075629
 10
113.5616223277
 20
168.5130804875
  0
LINE
  5
126
330
1F
100
AcDbEntity
  8
0
  6
Continuous
 62
     7
370
    25
100
AcDbLine
 10
93.1616218245
 20
168.8130805017
 30
0.0
 11
113.2616223717
 21
168.8130805017
 31
0.0
  0
LINE
  5
127
330
1F
100
AcDbEntity
  8
0
  6
Continuous
 62
     7
370
    25
100
AcDbLine
 10
113.2616223717
 20
167.3130804887
 30
0.0
 11
113.2616223717
 21
167.6130804447
 31
0.0
  0
LINE
  5
128
330
1F
100
AcDbEntity
  8
0
  6
Continuous
 62
     7
370
    25
100
AcDbLine
 10
113.2616223717
 20
167.3130804887
 30
0.0
 11
99.1116219616
 21
167.3130804887
 31
0.0
  0
SPLINE
  5
129
330
1F
100
AcDbEntity
  8
0
  6
Continuous
 62
     7
370
    25
100
AcDbSpline
210
0.0
220
0.0
230
1.0
 70
     8
 71
     3
 72
    12
 73
     8
 74
     0
 42
0.000000001
 43
0.00000001
 40
0.0
 40
0.0
 40
0.0
 40
0.0
 40
0.4999999999999944
 40
0.4999999999999944
 40
0.7499999999999972
 40
0.7499999999999972
 40
1.0
 40
1.0
 40
1.0
 40
1.0
 10
99.11162238474688
 20
167.3130804732314
 30
0.0
 10
99.11162238474688
 20
167.3130804732314
 30
0.0
 10
99.11391911987555
 20
167.3491556743776
 30
0.0
 10
99.09680916136777
 20
167.4375579786567
 30
0.0
 10
99.08703636709892
 20
167.4727070169001
 30
0.0
 10
99.05679448918956
 20
167.5439936289535
 30
0.0
 10
99.03642772275
 20
167.5800066892272
 30
0.0
 10
99.01162238474689
 20
167.6130804732314
 30
0.0
  0
ARC
  5
12A
330
1F
100
AcDbEntity
  8
0
  6
Continuous
 62
     7
370
    25
100
AcDbCircle
 10
113.2616223847
 20
168.8130804732
 30
0.0
 40
1.5
100
AcDbArc
 50
270.0
 51
0.0
  0
LINE
  5
12B
330
1F
100
AcDbEntity
  8
0
  6
Continuous
 62
     7
370
    25
100
AcDbLine
 10
92.5616228437
 20
167.7932765782
 30
0.0
 11
92.5616228437
 21
164.2130802832
 31
0.0
  0
ARC
  5
12C
330
1F
100
AcDbEntity
  8
0
  6
Continuous
 62
     7
370
    25
100
AcDbCircle
 10
92.5616223847
 20
164.6130804732
 30
0.0
 40
0.4000000000000057
100
AcDbArc
 50
180.0
 51
270.0
  0
LINE
  5
12D
330
1F
100
AcDbEntity
  8
0
  6
Continuous
 62
     7
370
    25
100
AcDbLine
 10
92.1616216606
 20
164.6130805351
 30
0.0
 11
92.1616216606
 21
168.8130805017
 31
0.0
  0
ARC
  5
12E
330
1F
100
AcDbEntity
  8
0
  6
Continuous
 62
     7
370
    25
100
AcDbCircle
 10
114.3616223847
 20
164.6130804732
 30
0.0
 40
0.4000000000000057
100
AcDbArc
 50
270.0
 51
0.0
  0
LINE
  5
12F
330
1F
100
AcDbEntity
  8
0
  6
Continuous
 62
     7
370
    25
100
AcDbLine
 10
114.3616223949
 20
164.2130802832
 30
0.0
 11
114.3616223949
 21
167.7932765782
 31
0.0
  0
LINE
  5
130
330
1F
100
AcDbEntity
  8
0
  6
Continuous
 62
     7
370
    25
100
AcDbLine
 10
114.7616223847
 20
168.8130805017
 30
0.0
 11
114.7616223847
 21
164.6130805351
 31
0.0
  0
LINE
  5
131
330
1F
100
AcDbEntity
  8
0
  6
Continuous
 62
     7
370
    25
100
AcDbLine
 10
93.2616216546
 20
164.6712835394
 30
0.0
 11
93.2616216546
 21
167.3673972585
 31
0.0
  0
ELLIPSE
  5
132
330
1F
100
AcDbEntity
  8
0
  6
Continuous
 62
     7
370
    25
100
AcDbEllipse
 10
94.8616223847
 20
164.6712834692
 30
0.0
 11
1.600000000000009
 21
0.0
 31
0.0
210
0.0
220
0.0
230
1.0
 40
0.3444444444
 41
3.141592653589793
 42
4.080440959249032
  0
SPLINE
  5
133
330
1F
100
AcDbEntity
  8
0
  6
Continuous
 62
     7
370
    25
100
AcDbSpline
210
0.0
220
0.0
230
1.0
 70
     8
 71
     3
 72
    14
 73
    10
 74
     0
 42
0.000000001
 43
0.00000001
 40
0.0
 40
0.0
 40
0.0
 40
0.0
 40
0.0000475207896188
 40
0.0000475207896188
 40
0.0000475207896188
 40
0.0000958943680875
 40
0.0000958943680875
 40
0.0000958943680875
 40
0.0001246534063914
 40
0.0001246534063914
 40
0.0001246534063914
 40
0.0001246534063914
 10
93.80332186032113
 20
164.2130804732314
 30
0.0
 10
93.81916212352739
 20
164.2130804732314
 30
0.0
 10
93.8351275998919
 20
164.2134809546433
 30
0.0
 10
93.85063115952401
 20
164.2145389249379
 30
0.0
 10
93.86628764059512
 20
164.2156073306643
 30
0.0
 10
93.88191871845672
 20
164.2174023526328
 30
0.0
 10
93.89528362213241
 20
164.2202650285842
 30
0.0
 10
93.90329681601914
 20
164.2219814029023
 30
0.0
 10
93.91061462327103
 20
164.2241310592875
 30
0.0
 10
93.9164740747113
 20
164.226603867564
 30
0.0
  0
LINE
  5
134
330
1F
100
AcDbEntity
  8
0
  6
Continuous
 62
     7
370
    25
100
AcDbLine
 10
93.8033217048
 20
164.2130802832
 30
0.0
 11
92.5616228437
 21
164.2130802832
 31
0.0
  0
SPLINE
  5
135
330
1F
100
AcDbEntity
  8
0
  6
Continuous
 62
     7
370
    25
100
AcDbSpline
210
0.0
220
0.0
230
1.0
 70
     8
 71
     3
 72
    14
 73
    10
 74
     0
 42
0.000000001
 43
0.00000001
 40
0.0
 40
0.0
 40
0.0
 40
0.0
 40
0.0000311807372789
 40
0.0000311807372789
 40
0.0000311807372789
 40
0.0000714158799544
 40
0.0000714158799544
 40
0.0000714158799544
 40
0.0001242193386279
 40
0.0001242193386279
 40
0.0001242193386279
 40
0.0001242193386279
 10
113.0067706947824
 20
164.226603867564
 30
0.0
 10
113.0131204522841
 20
164.2239241401076
 30
0.0
 10
113.021195034667
 20
164.2216257852498
 30
0.0
 10
113.0300175423067
 20
164.2198363990959
 30
0.0
 10
113.0414007577247
 20
164.2175276486942
 30
0.0
 10
113.0542872527301
 20
164.2159587065682
 30
0.0
 10
113.0673190456558
 20
164.2149284382712
 30
0.0
 10
113.0844576189561
 20
164.2135734958756
 30
0.0
 10
113.1022865663347
 20
164.2130804732314
 30
0.0
 10
113.1199229091726
 20
164.2130804732314
 30
0.0
  0
ELLIPSE
  5
136
330
1F
100
AcDbEntity
  8
0
  6
Continuous
 62
     7
370
    25
100
AcDbEllipse
 10
112.0616223847
 20
164.6712834692
 30
0.0
 11
1.599999999999994
 21
0.0
 31
0.0
210
0.0
220
0.0
230
1.0
 40
0.3444444444
 41
5.344337001520354
 42
6.283185307179586
  0
LINE
  5
137
330
1F
100
AcDbEntity
  8
0
  6
Continuous
 62
     7
370
    25
100
AcDbLine
 10
113.6616223907
 20
167.3673972585
 30
0.0
 11
113.6616223907
 21
164.6712835394
 31
0.0
  0
LINE
  5
138
330
1F
100
AcDbEntity
  8
0
  6
Continuous
 62
     7
370
    25
100
AcDbLine
 10
114.3616223949
 20
164.2130802832
 30
0.0
 11
113.1199229225
 21
164.2130802832
 31
0.0
  0
LINE
  5
139
330
1F
100
AcDbEntity
  8
0
  6
Continuous
 62
     7
370
    25
100
AcDbLine
 10
101.1616222044
 20
165.8130803592
 30
0.0
 11
101.1616222044
 21
166.8130805232
 31
0.0
  0
LINE
  5
13A
330
1F
100
AcDbEntity
  8
0
  6
Continuous
 62
     7
370
    25
100
AcDbLine
 10
101.1616222044
 20
165.8130803592
 30
0.0
 11
100.6616221225
 21
165.8130803592
 31
0.0
  0
LINE
  5
13B
330
1F
100
AcDbEntity
  8
0
  6
Continuous
 62
     7
370
    25
100
AcDbLine
 10
100.6616221225
 20
166.8130805232
 30
0.0
 11
100.6616221225
 21
165.8130803592
 31
0.0
  0
LINE
  5
13C
330
1F
100
AcDbEntity
  8
0
  6
Continuous
 62
     7
370
    25
100
AcDbLine
 10
100.6616221225
 20
166.8130805232
 30
0.0
 11
101.1616222044
 21
166.8130805232
 31
0.0
  0
LINE
  5
13D
330
1F
100
AcDbEntity
  8
0
  6
Continuous
 62
     7
370
    25
100
AcDbLine
 10
100.1616220405
 20
166.3130804412
 30
0.0
 11
100.1616220405
 21
166.8130805232
 31
0.0
  0
LINE
  5
13E
330
1F
100
AcDbEntity
  8
0
  6
Continuous
 62
     7
370
    25
100
AcDbLine
 10
100.6616221225
 20
166.8130805232
 30
0.0
 11
100.1616220405
 21
166.8130805232
 31
0.0
  0
ARC
  5
13F
330
1F
100
AcDbEntity
  8
0
  6
Continuous
 62
     7
370
    25
100
AcDbCircle
 10
100.6616223847
 20
166.3130804732
 30
0.0
 40
0.5
100
AcDbArc
 50
180.0
 51
270.0
  0
LINE
  5
140
330
1F
100
AcDbEntity
  8
0
  6
Continuous
 62
     7
370
    25
100
AcDbLine
 10
101.6616222864
 20
166.8130805232
 30
0.0
 11
101.6616222864
 21
166.3130804412
 31
0.0
  0
ARC
  5
141
330
1F
100
AcDbEntity
  8
0
  6
Continuous
 62
     7
370
    25
100
AcDbCircle
 10
101.1616223847
 20
166.3130804732
 30
0.0
 40
0.5
100
AcDbArc
 50
270.0
 51
0.0
  0
LINE
  5
142
330
1F
100
AcDbEntity
  8
0
  6
Continuous
 62
     7
370
    25
100
AcDbLine
 10
101.6616222864
 20
166.8130805232
 30
0.0
 11
101.1616222044
 21
166.8130805232
 31
0.0
  0
LINE
  5
143
330
1F
100
AcDbEntity
  8
0
  6
Continuous
 62
     7
370
    25
100
AcDbLine
 10
107.1616222566
 20
166.8130805232
 30
0.0
 11
107.1616222566
 21
166.3130804412
 31
0.0
  0
ARC
  5
144
330
1F
100
AcDbEntity
  8
0
  6
Continuous
 62
     7
370
    25
100
AcDbCircle
 10
106.6616223847
 20
166.3130804732
 30
0.0
 40
0.5
100
AcDbArc
 50
270.0
 51
0.0
  0
LINE
  5
145
330
1F
100
AcDbEntity
  8
0
  6
Continuous
 62
     7
370
    25
100
AcDbLine
 10
106.6616221746
 20
165.8130803592
 30
0.0
 11
106.6616221746
 21
166.8130805232
 31
0.0
  0
LINE
  5
146
330
1F
100
AcDbEntity
  8
0
  6
Continuous
 62
     7
370
    25
100
AcDbLine
 10
107.1616222566
 20
166.8130805232
 30
0.0
 11
106.6616221746
 21
166.8130805232
 31
0.0
  0
LINE
  5
147
330
1F
100
AcDbEntity
  8
0
  6
Continuous
 62
     7
370
    25
100
AcDbLine
 10
106.6616221746
 20
165.8130803592
 30
0.0
 11
106.1616220927
 21
165.8130803592
 31
0.0
  0
LINE
  5
148
330
1F
100
AcDbEntity
  8
0
  6
Continuous
 62
     7
370
    25
100
AcDbLine
 10
106.1616220927
 20
166.8130805232
 30
0.0
 11
106.1616220927
 21
165.8130803592
 31
0.0
  0
LINE
  5
149
330
1F
100
AcDbEntity
  8
0
  6
Continuous
 62
     7
370
    25
100
AcDbLine
 10
106.1616220927
 20
166.8130805232
 30
0.0
 11
106.6616221746
 21
166.8130805232
 31
0.0
  0
LINE
  5
14A
330
1F
100
AcDbEntity
  8
0
  6
Continuous
 62
     7
370
    25
100
AcDbLine
 10
105.6616220107
 20
166.3130804412
 30
0.0
 11
105.6616220107
 21
166.8130805232
 31
0.0
  0
LINE
  5
14B
330
1F
100
AcDbEntity
  8
0
  6
Continuous
 62
     7
370
    25
100
AcDbLine
 10
106.1616220927
 20
166.8130805232
 30
0.0
 11
105.6616220107
 21
166.8130805232
 31
0.0
  0
ARC
  5
14C
330
1F
100
AcDbEntity
  8
0
  6
Continuous
 62
     7
370
    25
100
AcDbCircle
 10
106.1616223847
 20
166.3130804732
 30
0.0
 40
0.5
100
AcDbArc
 50
180.0
 51
270.0
  0
LINE
  5
14D
330
1F
100
AcDbEntity
  8
0
  6
Continuous
 62
     7
370
    25
100
AcDbLine
 10
100.6616221225
 20
167.3130804887
 30
0.0
 11
100.6616221225
 21
166.8130805232
 31
0.0
  0
LINE
  5
14E
330
1F
100
AcDbEntity
  8
0
  6
Continuous
 62
     7
370
    25
100
AcDbLine
 10
100.1616220405
 20
166.8130805232
 30
0.0
 11
100.1616220405
 21
167.3130804887
 31
0.0
  0
LINE
  5
14F
330
1F
100
AcDbEntity
  8
0
  6
Continuous
 62
     7
370
    25
100
AcDbLine
 10
101.6616222864
 20
167.3130804887
 30
0.0
 11
101.6616222864
 21
166.8130805232
 31
0.0
  0
LINE
  5
150
330
1F
100
AcDbEntity
  8
0
  6
Continuous
 62
     7
370
    25
100
AcDbLine
 10
101.1616222044
 20
166.8130805232
 30
0.0
 11
101.1616222044
 21
167.3130804887
 31
0.0
  0
LINE
  5
151
330
1F
100
AcDbEntity
  8
0
  6
Continuous
 62
     7
370
    25
100
AcDbLine
 10
106.6616221746
 20
166.8130805232
 30
0.0
 11
106.6616221746
 21
167.3130804887
 31
0.0
  0
LINE
  5
152
330
1F
100
AcDbEntity
  8
0
  6
Continuous
 62
     7
370
    25
100
AcDbLine
 10
106.1616220927
 20
167.3130804887
 30
0.0
 11
106.1616220927
 21
166.8130805232
 31
0.0
  0
LINE
  5
153
330
1F
100
AcDbEntity
  8
0
  6
Continuous
 62
     7
370
    25
100
AcDbLine
 10
107.1616222566
 20
167.3130804887
 30
0.0
 11
107.1616222566
 21
166.8130805232
 31
0.0
  0
LINE
  5
154
330
1F
100
AcDbEntity
  8
0
  6
Continuous
 62
     7
370
    25
100
AcDbLine
 10
105.6616220107
 20
166.8130805232
 30
0.0
 11
105.6616220107
 21
167.3130804887
 31
0.0
  0
LINE
  5
155
330
1F
100
AcDbEntity
  8
0
  6
Continuous
 62
     7
370
    25
100
AcDbLine
 10
93.6616228377
 20
167.3130804887
 30
0.0
 11
93.6616228377
 21
165.0494773388
 31
0.0
  0
ARC
  5
156
330
1F
100
AcDbEntity
  8
0
  6
Continuous
 62
     7
370
    25
100
AcDbCircle
 10
93.2722275469
 20
165.0606960019
 30
0.0
 40
0.3895568648269387
100
AcDbArc
 50
268.4398992342
 51
358.3497378953
  0
ARC
  5
157
330
1F
100
AcDbEntity
  8
0
  6
Continuous
 62
     7
370
    25
100
AcDbCircle
 10
113.6510163387
 20
165.0606946343
 30
0.0
 40
0.3895555021059972
100
AcDbArc
 50
181.6500666527
 51
271.5601297271
  0
LINE
  5
158
330
1F
100
AcDbEntity
  8
0
  6
Continuous
 62
     7
370
    25
100
AcDbLine
 10
113.2616223717
 20
165.0494773388
 30
0.0
 11
113.2616223717
 21
167.3130804887
 31
0.0
  0
LINE
  5
159
330
1F
100
AcDbEntity
  8
0
  6
Continuous
 62
     7
370
    25
100
AcDbLine
 10
106.4331184557
 20
177.5130805075
 30
0.0
 11
106.4331184557
 21
168.8130805017
 31
0.0
  0
LINE
  5
15A
330
1F
100
AcDbEntity
  8
0
  6
Continuous
 62
     7
370
    25
100
AcDbLine
 10
106.5901264032
 20
168.8130805017
 30
0.0
 11
106.5901264032
 21
177.5130805075
 31
0.0
  0
LINE
  5
15B
330
1F
100
AcDbEntity
  8
0
  6
Continuous
 62
     7
370
    25
100
AcDbLine
 10
99.4331182396
 20
177.5130805075
 30
0.0
 11
99.4331182396
 21
168.8130805017
 31
0.0
  0
LINE
  5
15C
330
1F
100
AcDbEntity
  8
0
  6
Continuous
 62
     7
370
    25
100
AcDbLine
 10
99.5901261872
 20
168.8130805017
 30
0.0
 11
99.5901261872
 21
177.5130805075
 31
0.0
  0
LINE
  5
15D
330
1F
100
AcDbEntity
  8
0
  6
Continuous
 62
     7
370
    25
100
AcDbLine
 10
106.8886376401
 20
177.5130805075
 30
0.0
 11
106.8886376401
 21
168.8130805017
 31
0.0
  0
LINE
  5
15E
330
1F
100
AcDbEntity
  8
0
  6
Continuous
 62
     7
370
    25
100
AcDbLine
 10
99.8886374241
 20
177.5130805075
 30
0.0
 11
99.8886374241
 21
168.8130805017
 31
0.0
  0
LINE
  5
15F
330
1F
100
AcDbEntity
  8
0
  6
Continuous
 62
     7
370
    25
100
AcDbLine
 10
99.1346070027
 20
168.8130805017
 30
0.0
 11
99.1346070027
 21
177.5130805075
 31
0.0
  0
LINE
  5
160
330
1F
100
AcDbEntity
  8
0
  6
Continuous
 62
     7
370
    25
100
AcDbLine
 10
106.1346072188
 20
168.8130805017
 30
0.0
 11
106.1346072188
 21
177.5130805075
 31
0.0
  0
LINE
  5
161
330
1F
100
AcDbEntity
  8
0
  6
Continuous
 62
     7
370
    25
100
AcDbLine
 10
105.8616226023
 20
168.8130805017
 30
0.0
 11
105.8616226023
 21
171.5630803704
 31
0.0
  0
LINE
  5
162
330
1F
100
AcDbEntity
  8
0
  6
Continuous
 62
     7
370
    25
100
AcDbLine
 10
105.8616226023
 20
173.9630804844
 30
0.0
 11
105.8616226023
 21
171.5630803704
 31
0.0
  0
LINE
  5
163
330
1F
100
AcDbEntity
  8
0
  6
Continuous
 62
     7
370
    25
100
AcDbLine
 10
105.8616226023
 20
173.9630804844
 30
0.0
 11
105.8616226023
 21
177.5130805075
 31
0.0
  0
LINE
  5
164
330
1F
100
AcDbEntity
  8
0
  6
Continuous
 62
     7
370
    25
100
AcDbLine
 10
100.1616220405
 20
177.5130805075
 30
0.0
 11
100.1616220405
 21
168.8130805017
 31
0.0
  0
LINE
  5
165
330
1F
100
AcDbEntity
  8
0
  6
Continuous
 62
     7
370
    25
100
AcDbLine
 10
107.1616222566
 20
177.5130805075
 30
0.0
 11
107.1616222566
 21
168.8130805017
 31
0.0
  0
LINE
  5
166
330
1F
100
AcDbEntity
  8
0
  6
Continuous
 62
     7
370
    25
100
AcDbLine
 10
98.8616214549
 20
168.8130805017
 30
0.0
 11
98.8616214549
 21
171.5630803704
 31
0.0
  0
LINE
  5
167
330
1F
100
AcDbEntity
  8
0
  6
Continuous
 62
     7
370
    25
100
AcDbLine
 10
98.8616214549
 20
173.9630804844
 30
0.0
 11
98.8616214549
 21
171.5630803704
 31
0.0
  0
LINE
  5
168
330
1F
100
AcDbEntity
  8
0
  6
Continuous
 62
     7
370
    25
100
AcDbLine
 10
98.8616214549
 20
173.9630804844
 30
0.0
 11
98.8616214549
 21
177.5130805075
 31
0.0
  0
LINE
  5
169
330
1F
100
AcDbEntity
  8
0
  6
Continuous
 62
     7
370
    25
100
AcDbLine
 10
113.2616223717
 20
171.5630803704
 30
0.0
 11
112.4659602014
 21
171.5630803704
 31
0.0
  0
LINE
  5
16A
330
1F
100
AcDbEntity
  8
0
  6
Continuous
 62
     7
370
    25
100
AcDbLine
 10
112.4659602014
 20
173.9630804844
 30
0.0
 11
112.4659602014
 21
171.5630803704
 31
0.0
  0
LINE
  5
16B
330
1F
100
AcDbEntity
  8
0
  6
Continuous
 62
     7
370
    25
100
AcDbLine
 10
112.4659602014
 20
173.9630804844
 30
0.0
 11
113.2616223717
 21
173.9630804844
 31
0.0
  0
LINE
  5
16C
330
1F
100
AcDbEntity
  8
0
  6
Continuous
 62
     7
370
    25
100
AcDbLine
 10
105.8616226023
 20
171.5630803704
 30
0.0
 11
105.2065489298
 21
171.5630803704
 31
0.0
  0
LINE
  5
16D
330
1F
100
AcDbEntity
  8
0
  6
Continuous
 62
     7
370
    25
100
AcDbLine
 10
105.2065489298
 20
173.9630804844
 30
0.0
 11
105.2065489298
 21
171.5630803704
 31
0.0
  0
LINE
  5
16E
330
1F
100
AcDbEntity
  8
0
  6
Continuous
 62
     7
370
    25
100
AcDbLine
 10
105.2065489298
 20
173.9630804844
 30
0.0
 11
105.8616226023
 21
173.9630804844
 31
0.0
  0
LINE
  5
16F
330
1F
100
AcDbEntity
  8
0
  6
Continuous
 62
     7
370
    25
100
AcDbLine
 10
112.9112504372
 20
176.1392344236
 30
0.0
 11
112.9112504372
 21
173.9630804844
 31
0.0
  0
ELLIPSE
  5
170
330
1F
100
AcDbEntity
  8
0
  6
Continuous
 62
     7
370
    25
100
AcDbEllipse
 10
112.6579384069
 20
185.8130804732
 30
0.0
 11
0.0
 21
10.0
 31
0.0
210
0.0
220
0.0
230
1.0
 40
0.1
 41
3.397695124537841
 42
3.54346330103037
  0
LINE
  5
171
330
1F
100
AcDbEntity
  8
0
  6
Continuous
 62
     7
370
    25
100
AcDbLine
 10
113.2616223717
 20
177.5130805075
 30
0.0
 11
113.0490790769
 21
176.6097711846
 31
0.0
  0
LINE
  5
172
330
1F
100
AcDbEntity
  8
0
  6
Continuous
 62
     7
370
    25
100
AcDbLine
 10
113.0784245856
 20
169.2252756078
 30
0.0
 11
113.2616223717
 21
168.8130805017
 31
0.0
  0
ELLIPSE
  5
173
330
1F
100
AcDbEntity
  8
0
  6
Continuous
 62
     7
370
    25
100
AcDbEllipse
 10
112.6394001625
 20
149.7130804732
 30
0.0
 11
0.0
 21
20.0
 31
0.0
210
0.0
220
0.0
230
1.0
 40
0.1
 41
6.061870864831937
 42
6.146838077583648
  0
LINE
  5
174
330
1F
100
AcDbEntity
  8
0
  6
Continuous
 62
     7
370
    25
100
AcDbLine
 10
112.9112504372
 20
171.5630803704
 30
0.0
 11
112.9112504372
 21
169.5274626585
 31
0.0
  0
LINE
  5
175
330
1F
100
AcDbEntity
  8
0
  6
Continuous
 62
     7
370
    25
100
AcDbLine
 10
98.206549645
 20
173.9630804844
 30
0.0
 11
98.206549645
 21
171.5630803704
 31
0.0
  0
LINE
  5
176
330
1F
100
AcDbEntity
  8
0
  6
Continuous
 62
     7
370
    25
100
AcDbLine
 10
98.206549645
 20
173.9630804844
 30
0.0
 11
98.8616214549
 21
173.9630804844
 31
0.0
  0
LINE
  5
177
330
1F
100
AcDbEntity
  8
0
  6
Continuous
 62
     7
370
    25
100
AcDbLine
 10
98.8616214549
 20
171.5630803704
 30
0.0
 11
98.206549645
 21
171.5630803704
 31
0.0
  0
LINE
  5
178
330
1F
100
AcDbEntity
  8
0
  6
Continuous
 62
     7
370
    25
100
AcDbLine
 10
107.1616222566
 20
176.6097711846
 30
0.0
 11
113.0490790769
 21
176.6097711846
 31
0.0
  0
LINE
  5
179
330
1F
100
AcDbEntity
  8
0
  6
Continuous
 62
     7
370
    25
100
AcDbLine
 10
113.0784245856
 20
169.2252756078
 30
0.0
 11
107.1616222566
 21
169.2252756078
 31
0.0
  0
LINE
  5
17A
330
1F
100
AcDbEntity
  8
0
  6
Continuous
 62
     7
370
    25
100
AcDbLine
 10
100.1616220405
 20
176.6097711846
 30
0.0
 11
105.8616226023
 21
176.6097711846
 31
0.0
  0
LINE
  5
17B
330
1F
100
AcDbEntity
  8
0
  6
Continuous
 62
     7
370
    25
100
AcDbLine
 10
93.1616218245
 20
176.6097711846
 30
0.0
 11
98.8616214549
 21
176.6097711846
 31
0.0
  0
LINE
  5
17C
330
1F
100
AcDbEntity
  8
0
  6
Continuous
 62
     7
370
    25
100
AcDbLine
 10
98.8616214549
 20
169.2252756078
 30
0.0
 11
93.1616218245
 21
169.2252756078
 31
0.0
  0
LINE
  5
17D
330
1F
100
AcDbEntity
  8
0
  6
Continuous
 62
     7
370
    25
100
AcDbLine
 10
105.8616226023
 20
169.2252756078
 30
0.0
 11
100.1616220405
 21
169.2252756078
 31
0.0
  0
SPLINE
  5
17E
330
1F
100
AcDbEntity
  8
0
  6
Continuous
 62
     7
370
    25
100
AcDbSpline
210
0.0
220
0.0
230
1.0
 70
     8
 71
     3
 72
    10
 73
     6
 74
     0
 42
0.000000001
 43
0.00000001
 40
0.0
 40
0.0
 40
0.0
 40
0.0
 40
0.5
 40
0.5
 40
1.0
 40
1.0
 40
1.0
 40
1.0
 10
113.0067706947824
 20
164.226603867564
 30
0.0
 10
112.9527967986885
 20
164.2493819549555
 30
0.0
 10
112.9027840811137
 20
164.2998638569466
 30
0.0
 10
112.826354570546
 20
164.4393506531391
 30
0.0
 10
112.8015913007258
 20
164.5264508890494
 30
0.0
 10
112.7944825791616
 20
164.6130804732314
 30
0.0
  0
ELLIPSE
  5
17F
330
1F
100
AcDbEntity
  8
0
  6
Continuous
 62
     7
370
    25
100
AcDbEllipse
 10
112.0616223847
 20
165.0494772959
 30
0.0
 11
1.200000000000003
 21
0.0
 31
0.0
210
0.0
220
0.0
230
1.0
 40
0.4592592593
 41
5.369354514859816
 42
6.283185307179586
  0
ELLIPSE
  5
180
330
1F
100
AcDbEntity
  8
0
  6
Continuous
 62
     7
370
    25
100
AcDbEllipse
 10
94.8616223847
 20
165.0494772959
 30
0.0
 11
1.199999999999989
 21
0.0
 31
0.0
210
0.0
220
0.0
230
1.0
 40
0.4592592593
 41
3.141592653589793
 42
4.055423445909579
  0
SPLINE
  5
181
330
1F
100
AcDbEntity
  8
0
  6
Continuous
 62
     7
370
    25
100
AcDbSpline
210
0.0
220
0.0
230
1.0
 70
     8
 71
     3
 72
    10
 73
     6
 74
     0
 42
0.000000001
 43
0.00000001
 40
0.0
 40
0.0
 40
0.0
 40
0.0
 40
0.5
 40
0.5
 40
1.0
 40
1.0
 40
1.0
 40
1.0
 10
93.9164740747113
 20
164.226603867564
 30
0.0
 10
93.97044797080527
 20
164.2493819549555
 30
0.0
 10
94.02046068838008
 20
164.2998638569466
 30
0.0
 10
94.09689019894779
 20
164.4393506531391
 30
0.0
 10
94.12165346876745
 20
164.5264508890494
 30
0.0
 10
94.12876219033218
 20
164.6130804732314
 30
0.0
  0
LINE
  5
182
330
1F
100
AcDbEntity
  8
0
  6
Continuous
 62
     7
370
    25
100
AcDbLine
 10
93.5584471976
 20
169.7130804863
 30
0.0
 11
98.8616214549
 21
169.7130804863
 31
0.0
  0
SPLINE
  5
183
330
1F
100
AcDbEntity
  8
0
  6
Continuous
 62
     7
370
    25
100
AcDbSpline
210
0.0
220
0.0
230
1.0
 70
     8
 71
     3
 72
     8
 73
     4
 74
     0
 42
0.000000001
 43
0.00000001
 40
0.0
 40
0.0
 40
0.0
 40
0.0
 40
1.0
 40
1.0
 40
1.0
 40
1.0
 10
93.31734662966205
 20
169.6674546943242
 30
0.0
 10
93.21301239515297
 20
169.6279213039716
 30
0.0
 10
93.16162238474688
 20
169.5625358901676
 30
0.0
 10
93.16162238474688
 20
169.4701015859654
 30
0.0
  0
ELLIPSE
  5
184
330
1F
100
AcDbEntity
  8
0
  6
Continuous
 62
     7
370
    25
100
AcDbEllipse
 10
93.5584477816
 20
149.7130804732
 30
0.0
 11
0.0
 21
20.0
 31
0.0
210
0.0
220
0.0
230
1.0
 40
0.1785714286
 41
0.0
 42
0.0675597047549683
  0
LINE
  5
185
330
1F
100
AcDbEntity
  8
0
  6
Continuous
 62
     7
370
    25
100
AcDbLine
 10
100.5584474137
 20
169.7130804863
 30
0.0
 11
105.8616226023
 21
169.7130804863
 31
0.0
  0
SPLINE
  5
186
330
1F
100
AcDbEntity
  8
0
  6
Continuous
 62
     7
370
    25
100
AcDbSpline
210
0.0
220
0.0
230
1.0
 70
     8
 71
     3
 72
     8
 73
     4
 74
     0
 42
0.000000001
 43
0.00000001
 40
0.0
 40
0.0
 40
0.0
 40
0.0
 40
1.0
 40
1.0
 40
1.0
 40
1.0
 10
100.317346629662
 20
169.6674546943242
 30
0.0
 10
100.213012395153
 20
169.6279213039716
 30
0.0
 10
100.1616223847469
 20
169.5625358901676
 30
0.0
 10
100.1616223847469
 20
169.4701015859654
 30
0.0
  0
ELLIPSE
  5
187
330
1F
100
AcDbEntity
  8
0
  6
Continuous
 62
     7
370
    25
100
AcDbEllipse
 10
100.5584477816
 20
149.7130804732
 30
0.0
 11
0.0
 21
20.0
 31
0.0
210
0.0
220
0.0
230
1.0
 40
0.1785714286
 41
0.0
 42
0.0675597047549723
  0
LINE
  5
188
330
1F
100
AcDbEntity
  8
0
  6
Continuous
 62
     7
370
    25
100
AcDbLine
 10
107.5584476298
 20
169.7130804863
 30
0.0
 11
112.8616223527
 21
169.7130804863
 31
0.0
  0
SPLINE
  5
189
330
1F
100
AcDbEntity
  8
0
  6
Continuous
 62
     7
370
    25
100
AcDbSpline
210
0.0
220
0.0
230
1.0
 70
     8
 71
     3
 72
     8
 73
     4
 74
     0
 42
0.000000001
 43
0.00000001
 40
0.0
 40
0.0
 40
0.0
 40
0.0
 40
1.0
 40
1.0
 40
1.0
 40
1.0
 10
112.911250482647
 20
169.5274626322829
 30
0.0
 10
112.8782562178748
 20
169.5727302634839
 30
0.0
 10
112.8616223847469
 20
169.6098441544098
 30
0.0
 10
112.8616223847469
 20
169.6386837240462
 30
0.0
  0
SPLINE
  5
18A
330
1F
100
AcDbEntity
  8
0
  6
Continuous
 62
     7
370
    25
100
AcDbSpline
210
0.0
220
0.0
230
1.0
 70
     8
 71
     3
 72
     8
 73
     4
 74
     0
 42
0.000000001
 43
0.00000001
 40
0.0
 40
0.0
 40
0.0
 40
0.0
 40
1.0
 40
1.0
 40
1.0
 40
1.0
 10
107.3173466296621
 20
169.6674546943242
 30
0.0
 10
107.213012395153
 20
169.6279213039716
 30
0.0
 10
107.1616223847469
 20
169.5625358901676
 30
0.0
 10
107.1616223847469
 20
169.4701015859654
 30
0.0
  0
ELLIPSE
  5
18B
330
1F
100
AcDbEntity
  8
0
  6
Continuous
 62
     7
370
    25
100
AcDbEllipse
 10
107.5584477816
 20
149.7130804732
 30
0.0
 11
0.0
 21
20.0
 31
0.0
210
0.0
220
0.0
230
1.0
 40
0.1785714286
 41
0.0
 42
0.0675597047549683
  0
LINE
  5
18C
330
1F
100
AcDbEntity
  8
0
  6
Continuous
 62
     7
370
    25
100
AcDbLine
 10
112.0616223147
 20
164.6130805351
 30
0.0
 11
112.7944826098
 21
164.6130805351
 31
0.0
  0
LINE
  5
18D
330
1F
100
AcDbEntity
  8
0
  6
Continuous
 62
     7
370
    25
100
AcDbLine
 10
112.0616223147
 20
164.6130805351
 30
0.0
 11
112.0616223147
 21
167.3130804887
 31
0.0
  0
LINE
  5
18E
330
1F
100
AcDbEntity
  8
0
  6
Continuous
 62
     7
370
    25
100
AcDbLine
 10
94.8616226619
 20
167.3130804887
 30
0.0
 11
94.8616226619
 21
164.6130805351
 31
0.0
  0
LINE
  5
18F
330
1F
100
AcDbEntity
  8
0
  6
Continuous
 62
     7
370
    25
100
AcDbLine
 10
94.1287630653
 20
164.6130805351
 30
0.0
 11
94.8616226619
 21
164.6130805351
 31
0.0
  0
LINE
  5
190
330
1F
100
AcDbEntity
  8
0
  6
Continuous
 62
     7
370
    25
100
AcDbLine
 10
98.8616214549
 20
175.8130806014
 30
0.0
 11
93.4235022819
 21
175.8130806014
 31
0.0
  0
ELLIPSE
  5
191
330
1F
100
AcDbEntity
  8
0
  6
Continuous
 62
     7
370
    25
100
AcDbEllipse
 10
93.4235017849
 20
185.8130804732
 30
0.0
 11
1.421085471520200E-14
 21
10.0
 31
0.0
210
0.0
220
0.0
230
1.0
 40
0.1285714286
 41
3.000944949269526
 42
3.141592653589913
  0
SPLINE
  5
192
330
1F
100
AcDbEntity
  8
0
  6
Continuous
 62
     7
370
    25
100
AcDbSpline
210
0.0
220
0.0
230
1.0
 70
     8
 71
     3
 72
     8
 73
     4
 74
     0
 42
0.000000001
 43
0.00000001
 40
0.0
 40
0.0
 40
0.0
 40
0.0
 40
1.0
 40
1.0
 40
1.0
 40
1.0
 10
93.24326463167262
 20
175.9118264149054
 30
0.0
 10
93.18809117185397
 20
175.9725832852354
 30
0.0
 10
93.16162238474689
 20
176.0611212674588
 30
0.0
 10
93.16162238474689
 20
176.178074541041
 30
0.0
  0
LINE
  5
193
330
1F
100
AcDbEntity
  8
0
  6
Continuous
 62
     7
370
    25
100
AcDbLine
 10
105.8616226023
 20
175.8130806014
 30
0.0
 11
100.4235015666
 21
175.8130806014
 31
0.0
  0
ELLIPSE
  5
194
330
1F
100
AcDbEntity
  8
0
  6
Continuous
 62
     7
370
    25
100
AcDbEllipse
 10
100.4235017849
 20
185.8130804732
 30
0.0
 11
0.0
 21
10.0
 31
0.0
210
0.0
220
0.0
230
1.0
 40
0.1285714286
 41
3.000944949269511
 42
3.141592653589782
  0
SPLINE
  5
195
330
1F
100
AcDbEntity
  8
0
  6
Continuous
 62
     7
370
    25
100
AcDbSpline
210
0.0
220
0.0
230
1.0
 70
     8
 71
     3
 72
     8
 73
     4
 74
     0
 42
0.000000001
 43
0.00000001
 40
0.0
 40
0.0
 40
0.0
 40
0.0
 40
1.0
 40
1.0
 40
1.0
 40
1.0
 10
100.2432646316726
 20
175.9118264149054
 30
0.0
 10
100.188091171854
 20
175.9725832852354
 30
0.0
 10
100.1616223847469
 20
176.0611212674589
 30
0.0
 10
100.1616223847469
 20
176.178074541041
 30
0.0
  0
SPLINE
  5
196
330
1F
100
AcDbEntity
  8
0
  6
Continuous
 62
     7
370
    25
100
AcDbSpline
210
0.0
220
0.0
230
1.0
 70
     8
 71
     3
 72
     8
 73
     4
 74
     0
 42
0.000000001
 43
0.00000001
 40
0.0
 40
0.0
 40
0.0
 40
0.0
 40
1.0
 40
1.0
 40
1.0
 40
1.0
 10
112.911250482647
 20
176.1392343288234
 30
0.0
 10
112.8785105598173
 20
176.0535040237354
 30
0.0
 10
112.8616223847469
 20
175.9843742117296
 30
0.0
 10
112.8616223847469
 20
175.9320734932384
 30
0.0
  0
LINE
  5
197
330
1F
100
AcDbEntity
  8
0
  6
Continuous
 62
     7
370
    25
100
AcDbLine
 10
112.8616223527
 20
175.8130806014
 30
0.0
 11
107.4235017827
 21
175.8130806014
 31
0.0
  0
ELLIPSE
  5
198
330
1F
100
AcDbEntity
  8
0
  6
Continuous
 62
     7
370
    25
100
AcDbEllipse
 10
107.4235017849
 20
185.8130804732
 30
0.0
 11
1.421085471520200E-14
 21
10.0
 31
0.0
210
0.0
220
0.0
230
1.0
 40
0.1285714286
 41
3.000944949269525
 42
3.141592653589913
  0
SPLINE
  5
199
330
1F
100
AcDbEntity
  8
0
  6
Continuous
 62
     7
370
    25
100
AcDbSpline
210
0.0
220
0.0
230
1.0
 70
     8
 71
     3
 72
     8
 73
     4
 74
     0
 42
0.000000001
 43
0.00000001
 40
0.0
 40
0.0
 40
0.0
 40
0.0
 40
1.0
 40
1.0
 40
1.0
 40
1.0
 10
107.2432646316726
 20
175.9118264149054
 30
0.0
 10
107.188091171854
 20
175.9725832852355
 30
0.0
 10
107.1616223847469
 20
176.0611212674589
 30
0.0
 10
107.1616223847469
 20
176.178074541041
 30
0.0
  0
LINE
  5
19A
330
1F
100
AcDbEntity
  8
0
  6
Continuous
 62
     7
370
    25
100
AcDbLine
 10
94.8616226619
 20
164.2130802832
 30
0.0
 11
93.8033217048
 21
164.2130802832
 31
0.0
  0
LINE
  5
19B
330
1F
100
AcDbEntity
  8
0
  6
Continuous
 62
     7
370
    25
100
AcDbLine
 10
94.8616226619
 20
164.2130802832
 30
0.0
 11
94.8616226619
 21
164.6130805351
 31
0.0
  0
LINE
  5
19C
330
1F
100
AcDbEntity
  8
0
  6
Continuous
 62
     7
370
    25
100
AcDbLine
 10
113.1199229225
 20
164.2130802832
 30
0.0
 11
112.0616223147
 21
164.2130802832
 31
0.0
  0
LINE
  5
19D
330
1F
100
AcDbEntity
  8
0
  6
Continuous
 62
     7
370
    25
100
AcDbLine
 10
112.0616223147
 20
164.2130802832
 30
0.0
 11
112.0616223147
 21
164.6130805351
 31
0.0
  0
LINE
  5
19E
330
1F
100
AcDbEntity
  8
0
  6
Continuous
 62
     7
370
    25
100
AcDbLine
 10
96.1616223162
 20
165.0130805541
 30
0.0
 11
96.1616223162
 21
167.3130804887
 31
0.0
  0
LINE
  5
19F
330
1F
100
AcDbEntity
  8
0
  6
Continuous
 62
     7
370
    25
100
AcDbLine
 10
100.5616222924
 20
165.0130805541
 30
0.0
 11
96.1616223162
 21
165.0130805541
 31
0.0
  0
LINE
  5
1A0
330
1F
100
AcDbEntity
  8
0
  6
Continuous
 62
     7
370
    25
100
AcDbLine
 10
100.5616222924
 20
165.8231824152
 30
0.0
 11
100.5616222924
 21
165.0130805541
 31
0.0
  0
LINE
  5
1A1
330
1F
100
AcDbEntity
  8
0
  6
Continuous
 62
     7
370
    25
100
AcDbLine
 10
106.7616220048
 20
165.0130805541
 30
0.0
 11
106.7616220048
 21
165.8231824152
 31
0.0
  0
LINE
  5
1A2
330
1F
100
AcDbEntity
  8
0
  6
Continuous
 62
     7
370
    25
100
AcDbLine
 10
111.1616224466
 20
165.0130805541
 30
0.0
 11
106.7616220048
 21
165.0130805541
 31
0.0
  0
LINE
  5
1A3
330
1F
100
AcDbEntity
  8
0
  6
Continuous
 62
     7
370
    25
100
AcDbLine
 10
111.1616224466
 20
167.3130804887
 30
0.0
 11
111.1616224466
 21
165.0130805541
 31
0.0
  0
LINE
  5
1A4
330
1F
100
AcDbEntity
  8
0
  6
Continuous
 62
     7
370
    25
100
AcDbLine
 10
94.8616226619
 20
164.6130805351
 30
0.0
 11
112.0616223147
 21
164.6130805351
 31
0.0
  0
LINE
  5
1A5
330
1F
100
AcDbEntity
  8
0
  6
Continuous
 62
     7
370
    25
100
AcDbLine
 10
97.611622647
 20
167.3130804887
 30
0.0
 11
99.1116219616
 21
167.3130804887
 31
0.0
  0
LINE
  5
1A6
330
1F
100
AcDbEntity
  8
0
  6
Continuous
 62
     7
370
    25
100
AcDbLine
 10
112.0616223147
 20
164.2130802832
 30
0.0
 11
94.8616226619
 21
164.2130802832
 31
0.0
  0
LINE
  5
1A7
330
1F
100
AcDbEntity
  8
0
  6
Continuous
 62
     7
370
    25
100
AcDbLine
 10
110.7616221948
 20
165.4130805731
 30
0.0
 11
111.1616224466
 21
165.0130805541
 31
0.0
  0
LINE
  5
1A8
330
1F
100
AcDbEntity
  8
0
  6
Continuous
 62
     7
370
    25
100
AcDbLine
 10
107.1616222566
 20
165.4130805731
 30
0.0
 11
106.7616220048
 21
165.0130805541
 31
0.0
  0
LINE
  5
1A9
330
1F
100
AcDbEntity
  8
0
  6
Continuous
 62
     7
370
    25
100
AcDbLine
 10
107.1616222566
 20
165.4130805731
 30
0.0
 11
110.7616221948
 21
165.4130805731
 31
0.0
  0
LINE
  5
1AA
330
1F
100
AcDbEntity
  8
0
  6
Continuous
 62
     7
370
    25
100
AcDbLine
 10
110.7616221948
 20
165.4130805731
 30
0.0
 11
110.7616221948
 21
167.3130804887
 31
0.0
  0
LINE
  5
1AB
330
1F
100
AcDbEntity
  8
0
  6
Continuous
 62
     7
370
    25
100
AcDbLine
 10
107.1616222566
 20
166.3130804412
 30
0.0
 11
107.1616222566
 21
165.4130805731
 31
0.0
  0
LINE
  5
1AC
330
1F
100
AcDbEntity
  8
0
  6
Continuous
 62
     7
370
    25
100
AcDbLine
 10
100.5616222924
 20
165.0130805541
 30
0.0
 11
100.1616220405
 21
165.4130805731
 31
0.0
  0
LINE
  5
1AD
330
1F
100
AcDbEntity
  8
0
  6
Continuous
 62
     7
370
    25
100
AcDbLine
 10
100.1616220405
 20
165.4130805731
 30
0.0
 11
100.1616220405
 21
166.3130804412
 31
0.0
  0
LINE
  5
1AE
330
1F
100
AcDbEntity
  8
0
  6
Continuous
 62
     7
370
    25
100
AcDbLine
 10
96.5616216367
 20
165.4130805731
 30
0.0
 11
96.1616223162
 21
165.0130805541
 31
0.0
  0
LINE
  5
1AF
330
1F
100
AcDbEntity
  8
0
  6
Continuous
 62
     7
370
    25
100
AcDbLine
 10
96.5616216367
 20
165.4130805731
 30
0.0
 11
100.1616220405
 21
165.4130805731
 31
0.0
  0
LINE
  5
1B0
330
1F
100
AcDbEntity
  8
0
  6
Continuous
 62
     7
370
    25
100
AcDbLine
 10
96.5616216367
 20
167.3130804887
 30
0.0
 11
96.5616216367
 21
165.4130805731
 31
0.0
  0
LINE
  5
1B1
330
1F
100
AcDbEntity
  8
0
  6
Continuous
 62
     7
370
    25
100
AcDbLine
 10
100.3173466256
 20
170.9630804583
 30
0.0
 11
100.1616220405
 21
170.9630804583
 31
0.0
  0
LINE
  5
1B2
330
1F
100
AcDbEntity
  8
0
  6
Continuous
 62
     7
370
    25
100
AcDbLine
 10
100.3173466256
 20
170.9630804583
 30
0.0
 11
100.3173466256
 21
169.6674546441
 31
0.0
  0
ARC
  5
1B3
330
1F
100
AcDbEntity
  8
0
  6
Continuous
 62
     7
370
    25
100
AcDbCircle
 10
100.0166884068
 20
170.9640253854
 30
0.0
 40
0.3006597036818427
100
AcDbArc
 50
359.8199279048
 51
61.1804878147
  0
LINE
  5
1B4
330
1F
100
AcDbEntity
  8
0
  6
Continuous
 62
     7
370
    25
100
AcDbLine
 10
107.3173468417
 20
170.9630804583
 30
0.0
 11
107.1616222566
 21
170.9630804583
 31
0.0
  0
LINE
  5
1B5
330
1F
100
AcDbEntity
  8
0
  6
Continuous
 62
     7
370
    25
100
AcDbLine
 10
107.3173468417
 20
170.9630804583
 30
0.0
 11
107.3173468417
 21
169.6674546441
 31
0.0
  0
ARC
  5
1B6
330
1F
100
AcDbEntity
  8
0
  6
Continuous
 62
     7
370
    25
100
AcDbCircle
 10
107.0166873823
 20
170.9640246547
 30
0.0
 40
0.3006609419174162
100
AcDbArc
 50
359.8200679011
 51
61.1803478184
  0
LINE
  5
1B7
330
1F
100
AcDbEntity
  8
0
  6
Continuous
 62
     7
370
    25
100
AcDbLine
 10
93.3173464095
 20
170.9630804583
 30
0.0
 11
93.1616218245
 21
170.9630804583
 31
0.0
  0
LINE
  5
1B8
330
1F
100
AcDbEntity
  8
0
  6
Continuous
 62
     7
370
    25
100
AcDbLine
 10
93.3173464095
 20
170.9630804583
 30
0.0
 11
93.3173464095
 21
169.6674546441
 31
0.0
  0
ARC
  5
1B9
330
1F
100
AcDbEntity
  8
0
  6
Continuous
 62
     7
370
    25
100
AcDbCircle
 10
93.0166874856
 20
170.96402497
 30
0.0
 40
0.3006604075332444
100
AcDbArc
 50
359.8200074832
 51
61.1804082363
  0
LINE
  5
1BA
330
1F
100
AcDbEntity
  8
0
  6
Continuous
 62
     7
370
    25
100
AcDbLine
 10
107.1616222566
 20
174.5630803965
 30
0.0
 11
107.2432647875
 21
174.5630803965
 31
0.0
  0
ARC
  5
1BB
330
1F
100
AcDbEntity
  8
0
  6
Continuous
 62
     7
370
    25
100
AcDbCircle
 10
106.941952931
 20
174.5628897047
 30
0.0
 40
0.3013119167656328
100
AcDbArc
 50
316.806220209
 51
0.0362608859
  0
LINE
  5
1BC
330
1F
100
AcDbEntity
  8
0
  6
Continuous
 62
     7
370
    25
100
AcDbLine
 10
107.2432647875
 20
175.9118264057
 30
0.0
 11
107.2432647875
 21
174.5630803965
 31
0.0
  0
LINE
  5
1BD
330
1F
100
AcDbEntity
  8
0
  6
Continuous
 62
     7
370
    25
100
AcDbLine
 10
100.1616220405
 20
174.5630803965
 30
0.0
 11
100.2432645714
 21
174.5630803965
 31
0.0
  0
ARC
  5
1BE
330
1F
100
AcDbEntity
  8
0
  6
Continuous
 62
     7
370
    25
100
AcDbCircle
 10
99.9419577293
 20
174.5628877215
 30
0.0
 40
0.3013069037138563
100
AcDbArc
 50
316.8058424932
 51
0.0366386016
  0
LINE
  5
1BF
330
1F
100
AcDbEntity
  8
0
  6
Continuous
 62
     7
370
    25
100
AcDbLine
 10
100.2432645714
 20
175.9118264057
 30
0.0
 11
100.2432645714
 21
174.5630803965
 31
0.0
  0
LINE
  5
1C0
330
1F
100
AcDbEntity
  8
0
  6
Continuous
 62
     7
370
    25
100
AcDbLine
 10
93.1616218245
 20
174.5630803965
 30
0.0
 11
93.2432652866
 21
174.5630803965
 31
0.0
  0
ARC
  5
1C1
330
1F
100
AcDbEntity
  8
0
  6
Continuous
 62
     7
370
    25
100
AcDbCircle
 10
92.9419442267
 20
174.5628943358
 30
0.0
 40
0.3013211174096969
100
AcDbArc
 50
316.8066548515
 51
0.0353791834
  0
LINE
  5
1C2
330
1F
100
AcDbEntity
  8
0
  6
Continuous
 62
     7
370
    25
100
AcDbLine
 10
93.2432652866
 20
175.9118264057
 30
0.0
 11
93.2432652866
 21
174.5630803965
 31
0.0
  0
LINE
  5
1C3
330
1F
100
AcDbEntity
  8
0
  6
Continuous
 62
     7
370
    25
100
AcDbLine
 10
112.8616223527
 20
169.6386837615
 30
0.0
 11
112.8616223527
 21
171.5630803704
 31
0.0
  0
LINE
  5
1C4
330
1F
100
AcDbEntity
  8
0
  6
Continuous
 62
     7
370
    25
100
AcDbLine
 10
112.8616223527
 20
173.9630804844
 30
0.0
 11
112.8616223527
 21
175.9320733584
 31
0.0
  0
LINE
  5
1C5
330
1F
100
AcDbEntity
  8
0
  6
Continuous
 62
     7
370
    25
100
AcDbLine
 10
111.9616224846
 20
171.5630803704
 30
0.0
 11
111.9616224846
 21
173.9630804844
 31
0.0
  0
LINE
  5
1C6
330
1F
100
AcDbEntity
  8
0
  6
Continuous
 62
     7
370
    25
100
AcDbLine
 10
112.4659602014
 20
171.5630803704
 30
0.0
 11
111.9616224846
 21
171.5630803704
 31
0.0
  0
LINE
  5
1C7
330
1F
100
AcDbEntity
  8
0
  6
Continuous
 62
     7
370
    25
100
AcDbLine
 10
111.9616224846
 20
173.9630804844
 30
0.0
 11
112.4659602014
 21
173.9630804844
 31
0.0
  0
LINE
  5
1C8
330
1F
100
AcDbEntity
  8
0
  6
Continuous
 62
     7
370
    25
100
AcDbLine
 10
108.0616225904
 20
175.8130806014
 30
0.0
 11
108.0616225904
 21
174.5630803965
 31
0.0
  0
LINE
  5
1C9
330
1F
100
AcDbEntity
  8
0
  6
Continuous
 62
     7
370
    25
100
AcDbLine
 10
107.2432647875
 20
174.5630803965
 30
0.0
 11
108.0616225904
 21
174.5630803965
 31
0.0
  0
LINE
  5
1CA
330
1F
100
AcDbEntity
  8
0
  6
Continuous
 62
     7
370
    25
100
AcDbLine
 10
107.7145261174
 20
174.2630804404
 30
0.0
 11
107.1616222566
 21
174.2630804404
 31
0.0
  0
LINE
  5
1CB
330
1F
100
AcDbEntity
  8
0
  6
Continuous
 62
     7
370
    25
100
AcDbLine
 10
108.0616225904
 20
174.5630803965
 30
0.0
 11
108.0616225904
 21
174.4841694347
 31
0.0
  0
SPLINE
  5
1CC
330
1F
100
AcDbEntity
  8
0
  6
Continuous
 62
     7
370
    25
100
AcDbSpline
210
0.0
220
0.0
230
1.0
 70
     8
 71
     3
 72
    12
 73
     8
 74
     0
 42
0.000000001
 43
0.00000001
 40
0.0
 40
0.0
 40
0.0
 40
0.0
 40
0.4999999999999862
 40
0.4999999999999862
 40
0.7499999999999931
 40
0.7499999999999931
 40
1.0
 40
1.0
 40
1.0
 40
1.0
 10
108.0030437409842
 20
174.3963028530932
 30
0.0
 10
108.0197191913139
 20
174.4178532349251
 30
0.0
 10
108.0328303765424
 20
174.4399798335747
 30
0.0
 10
108.0483378755115
 20
174.4704143612807
 30
0.0
 10
108.0528409274462
 20
174.4803602842342
 30
0.0
 10
108.0596306903487
 20
174.4919699968816
 30
0.0
 10
108.061622384747
 20
174.4910081532846
 30
0.0
 10
108.0616223847469
 20
174.4841694796046
 30
0.0
  0
ELLIPSE
  5
1CD
330
1F
100
AcDbEntity
  8
0
  6
Continuous
 62
     7
370
    25
100
AcDbEllipse
 10
107.7145263194
 20
174.5630804732
 30
0.0
 11
0.3470960653493762
 21
0.0
 31
0.0
210
0.0
220
0.0
230
1.0
 40
0.8643140328
 41
4.712388980384702
 42
5.693709467392983
  0
LINE
  5
1CE
330
1F
100
AcDbEntity
  8
0
  6
Continuous
 62
     7
370
    25
100
AcDbLine
 10
101.0616223743
 20
175.8130806014
 30
0.0
 11
101.0616223743
 21
174.5630803965
 31
0.0
  0
LINE
  5
1CF
330
1F
100
AcDbEntity
  8
0
  6
Continuous
 62
     7
370
    25
100
AcDbLine
 10
100.2432645714
 20
174.5630803965
 30
0.0
 11
101.0616223743
 21
174.5630803965
 31
0.0
  0
LINE
  5
1D0
330
1F
100
AcDbEntity
  8
0
  6
Continuous
 62
     7
370
    25
100
AcDbLine
 10
100.7145259013
 20
174.2630804404
 30
0.0
 11
100.1616220405
 21
174.2630804404
 31
0.0
  0
LINE
  5
1D1
330
1F
100
AcDbEntity
  8
0
  6
Continuous
 62
     7
370
    25
100
AcDbLine
 10
101.0616223743
 20
174.5630803965
 30
0.0
 11
101.0616223743
 21
174.4841694347
 31
0.0
  0
SPLINE
  5
1D2
330
1F
100
AcDbEntity
  8
0
  6
Continuous
 62
     7
370
    25
100
AcDbSpline
210
0.0
220
0.0
230
1.0
 70
     8
 71
     3
 72
    12
 73
     8
 74
     0
 42
0.000000001
 43
0.00000001
 40
0.0
 40
0.0
 40
0.0
 40
0.0
 40
0.5000000000000052
 40
0.5000000000000052
 40
0.7500000000000026
 40
0.7500000000000026
 40
1.0
 40
1.0
 40
1.0
 40
1.0
 10
101.0030437409842
 20
174.3963028530932
 30
0.0
 10
101.0197191913139
 20
174.4178532349251
 30
0.0
 10
101.0328303765424
 20
174.4399798335747
 30
0.0
 10
101.0483378755115
 20
174.4704143612807
 30
0.0
 10
101.0528409274462
 20
174.4803602842342
 30
0.0
 10
101.0596306903487
 20
174.4919699968816
 30
0.0
 10
101.0616223847469
 20
174.4910081532846
 30
0.0
 10
101.0616223847469
 20
174.4841694796046
 30
0.0
  0
ELLIPSE
  5
1D3
330
1F
100
AcDbEntity
  8
0
  6
Continuous
 62
     7
370
    25
100
AcDbEllipse
 10
100.7145263194
 20
174.5630804732
 30
0.0
 11
0.3470960653493904
 21
0.0
 31
0.0
210
0.0
220
0.0
230
1.0
 40
0.8643140328
 41
4.712388980384702
 42
5.69370946739301
  0
LINE
  5
1D4
330
1F
100
AcDbEntity
  8
0
  6
Continuous
 62
     7
370
    25
100
AcDbLine
 10
93.7145256853
 20
174.2630804404
 30
0.0
 11
93.1616218245
 21
174.2630804404
 31
0.0
  0
LINE
  5
1D5
330
1F
100
AcDbEntity
  8
0
  6
Continuous
 62
     7
370
    25
100
AcDbLine
 10
93.2432652866
 20
174.5630803965
 30
0.0
 11
94.0616221582
 21
174.5630803965
 31
0.0
  0
LINE
  5
1D6
330
1F
100
AcDbEntity
  8
0
  6
Continuous
 62
     7
370
    25
100
AcDbLine
 10
94.0616221582
 20
174.5630803965
 30
0.0
 11
94.0616221582
 21
174.4841694347
 31
0.0
  0
SPLINE
  5
1D7
330
1F
100
AcDbEntity
  8
0
  6
Continuous
 62
     7
370
    25
100
AcDbSpline
210
0.0
220
0.0
230
1.0
 70
     8
 71
     3
 72
    12
 73
     8
 74
     0
 42
0.000000001
 43
0.00000001
 40
0.0
 40
0.0
 40
0.0
 40
0.0
 40
0.4999999999999964
 40
0.4999999999999964
 40
0.7499999999999982
 40
0.7499999999999982
 40
1.0
 40
1.0
 40
1.0
 40
1.0
 10
94.00304374098418
 20
174.3963028530932
 30
0.0
 10
94.01971919131394
 20
174.4178532349251
 30
0.0
 10
94.03283037654244
 20
174.4399798335747
 30
0.0
 10
94.04833787551146
 20
174.4704143612807
 30
0.0
 10
94.05284092744616
 20
174.4803602842342
 30
0.0
 10
94.05963069034865
 20
174.4919699968816
 30
0.0
 10
94.06162238474695
 20
174.4910081532846
 30
0.0
 10
94.06162238474688
 20
174.4841694796046
 30
0.0
  0
ELLIPSE
  5
1D8
330
1F
100
AcDbEntity
  8
0
  6
Continuous
 62
     7
370
    25
100
AcDbEllipse
 10
93.7145263194
 20
174.5630804732
 30
0.0
 11
0.3470960653493762
 21
0.0
 31
0.0
210
0.0
220
0.0
230
1.0
 40
0.8643140328
 41
4.712388980384702
 42
5.693709467392983
  0
LINE
  5
1D9
330
1F
100
AcDbEntity
  8
0
  6
Continuous
 62
     7
370
    25
100
AcDbLine
 10
94.0616221582
 20
175.8130806014
 30
0.0
 11
94.0616221582
 21
174.5630803965
 31
0.0
  0
LINE
  5
1DA
330
1F
100
AcDbEntity
  8
0
  6
Continuous
 62
     7
370
    25
100
AcDbLine
 10
101.1780358335
 20
170.9630804583
 30
0.0
 11
100.3173466256
 21
170.9630804583
 31
0.0
  0
LINE
  5
1DB
330
1F
100
AcDbEntity
  8
0
  6
Continuous
 62
     7
370
    25
100
AcDbLine
 10
101.1780358335
 20
169.7130804863
 30
0.0
 11
101.1780358335
 21
170.9630804583
 31
0.0
  0
LINE
  5
1DC
330
1F
100
AcDbEntity
  8
0
  6
Continuous
 62
     7
370
    25
100
AcDbLine
 10
100.1616220405
 20
171.2630804144
 30
0.0
 11
101.1167156925
 21
171.2630804144
 31
0.0
  0
SPLINE
  5
1DD
330
1F
100
AcDbEntity
  8
0
  6
Continuous
 62
     7
370
    25
100
AcDbSpline
210
0.0
220
0.0
230
1.0
 70
     8
 71
     3
 72
    10
 73
     6
 74
     0
 42
0.000000001
 43
0.00000001
 40
0.0
 40
0.0
 40
0.0
 40
0.0
 40
0.5
 40
0.5
 40
1.0
 40
1.0
 40
1.0
 40
1.0
 10
101.1167159059343
 20
171.2630804732314
 30
0.0
 10
101.1877342992913
 20
171.2630804732314
 30
0.0
 10
101.2463876095182
 20
171.2474908428917
 30
0.0
 10
101.3393690364326
 20
171.2176165799939
 30
0.0
 10
101.372907267341
 20
171.203799660121
 30
0.0
 10
101.3923628846009
 20
171.2023019124379
 30
0.0
  0
SPLINE
  5
1DE
330
1F
100
AcDbEntity
  8
0
  6
Continuous
 62
     7
370
    25
100
AcDbSpline
210
0.0
220
0.0
230
1.0
 70
     8
 71
     3
 72
     8
 73
     4
 74
     0
 42
0.000000001
 43
0.00000001
 40
0.0
 40
0.0
 40
0.0
 40
0.0
 40
1.0
 40
1.0
 40
1.0
 40
1.0
 10
101.3923628846009
 20
171.2023019124379
 30
0.0
 10
101.3603109474118
 20
171.1421181190335
 30
0.0
 10
101.2886290728848
 20
171.052049769807
 30
0.0
 10
101.1780360173741
 20
170.9630804732314
 30
0.0
  0
LINE
  5
1DF
330
1F
100
AcDbEntity
  8
0
  6
Continuous
 62
     7
370
    25
100
AcDbLine
 10
108.1780360496
 20
170.9630804583
 30
0.0
 11
107.3173468417
 21
170.9630804583
 31
0.0
  0
LINE
  5
1E0
330
1F
100
AcDbEntity
  8
0
  6
Continuous
 62
     7
370
    25
100
AcDbLine
 10
108.1780360496
 20
169.7130804863
 30
0.0
 11
108.1780360496
 21
170.9630804583
 31
0.0
  0
LINE
  5
1E1
330
1F
100
AcDbEntity
  8
0
  6
Continuous
 62
     7
370
    25
100
AcDbLine
 10
107.1616222566
 20
171.2630804144
 30
0.0
 11
108.1167159086
 21
171.2630804144
 31
0.0
  0
SPLINE
  5
1E2
330
1F
100
AcDbEntity
  8
0
  6
Continuous
 62
     7
370
    25
100
AcDbSpline
210
0.0
220
0.0
230
1.0
 70
     8
 71
     3
 72
    10
 73
     6
 74
     0
 42
0.000000001
 43
0.00000001
 40
0.0
 40
0.0
 40
0.0
 40
0.0
 40
0.5
 40
0.5
 40
1.0
 40
1.0
 40
1.0
 40
1.0
 10
108.1167159059343
 20
171.2630804732314
 30
0.0
 10
108.1877342992913
 20
171.2630804732314
 30
0.0
 10
108.2463876095182
 20
171.2474908428917
 30
0.0
 10
108.3393690364326
 20
171.2176165799939
 30
0.0
 10
108.372907267341
 20
171.203799660121
 30
0.0
 10
108.3923628846009
 20
171.2023019124379
 30
0.0
  0
SPLINE
  5
1E3
330
1F
100
AcDbEntity
  8
0
  6
Continuous
 62
     7
370
    25
100
AcDbSpline
210
0.0
220
0.0
230
1.0
 70
     8
 71
     3
 72
     8
 73
     4
 74
     0
 42
0.000000001
 43
0.00000001
 40
0.0
 40
0.0
 40
0.0
 40
0.0
 40
1.0
 40
1.0
 40
1.0
 40
1.0
 10
108.3923628846009
 20
171.2023019124379
 30
0.0
 10
108.3603109474118
 20
171.1421181190335
 30
0.0
 10
108.288629072885
 20
171.0520497697988
 30
0.0
 10
108.1780360173741
 20
170.9630804732314
 30
0.0
  0
LINE
  5
1E4
330
1F
100
AcDbEntity
  8
0
  6
Continuous
 62
     7
370
    25
100
AcDbLine
 10
94.1780356174
 20
170.9630804583
 30
0.0
 11
93.3173464095
 21
170.9630804583
 31
0.0
  0
LINE
  5
1E5
330
1F
100
AcDbEntity
  8
0
  6
Continuous
 62
     7
370
    25
100
AcDbLine
 10
94.1780356174
 20
169.7130804863
 30
0.0
 11
94.1780356174
 21
170.9630804583
 31
0.0
  0
LINE
  5
1E6
330
1F
100
AcDbEntity
  8
0
  6
Continuous
 62
     7
370
    25
100
AcDbLine
 10
93.1616218245
 20
171.2630804144
 30
0.0
 11
94.1167154765
 21
171.2630804144
 31
0.0
  0
SPLINE
  5
1E7
330
1F
100
AcDbEntity
  8
0
  6
Continuous
 62
     7
370
    25
100
AcDbSpline
210
0.0
220
0.0
230
1.0
 70
     8
 71
     3
 72
    10
 73
     6
 74
     0
 42
0.000000001
 43
0.00000001
 40
0.0
 40
0.0
 40
0.0
 40
0.0
 40
0.5
 40
0.5
 40
1.0
 40
1.0
 40
1.0
 40
1.0
 10
94.11671590593434
 20
171.2630804732314
 30
0.0
 10
94.18773429929124
 20
171.2630804732314
 30
0.0
 10
94.24638760951817
 20
171.2474908428917
 30
0.0
 10
94.33936903643261
 20
171.2176165799939
 30
0.0
 10
94.372907267341
 20
171.203799660121
 30
0.0
 10
94.3923628846009
 20
171.2023019124379
 30
0.0
  0
SPLINE
  5
1E8
330
1F
100
AcDbEntity
  8
0
  6
Continuous
 62
     7
370
    25
100
AcDbSpline
210
0.0
220
0.0
230
1.0
 70
     8
 71
     3
 72
     8
 73
     4
 74
     0
 42
0.000000001
 43
0.00000001
 40
0.0
 40
0.0
 40
0.0
 40
0.0
 40
1.0
 40
1.0
 40
1.0
 40
1.0
 10
94.3923628846009
 20
171.2023019124379
 30
0.0
 10
94.36031094741182
 20
171.1421181190335
 30
0.0
 10
94.28862907288485
 20
171.0520497698042
 30
0.0
 10
94.17803601737411
 20
170.9630804732314
 30
0.0
  0
LINE
  5
1E9
330
1F
100
AcDbEntity
  8
0
  6
Continuous
 62
     7
370
    25
100
AcDbLine
 10
104.9616222685
 20
171.5630803704
 30
0.0
 11
104.9616222685
 21
173.9630804844
 31
0.0
  0
LINE
  5
1EA
330
1F
100
AcDbEntity
  8
0
  6
Continuous
 62
     7
370
    25
100
AcDbLine
 10
104.9616222685
 20
173.9630804844
 30
0.0
 11
105.2065489298
 21
173.9630804844
 31
0.0
  0
LINE
  5
1EB
330
1F
100
AcDbEntity
  8
0
  6
Continuous
 62
     7
370
    25
100
AcDbLine
 10
105.2065489298
 20
171.5630803704
 30
0.0
 11
104.9616222685
 21
171.5630803704
 31
0.0
  0
LINE
  5
1EC
330
1F
100
AcDbEntity
  8
0
  6
Continuous
 62
     7
370
    25
100
AcDbLine
 10
97.9616229838
 20
171.5630803704
 30
0.0
 11
97.9616229838
 21
173.9630804844
 31
0.0
  0
LINE
  5
1ED
330
1F
100
AcDbEntity
  8
0
  6
Continuous
 62
     7
370
    25
100
AcDbLine
 10
97.9616229838
 20
173.9630804844
 30
0.0
 11
98.206549645
 21
173.9630804844
 31
0.0
  0
LINE
  5
1EE
330
1F
100
AcDbEntity
  8
0
  6
Continuous
 62
     7
370
    25
100
AcDbLine
 10
98.206549645
 20
171.5630803704
 30
0.0
 11
97.9616229838
 21
171.5630803704
 31
0.0
  0
LINE
  5
1EF
330
1F
100
AcDbEntity
  8
0
  6
Continuous
 62
     7
370
    25
100
AcDbLine
 10
107.8116225494
 20
165.8130803592
 30
0.0
 11
110.1116223676
 21
165.8130803592
 31
0.0
  0
LINE
  5
1F0
330
1F
100
AcDbEntity
  8
0
  6
Continuous
 62
     7
370
    25
100
AcDbLine
 10
107.8116225494
 20
167.3130804887
 30
0.0
 11
107.8116225494
 21
165.8130803592
 31
0.0
  0
LINE
  5
1F1
330
1F
100
AcDbEntity
  8
0
  6
Continuous
 62
     7
370
    25
100
AcDbLine
 10
110.1116223676
 20
167.3130804887
 30
0.0
 11
110.1116223676
 21
165.8130803592
 31
0.0
  0
LINE
  5
1F2
330
1F
100
AcDbEntity
  8
0
  6
Continuous
 62
     7
370
    25
100
AcDbLine
 10
97.2116214639
 20
165.8130803592
 30
0.0
 11
99.5116222134
 21
165.8130803592
 31
0.0
  0
LINE
  5
1F3
330
1F
100
AcDbEntity
  8
0
  6
Continuous
 62
     7
370
    25
100
AcDbLine
 10
99.5116222134
 20
167.3130804887
 30
0.0
 11
99.5116222134
 21
165.8130803592
 31
0.0
  0
LINE
  5
1F4
330
1F
100
AcDbEntity
  8
0
  6
Continuous
 62
     7
370
    25
100
AcDbLine
 10
97.2116214639
 20
167.3130804887
 30
0.0
 11
97.2116214639
 21
165.8130803592
 31
0.0
  0
LINE
  5
1F5
330
1F
100
AcDbEntity
  8
0
  6
Continuous
 62
     7
370
    25
100
AcDbLine
 10
94.3923627442
 20
171.2023018375
 30
0.0
 11
94.3923627442
 21
172.9130804054
 31
0.0
  0
LINE
  5
1F6
330
1F
100
AcDbEntity
  8
0
  6
Continuous
 62
     7
370
    25
100
AcDbLine
 10
94.411622495
 20
172.9130804054
 30
0.0
 11
94.3923627442
 21
172.9130804054
 31
0.0
  0
LINE
  5
1F7
330
1F
100
AcDbEntity
  8
0
  6
Continuous
 62
     7
370
    25
100
AcDbLine
 10
94.411622495
 20
172.9130804054
 30
0.0
 11
94.411622495
 21
169.7130804863
 31
0.0
  0
LINE
  5
1F8
330
1F
100
AcDbEntity
  8
0
  6
Continuous
 62
     7
370
    25
100
AcDbLine
 10
108.3923627106
 20
171.2023018375
 30
0.0
 11
108.3923627106
 21
172.9130804054
 31
0.0
  0
LINE
  5
1F9
330
1F
100
AcDbEntity
  8
0
  6
Continuous
 62
     7
370
    25
100
AcDbLine
 10
108.4116224615
 20
172.9130804054
 30
0.0
 11
108.3923627106
 21
172.9130804054
 31
0.0
  0
LINE
  5
1FA
330
1F
100
AcDbEntity
  8
0
  6
Continuous
 62
     7
370
    25
100
AcDbLine
 10
108.4116224615
 20
172.9130804054
 30
0.0
 11
108.4116224615
 21
169.7130804863
 31
0.0
  0
LINE
  5
1FB
330
1F
100
AcDbEntity
  8
0
  6
Continuous
 62
     7
370
    25
100
AcDbLine
 10
101.3923629602
 20
171.2023018375
 30
0.0
 11
101.3923629602
 21
172.9130804054
 31
0.0
  0
LINE
  5
1FC
330
1F
100
AcDbEntity
  8
0
  6
Continuous
 62
     7
370
    25
100
AcDbLine
 10
101.4116227111
 20
172.9130804054
 30
0.0
 11
101.3923629602
 21
172.9130804054
 31
0.0
  0
LINE
  5
1FD
330
1F
100
AcDbEntity
  8
0
  6
Continuous
 62
     7
370
    25
100
AcDbLine
 10
101.4116227111
 20
172.9130804054
 30
0.0
 11
101.4116227111
 21
169.7130804863
 31
0.0
  0
LINE
  5
1FE
330
1F
100
AcDbEntity
  8
0
  6
Continuous
 62
     7
370
    25
100
AcDbLine
 10
94.003043831
 20
171.2630804144
 30
0.0
 11
94.003043831
 21
174.3963028751
 31
0.0
  0
LINE
  5
1FF
330
1F
100
AcDbEntity
  8
0
  6
Continuous
 62
     7
370
    25
100
AcDbLine
 10
108.0030437974
 20
171.2630804144
 30
0.0
 11
108.0030437974
 21
174.3963028751
 31
0.0
  0
LINE
  5
200
330
1F
100
AcDbEntity
  8
0
  6
Continuous
 62
     7
370
    25
100
AcDbLine
 10
101.003044047
 20
171.2630804144
 30
0.0
 11
101.003044047
 21
174.3963028751
 31
0.0
  0
LINE
  5
201
330
1F
100
AcDbEntity
  8
0
  6
Continuous
 62
     7
370
    25
100
AcDbLine
 10
108.0616225904
 20
174.4841694347
 30
0.0
 11
108.0616225904
 21
173.0542400367
 31
0.0
  0
SPLINE
  5
202
330
1F
100
AcDbEntity
  8
0
  6
Continuous
 62
     7
370
    25
100
AcDbSpline
210
0.0
220
0.0
230
1.0
 70
     8
 71
     3
 72
    10
 73
     6
 74
     0
 42
0.000000001
 43
0.00000001
 40
0.0
 40
0.0
 40
0.0
 40
0.0
 40
0.5
 40
0.5
 40
1.0
 40
1.0
 40
1.0
 40
1.0
 10
108.0340810534587
 20
172.9130804732314
 30
0.0
 10
108.0340810534587
 20
172.9439576356508
 30
0.0
 10
108.0438675026638
 20
172.9705939697944
 30
0.0
 10
108.0570087423448
 20
173.0163100490093
 30
0.0
 10
108.0616223847469
 20
173.0362980438904
 30
0.0
 10
108.0616223847469
 20
173.054240040431
 30
0.0
  0
LINE
  5
203
330
1F
100
AcDbEntity
  8
0
  6
Continuous
 62
     7
370
    25
100
AcDbLine
 10
108.0340810535
 20
172.9130804054
 30
0.0
 11
108.0340810535
 21
171.2630804144
 31
0.0
  0
LINE
  5
204
330
1F
100
AcDbEntity
  8
0
  6
Continuous
 62
     7
370
    25
100
AcDbLine
 10
101.0340813031
 20
172.9130804054
 30
0.0
 11
101.0340813031
 21
171.2630804144
 31
0.0
  0
LINE
  5
205
330
1F
100
AcDbEntity
  8
0
  6
Continuous
 62
     7
370
    25
100
AcDbLine
 10
101.0616223743
 20
174.4841694347
 30
0.0
 11
101.0616223743
 21
173.0542400367
 31
0.0
  0
SPLINE
  5
206
330
1F
100
AcDbEntity
  8
0
  6
Continuous
 62
     7
370
    25
100
AcDbSpline
210
0.0
220
0.0
230
1.0
 70
     8
 71
     3
 72
    10
 73
     6
 74
     0
 42
0.000000001
 43
0.00000001
 40
0.0
 40
0.0
 40
0.0
 40
0.0
 40
0.5
 40
0.5
 40
1.0
 40
1.0
 40
1.0
 40
1.0
 10
101.0616223847469
 20
173.054240040431
 30
0.0
 10
101.0616223847469
 20
173.0362659426006
 30
0.0
 10
101.0570600071482
 20
173.0165062154884
 30
0.0
 10
101.0439321936657
 20
172.970801349491
 30
0.0
 10
101.0340810534873
 20
172.9438762912303
 30
0.0
 10
101.0340810534883
 20
172.9130804732271
 30
0.0
  0
LINE
  5
207
330
1F
100
AcDbEntity
  8
0
  6
Continuous
 62
     7
370
    25
100
AcDbLine
 10
94.0616221582
 20
174.4841694347
 30
0.0
 11
94.0616221582
 21
173.0542400367
 31
0.0
  0
SPLINE
  5
208
330
1F
100
AcDbEntity
  8
0
  6
Continuous
 62
     7
370
    25
100
AcDbSpline
210
0.0
220
0.0
230
1.0
 70
     8
 71
     3
 72
    10
 73
     6
 74
     0
 42
0.000000001
 43
0.00000001
 40
0.0
 40
0.0
 40
0.0
 40
0.0
 40
0.5
 40
0.5
 40
1.0
 40
1.0
 40
1.0
 40
1.0
 10
94.06162238474688
 20
173.054240040431
 30
0.0
 10
94.06162238474688
 20
173.0362659426006
 30
0.0
 10
94.05706000714822
 20
173.0165062154884
 30
0.0
 10
94.04393219366575
 20
172.970801349491
 30
0.0
 10
94.03408105348733
 20
172.9438762912303
 30
0.0
 10
94.03408105348826
 20
172.9130804732271
 30
0.0
  0
LINE
  5
209
330
1F
100
AcDbEntity
  8
0
  6
Continuous
 62
     7
370
    25
100
AcDbLine
 10
94.0340810871
 20
172.9130804054
 30
0.0
 11
94.0340810871
 21
171.2630804144
 31
0.0
  0
SPLINE
  5
20A
330
1F
100
AcDbEntity
  8
0
  6
Continuous
 62
     7
370
    25
100
AcDbSpline
210
0.0
220
0.0
230
1.0
 70
     8
 71
     3
 72
    10
 73
     6
 74
     0
 42
0.000000001
 43
0.00000001
 40
0.0
 40
0.0
 40
0.0
 40
0.0
 40
0.5
 40
0.5
 40
1.0
 40
1.0
 40
1.0
 40
1.0
 10
101.3923628846009
 20
172.9130804732314
 30
0.0
 10
101.3923628846009
 20
172.9659876368793
 30
0.0
 10
101.3707246381434
 20
173.0177064112882
 30
0.0
 10
101.2972906707083
 20
173.0914401235608
 30
0.0
 10
101.2451034625442
 20
173.1130804732314
 30
0.0
 10
101.193391152764
 20
173.1130804732314
 30
0.0
  0
LINE
  5
20B
330
1F
100
AcDbEntity
  8
0
  6
Continuous
 62
     7
370
    25
100
AcDbLine
 10
101.3923629602
 20
172.9130804054
 30
0.0
 11
101.0340813031
 21
172.9130804054
 31
0.0
  0
LINE
  5
20C
330
1F
100
AcDbEntity
  8
0
  6
Continuous
 62
     7
370
    25
100
AcDbLine
 10
101.0616223743
 20
173.1130805313
 30
0.0
 11
101.1933914801
 21
173.1130805313
 31
0.0
  0
LINE
  5
20D
330
1F
100
AcDbEntity
  8
0
  6
Continuous
 62
     7
370
    25
100
AcDbLine
 10
94.0616221582
 20
173.1130805313
 30
0.0
 11
94.193391264
 21
173.1130805313
 31
0.0
  0
SPLINE
  5
20E
330
1F
100
AcDbEntity
  8
0
  6
Continuous
 62
     7
370
    25
100
AcDbSpline
210
0.0
220
0.0
230
1.0
 70
     8
 71
     3
 72
    10
 73
     6
 74
     0
 42
0.000000001
 43
0.00000001
 40
0.0
 40
0.0
 40
0.0
 40
0.0
 40
0.5
 40
0.5
 40
1.0
 40
1.0
 40
1.0
 40
1.0
 10
94.3923628846009
 20
172.9130804732314
 30
0.0
 10
94.3923628846009
 20
172.9659876368793
 30
0.0
 10
94.37072463814336
 20
173.0177064112882
 30
0.0
 10
94.29729067070828
 20
173.0914401235608
 30
0.0
 10
94.24510346254417
 20
173.1130804732314
 30
0.0
 10
94.19339115276398
 20
173.1130804732314
 30
0.0
  0
LINE
  5
20F
330
1F
100
AcDbEntity
  8
0
  6
Continuous
 62
     7
370
    25
100
AcDbLine
 10
94.3923627442
 20
172.9130804054
 30
0.0
 11
94.0340810871
 21
172.9130804054
 31
0.0
  0
LINE
  5
210
330
1F
100
AcDbEntity
  8
0
  6
Continuous
 62
     7
370
    25
100
AcDbLine
 10
108.0616225904
 20
173.1130805313
 30
0.0
 11
108.1933912305
 21
173.1130805313
 31
0.0
  0
SPLINE
  5
211
330
1F
100
AcDbEntity
  8
0
  6
Continuous
 62
     7
370
    25
100
AcDbSpline
210
0.0
220
0.0
230
1.0
 70
     8
 71
     3
 72
    10
 73
     6
 74
     0
 42
0.000000001
 43
0.00000001
 40
0.0
 40
0.0
 40
0.0
 40
0.0
 40
0.5
 40
0.5
 40
1.0
 40
1.0
 40
1.0
 40
1.0
 10
108.3923628846009
 20
172.9130804732314
 30
0.0
 10
108.3923628846009
 20
172.9659876368793
 30
0.0
 10
108.3707246381434
 20
173.0177064112882
 30
0.0
 10
108.2972906707083
 20
173.0914401235608
 30
0.0
 10
108.2451034625442
 20
173.1130804732314
 30
0.0
 10
108.193391152764
 20
173.1130804732314
 30
0.0
  0
LINE
  5
212
330
1F
100
AcDbEntity
  8
0
  6
Continuous
 62
     7
370
    25
100
AcDbLine
 10
108.3923627106
 20
172.9130804054
 30
0.0
 11
108.0340810535
 21
172.9130804054
 31
0.0
  0
ARC
  5
213
330
1F
100
AcDbEntity
  8
0
  6
Continuous
 62
     7
370
    25
100
AcDbCircle
 10
94.2116223847
 20
172.9130804732
 30
0.0
 40
0.2000000000000171
100
AcDbArc
 50
0.0
 51
90.0
  0
LINE
  5
214
330
1F
100
AcDbEntity
  8
0
  6
Continuous
 62
     7
370
    25
100
AcDbLine
 10
94.193391264
 20
173.1130805313
 30
0.0
 11
94.2116228348
 21
173.1130805313
 31
0.0
  0
ARC
  5
215
330
1F
100
AcDbEntity
  8
0
  6
Continuous
 62
     7
370
    25
100
AcDbCircle
 10
101.2116223847
 20
172.9130804732
 30
0.0
 40
0.2000000000000171
100
AcDbArc
 50
0.0
 51
90.0
  0
LINE
  5
216
330
1F
100
AcDbEntity
  8
0
  6
Continuous
 62
     7
370
    25
100
AcDbLine
 10
101.1933914801
 20
173.1130805313
 30
0.0
 11
101.2116221195
 21
173.1130805313
 31
0.0
  0
ARC
  5
217
330
1F
100
AcDbEntity
  8
0
  6
Continuous
 62
     7
370
    25
100
AcDbCircle
 10
108.2116223847
 20
172.9130804732
 30
0.0
 40
0.2000000000000171
100
AcDbArc
 50
0.0
 51
90.0
  0
LINE
  5
218
330
1F
100
AcDbEntity
  8
0
  6
Continuous
 62
     7
370
    25
100
AcDbLine
 10
108.1933912305
 20
173.1130805313
 30
0.0
 11
108.2116223356
 21
173.1130805313
 31
0.0
  0
LINE
  5
219
330
1F
100
AcDbEntity
  8
0
  6
Continuous
 62
     7
370
    25
100
AcDbLine
 10
97.4122655993
 20
173.9630804844
 30
0.0
 11
97.4122655993
 21
171.5630803704
 31
0.0
  0
LINE
  5
21A
330
1F
100
AcDbEntity
  8
0
  6
Continuous
 62
     7
370
    25
100
AcDbLine
 10
97.4122655993
 20
173.9630804844
 30
0.0
 11
97.9616229838
 21
173.9630804844
 31
0.0
  0
LINE
  5
21B
330
1F
100
AcDbEntity
  8
0
  6
Continuous
 62
     7
370
    25
100
AcDbLine
 10
97.4122655993
 20
171.5630803704
 30
0.0
 11
97.9616229838
 21
171.5630803704
 31
0.0
  0
LINE
  5
21C
330
1F
100
AcDbEntity
  8
0
  6
Continuous
 62
     7
370
    25
100
AcDbLine
 10
104.4122658154
 20
173.9630804844
 30
0.0
 11
104.4122658154
 21
171.5630803704
 31
0.0
  0
LINE
  5
21D
330
1F
100
AcDbEntity
  8
0
  6
Continuous
 62
     7
370
    25
100
AcDbLine
 10
104.4122658154
 20
173.9630804844
 30
0.0
 11
104.9616222685
 21
173.9630804844
 31
0.0
  0
LINE
  5
21E
330
1F
100
AcDbEntity
  8
0
  6
Continuous
 62
     7
370
    25
100
AcDbLine
 10
104.4122658154
 20
171.5630803704
 30
0.0
 11
104.9616222685
 21
171.5630803704
 31
0.0
  0
LINE
  5
21F
330
1F
100
AcDbEntity
  8
0
  6
Continuous
 62
     7
370
    25
100
AcDbLine
 10
111.4122662643
 20
173.9630804844
 30
0.0
 11
111.4122662643
 21
171.5630803704
 31
0.0
  0
LINE
  5
220
330
1F
100
AcDbEntity
  8
0
  6
Continuous
 62
     7
370
    25
100
AcDbLine
 10
111.4122662643
 20
171.5630803704
 30
0.0
 11
111.9616224846
 21
171.5630803704
 31
0.0
  0
LINE
  5
221
330
1F
100
AcDbEntity
  8
0
  6
Continuous
 62
     7
370
    25
100
AcDbLine
 10
111.4122662643
 20
173.9630804844
 30
0.0
 11
111.9616224846
 21
173.9630804844
 31
0.0
  0
LINE
  5
222
330
1F
100
AcDbEntity
  8
0
  6
Continuous
 62
     7
370
    25
100
AcDbLine
 10
111.9616224846
 20
171.0630805213
 30
0.0
 11
111.9616224846
 21
169.7130804863
 31
0.0
  0
LINE
  5
223
330
1F
100
AcDbEntity
  8
0
  6
Continuous
 62
     7
370
    25
100
AcDbLine
 10
111.9616224846
 20
171.0630805213
 30
0.0
 11
112.8616223527
 21
171.0630805213
 31
0.0
  0
LINE
  5
224
330
1F
100
AcDbEntity
  8
0
  6
Continuous
 62
     7
370
    25
100
AcDbLine
 10
111.9616224846
 20
174.4630805664
 30
0.0
 11
111.9616224846
 21
175.8130806014
 31
0.0
  0
LINE
  5
225
330
1F
100
AcDbEntity
  8
0
  6
Continuous
 62
     7
370
    25
100
AcDbLine
 10
112.8616223527
 20
174.4630805664
 30
0.0
 11
111.9616224846
 21
174.4630805664
 31
0.0
  0
LINE
  5
226
330
1F
100
AcDbEntity
  8
0
  6
Continuous
 62
     7
370
    25
100
AcDbLine
 10
104.9616222685
 20
174.4630805664
 30
0.0
 11
104.9616222685
 21
175.8130806014
 31
0.0
  0
LINE
  5
227
330
1F
100
AcDbEntity
  8
0
  6
Continuous
 62
     7
370
    25
100
AcDbLine
 10
105.8616226023
 20
174.4630805664
 30
0.0
 11
104.9616222685
 21
174.4630805664
 31
0.0
  0
LINE
  5
228
330
1F
100
AcDbEntity
  8
0
  6
Continuous
 62
     7
370
    25
100
AcDbLine
 10
97.9616229838
 20
171.0630805213
 30
0.0
 11
97.9616229838
 21
169.7130804863
 31
0.0
  0
LINE
  5
229
330
1F
100
AcDbEntity
  8
0
  6
Continuous
 62
     7
370
    25
100
AcDbLine
 10
97.9616229838
 20
171.0630805213
 30
0.0
 11
98.8616214549
 21
171.0630805213
 31
0.0
  0
LINE
  5
22A
330
1F
100
AcDbEntity
  8
0
  6
Continuous
 62
     7
370
    25
100
AcDbLine
 10
104.9616222685
 20
171.0630805213
 30
0.0
 11
104.9616222685
 21
169.7130804863
 31
0.0
  0
LINE
  5
22B
330
1F
100
AcDbEntity
  8
0
  6
Continuous
 62
     7
370
    25
100
AcDbLine
 10
104.9616222685
 20
171.0630805213
 30
0.0
 11
105.8616226023
 21
171.0630805213
 31
0.0
  0
LINE
  5
22C
330
1F
100
AcDbEntity
  8
0
  6
Continuous
 62
     7
370
    25
100
AcDbLine
 10
97.9616229838
 20
174.4630805664
 30
0.0
 11
97.9616229838
 21
175.8130806014
 31
0.0
  0
LINE
  5
22D
330
1F
100
AcDbEntity
  8
0
  6
Continuous
 62
     7
370
    25
100
AcDbLine
 10
98.8616214549
 20
174.4630805664
 30
0.0
 11
97.9616229838
 21
174.4630805664
 31
0.0
  0
LINE
  5
22E
330
1F
100
AcDbEntity
  8
0
  6
Continuous
 62
     7
370
    25
100
AcDbLine
 10
97.2616223102
 20
171.5630803704
 30
0.0
 11
97.2616223102
 21
173.9630804844
 31
0.0
  0
LINE
  5
22F
330
1F
100
AcDbEntity
  8
0
  6
Continuous
 62
     7
370
    25
100
AcDbLine
 10
97.2616223102
 20
173.9630804844
 30
0.0
 11
97.4122655993
 21
173.9630804844
 31
0.0
  0
LINE
  5
230
330
1F
100
AcDbEntity
  8
0
  6
Continuous
 62
     7
370
    25
100
AcDbLine
 10
97.4122655993
 20
171.5630803704
 30
0.0
 11
97.2616223102
 21
171.5630803704
 31
0.0
  0
LINE
  5
231
330
1F
100
AcDbEntity
  8
0
  6
Continuous
 62
     7
370
    25
100
AcDbLine
 10
104.2616225263
 20
171.5630803704
 30
0.0
 11
104.2616225263
 21
173.9630804844
 31
0.0
  0
LINE
  5
232
330
1F
100
AcDbEntity
  8
0
  6
Continuous
 62
     7
370
    25
100
AcDbLine
 10
104.2616225263
 20
173.9630804844
 30
0.0
 11
104.4122658154
 21
173.9630804844
 31
0.0
  0
LINE
  5
233
330
1F
100
AcDbEntity
  8
0
  6
Continuous
 62
     7
370
    25
100
AcDbLine
 10
104.4122658154
 20
171.5630803704
 30
0.0
 11
104.2616225263
 21
171.5630803704
 31
0.0
  0
LINE
  5
234
330
1F
100
AcDbEntity
  8
0
  6
Continuous
 62
     7
370
    25
100
AcDbLine
 10
111.2616222767
 20
171.5630803704
 30
0.0
 11
111.2616222767
 21
173.9630804844
 31
0.0
  0
LINE
  5
235
330
1F
100
AcDbEntity
  8
0
  6
Continuous
 62
     7
370
    25
100
AcDbLine
 10
111.4122662643
 20
171.5630803704
 30
0.0
 11
111.2616222767
 21
171.5630803704
 31
0.0
  0
LINE
  5
236
330
1F
100
AcDbEntity
  8
0
  6
Continuous
 62
     7
370
    25
100
AcDbLine
 10
111.2616222767
 20
173.9630804844
 30
0.0
 11
111.4122662643
 21
173.9630804844
 31
0.0
  0
LINE
  5
237
330
1F
100
AcDbEntity
  8
0
  6
Continuous
 62
     7
370
    25
100
AcDbLine
 10
104.9616222685
 20
171.5130804554
 30
0.0
 11
105.8616226023
 21
171.5130804554
 31
0.0
  0
LINE
  5
238
330
1F
100
AcDbEntity
  8
0
  6
Continuous
 62
     7
370
    25
100
AcDbLine
 10
104.9616222685
 20
171.5130804554
 30
0.0
 11
104.9616222685
 21
171.0630805213
 31
0.0
  0
LINE
  5
239
330
1F
100
AcDbEntity
  8
0
  6
Continuous
 62
     7
370
    25
100
AcDbLine
 10
111.9616224846
 20
171.5130804554
 30
0.0
 11
112.8616223527
 21
171.5130804554
 31
0.0
  0
LINE
  5
23A
330
1F
100
AcDbEntity
  8
0
  6
Continuous
 62
     7
370
    25
100
AcDbLine
 10
111.9616224846
 20
171.5130804554
 30
0.0
 11
111.9616224846
 21
171.0630805213
 31
0.0
  0
LINE
  5
23B
330
1F
100
AcDbEntity
  8
0
  6
Continuous
 62
     7
370
    25
100
AcDbLine
 10
105.8616226023
 20
174.0130803995
 30
0.0
 11
104.9616222685
 21
174.0130803995
 31
0.0
  0
LINE
  5
23C
330
1F
100
AcDbEntity
  8
0
  6
Continuous
 62
     7
370
    25
100
AcDbLine
 10
104.9616222685
 20
174.0130803995
 30
0.0
 11
104.9616222685
 21
174.4630805664
 31
0.0
  0
LINE
  5
23D
330
1F
100
AcDbEntity
  8
0
  6
Continuous
 62
     7
370
    25
100
AcDbLine
 10
112.8616223527
 20
174.0130803995
 30
0.0
 11
111.9616224846
 21
174.0130803995
 31
0.0
  0
LINE
  5
23E
330
1F
100
AcDbEntity
  8
0
  6
Continuous
 62
     7
370
    25
100
AcDbLine
 10
111.9616224846
 20
174.0130803995
 30
0.0
 11
111.9616224846
 21
174.4630805664
 31
0.0
  0
LINE
  5
23F
330
1F
100
AcDbEntity
  8
0
  6
Continuous
 62
     7
370
    25
100
AcDbLine
 10
97.9616229838
 20
171.5130804554
 30
0.0
 11
98.8616214549
 21
171.5130804554
 31
0.0
  0
LINE
  5
240
330
1F
100
AcDbEntity
  8
0
  6
Continuous
 62
     7
370
    25
100
AcDbLine
 10
97.9616229838
 20
171.5130804554
 30
0.0
 11
97.9616229838
 21
171.0630805213
 31
0.0
  0
LINE
  5
241
330
1F
100
AcDbEntity
  8
0
  6
Continuous
 62
     7
370
    25
100
AcDbLine
 10
98.8616214549
 20
174.0130803995
 30
0.0
 11
97.9616229838
 21
174.0130803995
 31
0.0
  0
LINE
  5
242
330
1F
100
AcDbEntity
  8
0
  6
Continuous
 62
     7
370
    25
100
AcDbLine
 10
97.9616229838
 20
174.0130803995
 30
0.0
 11
97.9616229838
 21
174.4630805664
 31
0.0
  0
LINE
  5
243
330
1F
100
AcDbEntity
  8
0
  6
Continuous
 62
     7
370
    25
100
AcDbLine
 10
96.2616221463
 20
175.4630802646
 30
0.0
 11
96.2616221463
 21
174.0130803995
 31
0.0
  0
LINE
  5
244
330
1F
100
AcDbEntity
  8
0
  6
Continuous
 62
     7
370
    25
100
AcDbLine
 10
95.0616223222
 20
175.4630802646
 30
0.0
 11
96.2616221463
 21
175.4630802646
 31
0.0
  0
LINE
  5
245
330
1F
100
AcDbEntity
  8
0
  6
Continuous
 62
     7
370
    25
100
AcDbLine
 10
95.0616223222
 20
170.0630804738
 30
0.0
 11
95.0616223222
 21
175.4630802646
 31
0.0
  0
LINE
  5
246
330
1F
100
AcDbEntity
  8
0
  6
Continuous
 62
     7
370
    25
100
AcDbLine
 10
96.2616221463
 20
170.0630804738
 30
0.0
 11
95.0616223222
 21
170.0630804738
 31
0.0
  0
LINE
  5
247
330
1F
100
AcDbEntity
  8
0
  6
Continuous
 62
     7
370
    25
100
AcDbLine
 10
96.2616221463
 20
171.5130804554
 30
0.0
 11
96.2616221463
 21
170.0630804738
 31
0.0
  0
LINE
  5
248
330
1F
100
AcDbEntity
  8
0
  6
Continuous
 62
     7
370
    25
100
AcDbLine
 10
96.2616221463
 20
174.0130803995
 30
0.0
 11
97.9616229838
 21
174.0130803995
 31
0.0
  0
LINE
  5
249
330
1F
100
AcDbEntity
  8
0
  6
Continuous
 62
     7
370
    25
100
AcDbLine
 10
97.9616229838
 20
171.5130804554
 30
0.0
 11
96.2616221463
 21
171.5130804554
 31
0.0
  0
LINE
  5
24A
330
1F
100
AcDbEntity
  8
0
  6
Continuous
 62
     7
370
    25
100
AcDbLine
 10
109.0616222886
 20
170.0630804738
 30
0.0
 11
109.0616222886
 21
175.4630802646
 31
0.0
  0
LINE
  5
24B
330
1F
100
AcDbEntity
  8
0
  6
Continuous
 62
     7
370
    25
100
AcDbLine
 10
110.2616225785
 20
170.0630804738
 30
0.0
 11
109.0616222886
 21
170.0630804738
 31
0.0
  0
LINE
  5
24C
330
1F
100
AcDbEntity
  8
0
  6
Continuous
 62
     7
370
    25
100
AcDbLine
 10
110.2616225785
 20
171.5130804554
 30
0.0
 11
110.2616225785
 21
170.0630804738
 31
0.0
  0
LINE
  5
24D
330
1F
100
AcDbEntity
  8
0
  6
Continuous
 62
     7
370
    25
100
AcDbLine
 10
109.0616222886
 20
175.4630802646
 30
0.0
 11
110.2616225785
 21
175.4630802646
 31
0.0
  0
LINE
  5
24E
330
1F
100
AcDbEntity
  8
0
  6
Continuous
 62
     7
370
    25
100
AcDbLine
 10
110.2616225785
 20
175.4630802646
 30
0.0
 11
110.2616225785
 21
174.0130803995
 31
0.0
  0
LINE
  5
24F
330
1F
100
AcDbEntity
  8
0
  6
Continuous
 62
     7
370
    25
100
AcDbLine
 10
111.9616224846
 20
171.5130804554
 30
0.0
 11
110.2616225785
 21
171.5130804554
 31
0.0
  0
LINE
  5
250
330
1F
100
AcDbEntity
  8
0
  6
Continuous
 62
     7
370
    25
100
AcDbLine
 10
110.2616225785
 20
174.0130803995
 30
0.0
 11
111.9616224846
 21
174.0130803995
 31
0.0
  0
LINE
  5
251
330
1F
100
AcDbEntity
  8
0
  6
Continuous
 62
     7
370
    25
100
AcDbLine
 10
102.0616225382
 20
175.4630802646
 30
0.0
 11
103.2616223624
 21
175.4630802646
 31
0.0
  0
LINE
  5
252
330
1F
100
AcDbEntity
  8
0
  6
Continuous
 62
     7
370
    25
100
AcDbLine
 10
102.0616225382
 20
170.0630804738
 30
0.0
 11
102.0616225382
 21
175.4630802646
 31
0.0
  0
LINE
  5
253
330
1F
100
AcDbEntity
  8
0
  6
Continuous
 62
     7
370
    25
100
AcDbLine
 10
103.2616223624
 20
175.4630802646
 30
0.0
 11
103.2616223624
 21
174.0130803995
 31
0.0
  0
LINE
  5
254
330
1F
100
AcDbEntity
  8
0
  6
Continuous
 62
     7
370
    25
100
AcDbLine
 10
103.2616223624
 20
171.5130804554
 30
0.0
 11
103.2616223624
 21
170.0630804738
 31
0.0
  0
LINE
  5
255
330
1F
100
AcDbEntity
  8
0
  6
Continuous
 62
     7
370
    25
100
AcDbLine
 10
103.2616223624
 20
170.0630804738
 30
0.0
 11
102.0616225382
 21
170.0630804738
 31
0.0
  0
LINE
  5
256
330
1F
100
AcDbEntity
  8
0
  6
Continuous
 62
     7
370
    25
100
AcDbLine
 10
103.2616223624
 20
174.0130803995
 30
0.0
 11
104.9616222685
 21
174.0130803995
 31
0.0
  0
LINE
  5
257
330
1F
100
AcDbEntity
  8
0
  6
Continuous
 62
     7
370
    25
100
AcDbLine
 10
104.9616222685
 20
171.5130804554
 30
0.0
 11
103.2616223624
 21
171.5130804554
 31
0.0
  0
DIMENSION
  5
258
330
1F
100
AcDbEntity
  8
FORMAT
100
AcDbDimension
280
     0
  2
_D
 10
114.7616223847
 20
153.7998172512
 30
0.0
 11
104.5520591107
 21
153.7998172512
 31
0.0
 70
   160
  1
<>
 71
     2
 42
-1.0
 73
     0
 74
     0
 75
     0
  3
SLDDIMSTYLE0
100
AcDbAlignedDimension
 13
92.1616223847
 23
168.8130804732
 33
0.0
 14
114.7616223847
 24
168.8130804732
 34
0.0
100
AcDbRotatedDimension
  0
LINE
  5
26A
330
1F
100
AcDbEntity
  8
0
  6
Continuous
 62
     7
370
    25
100
AcDbLine
 10
213.0122787454
 20
171.0630805213
 30
0.0
 11
213.0122787454
 21
167.6130804447
 31
0.0
  0
LWPOLYLINE
  5
26B
330
1F
100
AcDbEntity
  8
0
  6
Continuous
 62
     7
370
    25
100
AcDbPolyline
 90
       10
 70
   128
 43
0.0
 10
211.8122789212
 20
168.5130804875
 10
212.0206567593
 20
168.3567971089
 10
212.2227034666
 20
168.205262344
 10
212.4122797646
 20
168.0630804661
 10
212.5836244919
 20
167.9345716296
 10
212.7315315553
 20
167.8236404881
 10
212.8515101173
 20
167.7336576143
 10
212.9399093934
 20
167.6673571095
 10
212.9940490373
 20
167.6267534825
 10
213.0122787454
 20
167.6130804447
  0
LINE
  5
26C
330
1F
100
AcDbEntity
  8
0
  6
Continuous
 62
     7
370
    25
100
AcDbLine
 10
211.8122789212
 20
168.5130804875
 30
0.0
 11
211.8122789212
 21
175.8130806014
 31
0.0
  0
SPLINE
  5
26D
330
1F
100
AcDbEntity
  8
0
  6
Continuous
 62
     7
370
    25
100
AcDbSpline
210
0.0
220
0.0
230
1.0
 70
     8
 71
     3
 72
    16
 73
    12
 74
     0
 42
0.000000001
 43
0.00000001
 40
0.0
 40
0.0
 40
0.0
 40
0.0
 40
0.1249999999999999
 40
0.1249999999999999
 40
0.2499999999999999
 40
0.2499999999999999
 40
0.4999999999999999
 40
0.4999999999999999
 40
0.7499999999999999
 40
0.7499999999999999
 40
1.0
 40
1.0
 40
1.0
 40
1.0
 10
213.0122788645843
 20
176.8713809976572
 30
0.0
 10
213.0122788645843
 20
176.8543047442863
 30
0.0
 10
213.0022038046476
 20
176.8322765435933
 30
0.0
 10
212.9642710817444
 20
176.7782589817953
 30
0.0
 10
212.9360281889308
 20
176.7459937326859
 30
0.0
 10
212.8305526582758
 20
176.6384090505881
 30
0.0
 10
212.7312263998454
 20
176.5506150907561
 30
0.0
 10
212.5037831944188
 20
176.3597306730684
 30
0.0
 10
212.3729000298364
 20
176.2543634371662
 30
0.0
 10
212.1009490318678
 20
176.0387392145124
 30
0.0
 10
211.9550535208828
 20
175.9246926357513
 30
0.0
 10
211.8122788645843
 20
175.8130804732314
 30
0.0
  0
LINE
  5
26E
330
1F
100
AcDbEntity
  8
0
  6
Continuous
 62
     7
370
    25
100
AcDbLine
 10
213.0122787454
 20
176.8713806271
 30
0.0
 11
213.0122787454
 21
174.4630805664
 31
0.0
  0
LINE
  5
26F
330
1F
100
AcDbEntity
  8
0
  6
Continuous
 62
     7
370
    25
100
AcDbLine
 10
213.0122787454
 20
174.4630805664
 30
0.0
 11
212.9868163862
 21
174.4630805664
 31
0.0
  0
LINE
  5
270
330
1F
100
AcDbEntity
  8
0
  6
Continuous
 62
     7
370
    25
100
AcDbLine
 10
212.9868163862
 20
174.4630805664
 30
0.0
 11
212.9868163862
 21
171.0630805213
 31
0.0
  0
LINE
  5
271
330
1F
100
AcDbEntity
  8
0
  6
Continuous
 62
     7
370
    25
100
AcDbLine
 10
212.9868163862
 20
171.0630805213
 30
0.0
 11
213.0122787454
 21
171.0630805213
 31
0.0
  0
ARC
  5
272
330
1F
100
AcDbEntity
  8
0
  6
Continuous
 62
     7
370
    25
100
AcDbCircle
 10
212.7122788646
 20
167.6130804732
 30
0.0
 40
0.3000000000000114
100
AcDbArc
 50
270.0
 51
0.0
  0
LWPOLYLINE
  5
273
330
1F
100
AcDbEntity
  8
0
  6
Continuous
 62
     7
370
    25
100
AcDbPolyline
 90
       10
 70
   128
 43
0.0
 10
211.8122789212
 20
168.5130804875
 10
211.9685622998
 20
168.3047026566
 10
212.1200977959
 20
168.1026562986
 10
212.2622790881
 20
167.913080459
 10
212.3907885649
 20
167.7417353534
 10
212.5017183967
 20
167.5938271549
 10
212.5917009213
 20
167.4738499899
 10
212.6580017753
 20
167.3854493168
 10
212.698605577
 20
167.3313111863
 10
212.712279255
 20
167.3130804887
  0
ARC
  5
274
330
1F
100
AcDbEntity
  8
0
  6
Continuous
 62
     7
370
    25
100
AcDbCircle
 10
212.619715431
 20
176.8636489906
 30
0.0
 40
0.3926394453312704
100
AcDbArc
 50
1.128309404
 51
91.0851615727
  0
SPLINE
  5
275
330
1F
100
AcDbEntity
  8
0
  6
Continuous
 62
     7
370
    25
100
AcDbSpline
210
0.0
220
0.0
230
1.0
 70
     8
 71
     3
 72
    14
 73
    10
 74
     0
 42
0.000000001
 43
0.00000001
 40
0.0
 40
0.0
 40
0.0
 40
0.0
 40
0.25
 40
0.25
 40
0.5
 40
0.5
 40
0.75
 40
0.75
 40
1.0
 40
1.0
 40
1.0
 40
1.0
 10
212.6122788645843
 20
177.2562175519939
 30
0.0
 10
212.6122788645843
 20
177.2073442543319
 30
0.0
 10
212.5824768025904
 20
177.1281120159481
 30
0.0
 10
212.4855200451475
 20
176.9279184817786
 30
0.0
 10
212.4184227289497
 20
176.8073314829218
 30
0.0
 10
212.2663082271065
 20
176.5469136313068
 30
0.0
 10
212.1798043045467
 20
176.4046641782406
 30
0.0
 10
212.0012022780143
 20
176.1151619354214
 30
0.0
 10
211.9060952423268
 20
175.9630935007836
 30
0.0
 10
211.8122788645843
 20
175.8130804732314
 30
0.0
  0
LINE
  5
276
330
1F
100
AcDbEntity
  8
0
  6
Continuous
 62
     7
370
    25
100
AcDbLine
 10
194.6122788027
 20
168.5130804875
 30
0.0
 11
211.8122789212
 21
168.5130804875
 31
0.0
  0
LINE
  5
277
330
1F
100
AcDbEntity
  8
0
  6
Continuous
 62
     7
370
    25
100
AcDbLine
 10
212.712279255
 20
167.3130804887
 30
0.0
 11
195.8122790926
 21
167.3130804887
 31
0.0
  0
LWPOLYLINE
  5
278
330
1F
100
AcDbEntity
  8
0
  6
Continuous
 62
     7
370
    25
100
AcDbPolyline
 90
       11
 70
   128
 43
0.0
 10
195.8122790926
 20
167.3130804887
 10
195.7975050569
 20
167.3278544661
 10
195.7535466314
 20
167.3718126588
 10
195.6814864785
 20
167.4438726371
 10
195.5830992334
 20
167.5422600568
 10
195.4608068005
 20
167.6645523151
 10
195.3176210769
 20
167.8077381842
 10
195.1570675843
 20
167.9682918806
 10
194.9830993213
 20
168.142260078
 10
194.800000139
 20
168.3253591148
 10
194.6122788027
 20
168.5130804875
  0
LINE
  5
279
330
1F
100
AcDbEntity
  8
0
  6
Continuous
 62
     7
370
    25
100
AcDbLine
 10
211.8122789212
 20
175.8130806014
 30
0.0
 11
194.6672654845
 21
175.8130806014
 31
0.0
  0
LWPOLYLINE
  5
27A
330
1F
100
AcDbEntity
  8
0
  6
Continuous
 62
     7
370
    25
100
AcDbPolyline
 90
       11
 70
   128
 43
0.0
 10
195.0122790546
 20
177.3130808473
 10
195.0080312923
 20
177.2946127206
 10
194.9953927793
 20
177.23966562
 10
194.9746745773
 20
177.1495899632
 10
194.9463870511
 20
177.0266060233
 10
194.9112268299
 20
176.8737405985
 10
194.8700591125
 20
176.6947580948
 10
194.8238981091
 20
176.4940664619
 10
194.7738804989
 20
176.276606366
 10
194.7212372575
 20
176.0477319807
 10
194.6672654845
 20
175.8130806014
  0
LINE
  5
27B
330
1F
100
AcDbEntity
  8
0
  6
Continuous
 62
     7
370
    25
100
AcDbLine
 10
195.0122790546
 20
177.3130808473
 30
0.0
 11
212.6122794249
 21
177.3130808473
 31
0.0
  0
LINE
  5
27C
330
1F
100
AcDbEntity
  8
0
  6
Continuous
 62
     7
370
    25
100
AcDbLine
 10
212.6122794249
 20
177.2562180161
 30
0.0
 11
212.6122794249
 21
177.3130808473
 31
0.0
  0
LINE
  5
27D
330
1F
100
AcDbEntity
  8
0
  6
Continuous
 62
     7
370
    25
100
AcDbLine
 10
194.6672654845
 20
175.8130806014
 30
0.0
 11
191.1672653765
 21
177.5130805075
 31
0.0
  0
LINE
  5
27E
330
1F
100
AcDbEntity
  8
0
  6
Continuous
 62
     7
370
    25
100
AcDbLine
 10
194.6122788027
 20
164.6130805351
 30
0.0
 11
194.6122788027
 21
168.5130804875
 31
0.0
  0
LINE
  5
27F
330
1F
100
AcDbEntity
  8
0
  6
Continuous
 62
     7
370
    25
100
AcDbLine
 10
194.1792373214
 20
164.6130805351
 30
0.0
 11
194.6122788027
 21
164.6130805351
 31
0.0
  0
LINE
  5
280
330
1F
100
AcDbEntity
  8
0
  6
Continuous
 62
     7
370
    25
100
AcDbLine
 10
181.9856890612
 20
168.8130805017
 30
0.0
 11
194.1792373214
 21
164.6130805351
 31
0.0
  0
LINE
  5
281
330
1F
100
AcDbEntity
  8
0
  6
Continuous
 62
     7
370
    25
100
AcDbLine
 10
166.3122779824
 20
168.8130805017
 30
0.0
 11
181.9856890612
 21
168.8130805017
 31
0.0
  0
LINE
  5
282
330
1F
100
AcDbEntity
  8
0
  6
Continuous
 62
     7
370
    25
100
AcDbLine
 10
166.3122779824
 20
177.5130805075
 30
0.0
 11
166.3122779824
 21
168.8130805017
 31
0.0
  0
LINE
  5
283
330
1F
100
AcDbEntity
  8
0
  6
Continuous
 62
     7
370
    25
100
AcDbLine
 10
191.1672653765
 20
177.5130805075
 30
0.0
 11
166.3122779824
 21
177.5130805075
 31
0.0
  0
LINE
  5
284
330
1F
100
AcDbEntity
  8
0
  6
Continuous
 62
     7
370
    25
100
AcDbLine
 10
194.6122788027
 20
164.6130805351
 30
0.0
 11
195.8122790926
 21
164.6130805351
 31
0.0
  0
ARC
  5
285
330
1F
100
AcDbEntity
  8
0
  6
Continuous
 62
     7
370
    25
100
AcDbCircle
 10
195.4122788646
 20
164.6130804732
 30
0.0
 40
0.4000000000000057
100
AcDbArc
 50
270.0
 51
0.0
  0
LINE
  5
286
330
1F
100
AcDbEntity
  8
0
  6
Continuous
 62
     7
370
    25
100
AcDbLine
 10
195.4122788407
 20
164.2130802832
 30
0.0
 11
194.6122788027
 21
164.2130802832
 31
0.0
  0
LINE
  5
287
330
1F
100
AcDbEntity
  8
0
  6
Continuous
 62
     7
370
    25
100
AcDbLine
 10
194.6122788027
 20
164.6130805351
 30
0.0
 11
194.6122788027
 21
164.2130802832
 31
0.0
  0
LINE
  5
288
330
1F
100
AcDbEntity
  8
0
  6
Continuous
 62
     7
370
    25
100
AcDbLine
 10
195.8122790926
 20
167.3130804887
 30
0.0
 11
195.8122790926
 21
164.6130805351
 31
0.0
  0
LINE
  5
289
330
1F
100
AcDbEntity
  8
0
  6
Continuous
 62
     7
370
    25
100
AcDbLine
 10
191.5122788883
 20
179.0130807534
 30
0.0
 11
195.0122790546
 21
177.3130808473
 31
0.0
  0
LWPOLYLINE
  5
28A
330
1F
100
AcDbEntity
  8
0
  6
Continuous
 62
     7
370
    25
100
AcDbPolyline
 90
       11
 70
   128
 43
0.0
 10
191.5122788883
 20
179.0130807534
 10
191.5080311843
 20
178.9946126267
 10
191.4953927004
 20
178.9396655261
 10
191.4746746439
 20
178.8495898694
 10
191.4463871468
 20
178.7266059294
 10
191.411226751
 20
178.5737405047
 10
191.3700592082
 20
178.394758001
 10
191.3238982339
 20
178.194066368
 10
191.2738803909
 20
177.9766062721
 10
191.2212373678
 20
177.7477318868
 10
191.1672653765
 20
177.5130805075
  0
LINE
  5
28B
330
1F
100
AcDbEntity
  8
0
  6
Continuous
 62
     7
370
    25
100
AcDbLine
 10
194.6122788027
 20
164.2130802832
 30
0.0
 11
194.1122789536
 21
164.2130802832
 31
0.0
  0
LWPOLYLINE
  5
28C
330
1F
100
AcDbEntity
  8
0
  6
Continuous
 62
     7
370
    25
100
AcDbPolyline
 90
        9
 70
   128
 43
0.0
 10
194.1792373214
 20
164.6130805351
 10
194.1661743582
 20
164.5350443181
 10
194.1536133778
 20
164.4600071926
 10
194.142037271
 20
164.3908523004
 10
194.1318905116
 20
164.3302378692
 10
194.1235633236
 20
164.2804926708
 10
194.1173758492
 20
164.2435284778
 10
194.1135653429
 20
164.2207664884
 10
194.1122789536
 20
164.2130802832
  0
LINE
  5
28D
330
1F
100
AcDbEntity
  8
0
  6
Continuous
 62
     7
370
    25
100
AcDbLine
 10
194.1122789536
 20
164.2130802832
 30
0.0
 11
183.7181613915
 21
167.7932765782
 31
0.0
  0
SPLINE
  5
28E
330
1F
100
AcDbEntity
  8
0
  6
Continuous
 62
     7
370
    25
100
AcDbSpline
210
0.0
220
0.0
230
1.0
 70
     8
 71
     3
 72
    10
 73
     6
 74
     0
 42
0.000000001
 43
0.00000001
 40
0.0
 40
0.0
 40
0.0
 40
0.0
 40
0.5
 40
0.5
 40
1.0
 40
1.0
 40
1.0
 40
1.0
 10
183.7181611627995
 20
167.7932765705129
 30
0.0
 10
183.4046778584829
 20
167.9012541531108
 30
0.0
 10
183.1057183595763
 20
168.0464058852072
 30
0.0
 10
182.5335197042312
 20
168.3986584498792
 30
0.0
 10
182.2605490670933
 20
168.6044741138749
 30
0.0
 10
181.9856889950528
 20
168.8130804732313
 30
0.0
  0
LINE
  5
28F
330
1F
100
AcDbEntity
  8
0
  6
Continuous
 62
     7
370
    25
100
AcDbLine
 10
166.3122779824
 20
179.0130807534
 30
0.0
 11
166.3122779824
 21
177.5130805075
 31
0.0
  0
LINE
  5
290
330
1F
100
AcDbEntity
  8
0
  6
Continuous
 62
     7
370
    25
100
AcDbLine
 10
166.3122779824
 20
179.0130807534
 30
0.0
 11
191.5122788883
 21
179.0130807534
 31
0.0
  0
LINE
  5
291
330
1F
100
AcDbEntity
  8
0
  6
Continuous
 62
     7
370
    25
100
AcDbLine
 10
185.1122786426
 20
167.3130804887
 30
0.0
 11
166.3122779824
 21
167.3130804887
 31
0.0
  0
LINE
  5
292
330
1F
100
AcDbEntity
  8
0
  6
Continuous
 62
     7
370
    25
100
AcDbLine
 10
166.3122779824
 20
168.8130805017
 30
0.0
 11
166.3122779824
 21
167.3130804887
 31
0.0
  0
ARC
  5
293
330
1F
100
AcDbEntity
  8
0
  6
Continuous
 62
     7
370
    25
100
AcDbCircle
 10
166.3122788646
 20
167.6130804732
 30
0.0
 40
0.3000000000000114
100
AcDbArc
 50
180.0
 51
270.0
  0
LINE
  5
294
330
1F
100
AcDbEntity
  8
0
  6
Continuous
 62
     7
370
    25
100
AcDbLine
 10
166.0122784921
 20
167.6130804447
 30
0.0
 11
166.0122784921
 21
168.8130805017
 31
0.0
  0
LINE
  5
295
330
1F
100
AcDbEntity
  8
0
  6
Continuous
 62
     7
370
    25
100
AcDbLine
 10
166.3122779824
 20
168.8130805017
 30
0.0
 11
166.0122784921
 21
168.8130805017
 31
0.0
  0
LINE
  5
296
330
1F
100
AcDbEntity
  8
0
  6
Continuous
 62
     7
370
    25
100
AcDbLine
 10
166.0122784921
 20
168.8130805017
 30
0.0
 11
166.0122784921
 21
177.5130805075
 31
0.0
  0
LINE
  5
297
330
1F
100
AcDbEntity
  8
0
  6
Continuous
 62
     7
370
    25
100
AcDbLine
 10
166.3122779824
 20
177.5130805075
 30
0.0
 11
166.0122784921
 21
177.5130805075
 31
0.0
  0
LINE
  5
298
330
1F
100
AcDbEntity
  8
0
  6
Continuous
 62
     7
370
    25
100
AcDbLine
 10
166.0122784921
 20
177.5130805075
 30
0.0
 11
166.0122784921
 21
178.7130803317
 31
0.0
  0
ARC
  5
299
330
1F
100
AcDbEntity
  8
0
  6
Continuous
 62
     7
370
    25
100
AcDbCircle
 10
166.3122788646
 20
178.7130804732
 30
0.0
 40
0.3000000000000114
100
AcDbArc
 50
90.0
 51
180.0
  0
LINE
  5
29A
330
1F
100
AcDbEntity
  8
0
  6
Continuous
 62
     7
370
    25
100
AcDbLine
 10
213.0122787454
 20
176.9130805954
 30
0.0
 11
213.0122787454
 21
176.8713806271
 31
0.0
  0
ARC
  5
29B
330
1F
100
AcDbEntity
  8
0
  6
Continuous
 62
     7
370
    25
100
AcDbCircle
 10
212.6122788646
 20
176.9130804732
 30
0.0
 40
0.4000000000000341
100
AcDbArc
 50
0.0
 51
90.0
  0
ARC
  5
29C
330
1F
100
AcDbEntity
  8
0
  6
Continuous
 62
     7
370
    25
100
AcDbCircle
 10
205.2122788646
 20
166.8130804732
 30
0.0
 40
1.0
100
AcDbArc
 50
270.0
 51
0.0
  0
LINE
  5
29D
330
1F
100
AcDbEntity
  8
0
  6
Continuous
 62
     7
370
    25
100
AcDbLine
 10
205.212278957
 20
165.8130803592
 30
0.0
 11
205.212278957
 21
166.1130805481
 31
0.0
  0
ARC
  5
29E
330
1F
100
AcDbEntity
  8
0
  6
Continuous
 62
     7
370
    25
100
AcDbCircle
 10
205.2122788646
 20
166.8130804732
 30
0.0
 40
0.700000000000017
100
AcDbArc
 50
270.0
 51
0.0
  0
LINE
  5
29F
330
1F
100
AcDbEntity
  8
0
  6
Continuous
 62
     7
370
    25
100
AcDbLine
 10
206.2122791209
 20
166.8130805232
 30
0.0
 11
205.9122786992
 21
166.8130805232
 31
0.0
  0
LINE
  5
2A0
330
1F
100
AcDbEntity
  8
0
  6
Continuous
 62
     7
370
    25
100
AcDbLine
 10
206.2122791209
 20
167.3130804887
 30
0.0
 11
206.2122791209
 21
166.8130805232
 31
0.0
  0
LINE
  5
2A1
330
1F
100
AcDbEntity
  8
0
  6
Continuous
 62
     7
370
    25
100
AcDbLine
 10
205.9122786992
 20
166.8130805232
 30
0.0
 11
205.9122786992
 21
167.3130804887
 31
0.0
  0
LINE
  5
2A2
330
1F
100
AcDbEntity
  8
0
  6
Continuous
 62
     7
370
    25
100
AcDbLine
 10
195.8122790926
 20
166.1130805481
 30
0.0
 11
205.212278957
 21
166.1130805481
 31
0.0
  0
LINE
  5
2A3
330
1F
100
AcDbEntity
  8
0
  6
Continuous
 62
     7
370
    25
100
AcDbLine
 10
205.212278957
 20
165.8130803592
 30
0.0
 11
195.8122790926
 21
165.8130803592
 31
0.0
  0
LINE
  5
2A4
330
1F
100
AcDbEntity
  8
0
  6
Continuous
 62
     7
370
    25
100
AcDbLine
 10
212.9868163862
 20
171.5130804554
 30
0.0
 11
213.0122787454
 21
171.5130804554
 31
0.0
  0
LINE
  5
2A5
330
1F
100
AcDbEntity
  8
0
  6
Continuous
 62
     7
370
    25
100
AcDbLine
 10
213.0122787454
 20
171.0630805213
 30
0.0
 11
213.0122787454
 21
171.5130804554
 31
0.0
  0
LINE
  5
2A6
330
1F
100
AcDbEntity
  8
0
  6
Continuous
 62
     7
370
    25
100
AcDbLine
 10
212.9868163862
 20
174.0130803995
 30
0.0
 11
213.0122787454
 21
174.0130803995
 31
0.0
  0
LINE
  5
2A7
330
1F
100
AcDbEntity
  8
0
  6
Continuous
 62
     7
370
    25
100
AcDbLine
 10
213.0122787454
 20
174.0130803995
 30
0.0
 11
213.0122787454
 21
174.4630805664
 31
0.0
  0
ARC
  5
2A8
330
1F
100
AcDbEntity
  8
0
  6
Continuous
 62
     7
370
    25
100
AcDbCircle
 10
195.1122788646
 20
178.5130804732
 30
0.0
 40
0.5
100
AcDbArc
 50
0.0
 51
90.0
  0
LINE
  5
2A9
330
1F
100
AcDbEntity
  8
0
  6
Continuous
 62
     7
370
    25
100
AcDbLine
 10
195.1122788847
 20
178.5130806714
 30
0.0
 11
195.6122789667
 21
178.5130806714
 31
0.0
  0
LINE
  5
2AA
330
1F
100
AcDbEntity
  8
0
  6
Continuous
 62
     7
370
    25
100
AcDbLine
 10
195.1122788847
 20
179.0130807534
 30
0.0
 11
195.1122788847
 21
178.5130806714
 31
0.0
  0
LINE
  5
2AB
330
1F
100
AcDbEntity
  8
0
  6
Continuous
 62
     7
370
    25
100
AcDbLine
 10
195.1122788847
 20
177.3130808473
 30
0.0
 11
195.1122788847
 21
178.5130806714
 31
0.0
  0
LINE
  5
2AC
330
1F
100
AcDbEntity
  8
0
  6
Continuous
 62
     7
370
    25
100
AcDbLine
 10
195.6122789667
 20
178.5130806714
 30
0.0
 11
195.6122789667
 21
177.3130808473
 31
0.0
  0
LINE
  5
2AD
330
1F
100
AcDbEntity
  8
0
  6
Continuous
 62
     7
370
    25
100
AcDbLine
 10
195.1122788847
 20
178.5130806714
 30
0.0
 11
192.5416906266
 21
178.5130806714
 31
0.0
  0
LINE
  5
2AE
330
1F
100
AcDbEntity
  8
0
  6
Continuous
 62
     7
370
    25
100
AcDbLine
 10
191.5122788883
 20
179.0130807534
 30
0.0
 11
195.1122788847
 21
179.0130807534
 31
0.0
  0
LINE
  5
2AF
330
1F
100
AcDbEntity
  8
0
  6
Continuous
 62
     7
370
    25
100
AcDbLine
 10
213.0122787454
 20
174.0130803995
 30
0.0
 11
213.0122787454
 21
171.5130804554
 31
0.0
  0
ARC
  5
2B0
330
1F
100
AcDbEntity
  8
0
  6
Continuous
 62
     7
370
    25
100
AcDbCircle
 10
185.0122788646
 20
166.8130804732
 30
0.0
 40
0.5
100
AcDbArc
 50
180.0
 51
270.0
  0
LINE
  5
2B1
330
1F
100
AcDbEntity
  8
0
  6
Continuous
 62
     7
370
    25
100
AcDbLine
 10
184.5122787305
 20
167.3130804887
 30
0.0
 11
184.5122787305
 21
166.8130805232
 31
0.0
  0
LINE
  5
2B2
330
1F
100
AcDbEntity
  8
0
  6
Continuous
 62
     7
370
    25
100
AcDbLine
 10
189.4671176229
 20
165.8130803592
 30
0.0
 11
185.0122788124
 21
165.8130803592
 31
0.0
  0
LINE
  5
2B3
330
1F
100
AcDbEntity
  8
0
  6
Continuous
 62
     7
370
    25
100
AcDbLine
 10
185.0122788124
 20
165.8130803592
 30
0.0
 11
185.0122788124
 21
166.3130804412
 31
0.0
  0
ARC
  5
2B4
330
1F
100
AcDbEntity
  8
0
  6
Continuous
 62
     7
370
    25
100
AcDbCircle
 10
185.0122788646
 20
166.8130804732
 30
0.0
 40
1.0
100
AcDbArc
 50
180.0
 51
270.0
  0
LINE
  5
2B5
330
1F
100
AcDbEntity
  8
0
  6
Continuous
 62
     7
370
    25
100
AcDbLine
 10
184.5122787305
 20
166.8130805232
 30
0.0
 11
184.0122786485
 21
166.8130805232
 31
0.0
  0
LINE
  5
2B6
330
1F
100
AcDbEntity
  8
0
  6
Continuous
 62
     7
370
    25
100
AcDbLine
 10
184.0122786485
 20
166.8130805232
 30
0.0
 11
184.0122786485
 21
167.3130804887
 31
0.0
  0
LINE
  5
2B7
330
1F
100
AcDbEntity
  8
0
  6
Continuous
 62
     8
370
    25
100
AcDbLine
 10
185.0122788124
 20
166.3130804412
 30
0.0
 11
188.0155047071
 21
166.3130804412
 31
0.0
  0
DIMENSION
  5
2B8
330
1F
100
AcDbEntity
  8
FORMAT
100
AcDbDimension
280
     0
  2
_D_1
 10
213.0122788646
 20
154.9945289903
 30
0.0
 11
189.5593963719
 21
154.9945289903
 31
0.0
 70
   160
  1
<>
 71
     2
 42
-1.0
 73
     0
 74
     0
 75
     0
  3
SLDDIMSTYLE0
100
AcDbAlignedDimension
 13
166.0122788646
 23
168.8130804732
 33
0.0
 14
213.0122788646
 24
167.6130804732
 34
0.0
100
AcDbRotatedDimension
  0
DIMENSION
  5
2C2
330
1F
100
AcDbEntity
  8
FORMAT
100
AcDbDimension
280
     0
  2
_D_2
 10
152.4308151216
 20
164.2130804732
 30
0.0
 11
152.4308151216
 21
189.0130804732
 31
0.0
 70
   160
  1
<>
 71
     2
 42
-1.0
 73
     0
 74
     0
 75
     0
  3
SLDDIMSTYLE1
100
AcDbAlignedDimension
 13
166.3122788646
 23
179.0130804732
 33
0.0
 14
194.1122788646
 24
164.2130804732
 34
0.0
 50
90.0
100
AcDbRotatedDimension
  0
LINE
  5
2CF
330
1F
100
AcDbEntity
  8
0
  6
Continuous
 62
     7
370
    25
100
AcDbLine
 10
192.7820121306
 20
107.863214483
 30
0.0
 11
184.9545852416
 21
107.863214483
 31
0.0
  0
ARC
  5
2D0
330
1F
100
AcDbEntity
  8
0
  6
Continuous
 62
     7
370
    25
100
AcDbCircle
 10
192.782012102
 20
109.4632152131
 30
0.0
 40
1.600000000000017
100
AcDbArc
 50
270.0
 51
323.7920455173
  0
SPLINE
  5
2D1
330
1F
100
AcDbEntity
  8
0
  6
Continuous
 62
     7
370
    25
100
AcDbSpline
210
0.0
220
0.0
230
1.0
 70
     8
 71
     3
 72
    14
 73
    10
 74
     0
 42
0.000000001
 43
0.00000001
 40
0.0
 40
0.0
 40
0.0
 40
0.0
 40
0.0000475207896188
 40
0.0000475207896188
 40
0.0000475207896188
 40
0.0000958943680875
 40
0.0000958943680875
 40
0.0000958943680875
 40
0.0001246534063914
 40
0.0001246534063914
 40
0.0001246534063914
 40
0.0001246534063914
 10
194.1122788645844
 20
108.4049146887218
 30
0.0
 10
194.1122788645844
 20
108.4207549519281
 30
0.0
 10
194.1111161766144
 20
108.4367204282926
 30
0.0
 10
194.1080446499527
 20
108.4522239879247
 30
0.0
 10
194.1049428268759
 20
108.4678804689958
 30
0.0
 10
194.099731472774
 20
108.4835115468574
 30
0.0
 10
194.0914204780764
 20
108.4968764505331
 30
0.0
 10
194.0864374558625
 20
108.5048896444198
 30
0.0
 10
194.0801965179699
 20
108.5122074516717
 30
0.0
 10
194.0730173971673
 20
108.518066903112
 30
0.0
  0
LINE
  5
2D2
330
1F
100
AcDbEntity
  8
0
  6
Continuous
 62
     7
370
    25
100
AcDbLine
 10
194.1122789536
 20
108.4049145332
 30
0.0
 11
194.1122789536
 21
107.1632156721
 31
0.0
  0
LINE
  5
2D3
330
1F
100
AcDbEntity
  8
0
  6
Continuous
 62
     7
370
    25
100
AcDbLine
 10
183.7181613915
 20
107.1632156721
 30
0.0
 11
194.1122789536
 21
107.1632156721
 31
0.0
  0
ELLIPSE
  5
2D4
330
1F
100
AcDbEntity
  8
0
  6
Continuous
 62
     7
370
    25
100
AcDbEllipse
 10
180.7574401549
 20
108.2632152131
 30
0.0
 11
4.354838709677466
 21
0.0
 31
0.0
210
0.0
220
0.0
230
1.0
 40
0.3444444444
 41
5.459973330053732
 42
6.013252511346217
  0
ARC
  5
2D5
330
1F
100
AcDbEntity
  8
0
  6
Continuous
 62
     7
370
    25
100
AcDbCircle
 10
192.9122788646
 20
109.4632152131
 30
0.0
 40
1.600000000000005
100
AcDbArc
 50
318.5903778907
 51
0.0
  0
SPLINE
  5
2D6
330
1F
100
AcDbEntity
  8
0
  6
Continuous
 62
     7
370
    25
100
AcDbSpline
210
0.0
220
0.0
230
1.0
 70
     8
 71
     3
 72
    10
 73
     6
 74
     0
 42
0.000000001
 43
0.00000001
 40
0.0
 40
0.0
 40
0.0
 40
0.0
 40
0.5
 40
0.5
 40
1.0
 40
1.0
 40
1.0
 40
1.0
 10
194.0730173971673
 20
108.518066903112
 30
0.0
 10
194.0068874660305
 20
108.5720407992059
 30
0.0
 10
193.9504276046325
 20
108.6220535167808
 30
0.0
 10
193.874557826307
 20
108.6984830273485
 30
0.0
 10
193.8570151222477
 20
108.7232462971681
 30
0.0
 10
193.8624977527583
 20
108.7303550187329
 30
0.0
  0
ARC
  5
2D7
330
1F
100
AcDbEntity
  8
0
  6
Continuous
 62
     7
370
    25
100
AcDbCircle
 10
192.9122788646
 20
109.4632152131
 30
0.0
 40
1.200000000000002
100
AcDbArc
 50
322.358647589
 51
0.0
  0
LINE
  5
2D8
330
1F
100
AcDbEntity
  8
0
  6
Continuous
 62
     7
370
    25
100
AcDbLine
 10
194.5122789726
 20
109.4632154903
 30
0.0
 11
194.1122789536
 21
109.4632154903
 31
0.0
  0
SPLINE
  5
2D9
330
1F
100
AcDbEntity
  8
0
  6
Continuous
 62
     7
370
    25
100
AcDbSpline
210
0.0
220
0.0
230
1.0
 70
     8
 71
     3
 72
    14
 73
    10
 74
     0
 42
0.000000001
 43
0.00000001
 40
0.0
 40
0.0
 40
0.0
 40
0.0
 40
0.0000311807372789
 40
0.0000311807372789
 40
0.0000311807372789
 40
0.0000714158799544
 40
0.0000714158799544
 40
0.0000714158799544
 40
0.0001242193386279
 40
0.0001242193386279
 40
0.0001242193386279
 40
0.0001242193386279
 10
194.0730173971673
 20
127.6083635231831
 30
0.0
 10
194.0807972510728
 20
127.6147132806848
 30
0.0
 10
194.0874698942084
 20
127.6227878630677
 30
0.0
 10
194.0926648862682
 20
127.6316103707073
 30
0.0
 10
194.0993677100149
 20
127.6429935861254
 30
0.0
 10
194.1039227032842
 20
127.6558800811308
 30
0.0
 10
194.1069138047915
 20
127.6689118740565
 30
0.0
 10
194.1108475085208
 20
127.6860504473568
 30
0.0
 10
194.1122788645844
 20
127.7038793947354
 30
0.0
 10
194.1122788645844
 20
127.7215157375733
 30
0.0
  0
ARC
  5
2DA
330
1F
100
AcDbEntity
  8
0
  6
Continuous
 62
     7
370
    25
100
AcDbCircle
 10
192.9122788646
 20
126.6632152131
 30
0.0
 40
1.599999999999994
100
AcDbArc
 50
0.0
 51
41.4096221093
  0
LINE
  5
2DB
330
1F
100
AcDbEntity
  8
0
  6
Continuous
 62
     7
370
    25
100
AcDbLine
 10
194.5122789726
 20
126.6632151431
 30
0.0
 11
194.1122789536
 21
126.6632151431
 31
0.0
  0
ARC
  5
2DC
330
1F
100
AcDbEntity
  8
0
  6
Continuous
 62
     7
370
    25
100
AcDbCircle
 10
192.9122788646
 20
126.6632152131
 30
0.0
 40
1.199999999999994
100
AcDbArc
 50
0.0
 51
37.641352411
  0
SPLINE
  5
2DD
330
1F
100
AcDbEntity
  8
0
  6
Continuous
 62
     7
370
    25
100
AcDbSpline
210
0.0
220
0.0
230
1.0
 70
     8
 71
     3
 72
    10
 73
     6
 74
     0
 42
0.000000001
 43
0.00000001
 40
0.0
 40
0.0
 40
0.0
 40
0.0
 40
0.5
 40
0.5
 40
1.0
 40
1.0
 40
1.0
 40
1.0
 10
194.0730173971673
 20
127.6083635231831
 30
0.0
 10
194.0068874660305
 20
127.5543896270892
 30
0.0
 10
193.9504276046325
 20
127.5043769095143
 30
0.0
 10
193.874557826307
 20
127.4279473989466
 30
0.0
 10
193.8570151222481
 20
127.4031841291265
 30
0.0
 10
193.8624977527583
 20
127.3960754075622
 30
0.0
  0
ARC
  5
2DE
330
1F
100
AcDbEntity
  8
0
  6
Continuous
 62
     7
370
    25
100
AcDbCircle
 10
192.782012102
 20
126.6632152131
 30
0.0
 40
1.600000000000031
100
AcDbArc
 50
36.2079544827
 51
90.0
  0
LINE
  5
2DF
330
1F
100
AcDbEntity
  8
0
  6
Continuous
 62
     7
370
    25
100
AcDbLine
 10
184.9545852416
 20
128.2632152191
 30
0.0
 11
192.7820121306
 21
128.2632152191
 31
0.0
  0
ELLIPSE
  5
2E0
330
1F
100
AcDbEntity
  8
0
  6
Continuous
 62
     7
370
    25
100
AcDbEllipse
 10
180.7574401549
 20
127.8632152131
 30
0.0
 11
4.354838709677466
 21
0.0
 31
0.0
210
0.0
220
0.0
230
1.0
 40
0.3444444444
 41
0.2699327958333892
 42
0.8232119771258758
  0
LINE
  5
2E1
330
1F
100
AcDbEntity
  8
0
  6
Continuous
 62
     7
370
    25
100
AcDbLine
 10
194.1122789536
 20
128.9632152233
 30
0.0
 11
183.7181613915
 21
128.9632152233
 31
0.0
  0
LINE
  5
2E2
330
1F
100
AcDbEntity
  8
0
  6
Continuous
 62
     7
370
    25
100
AcDbLine
 10
194.1122789536
 20
128.9632152233
 30
0.0
 11
194.1122789536
 21
127.7215157509
 31
0.0
  0
ARC
  5
2E3
330
1F
100
AcDbEntity
  8
0
  6
Continuous
 62
     7
370
    25
100
AcDbCircle
 10
194.6122788646
 20
107.9632152131
 30
0.0
 40
1.200000000000017
100
AcDbArc
 50
270.0
 51
0.0
  0
LINE
  5
2E4
330
1F
100
AcDbEntity
  8
0
  6
Continuous
 62
     7
370
    25
100
AcDbLine
 10
194.6122788027
 20
106.763214489
 30
0.0
 11
194.6122788027
 21
107.1632156721
 31
0.0
  0
ARC
  5
2E5
330
1F
100
AcDbEntity
  8
0
  6
Continuous
 62
     7
370
    25
100
AcDbCircle
 10
194.6122788646
 20
107.9632152131
 30
0.0
 40
0.8000000000000114
100
AcDbArc
 50
270.0
 51
0.0
  0
LINE
  5
2E6
330
1F
100
AcDbEntity
  8
0
  6
Continuous
 62
     7
370
    25
100
AcDbLine
 10
195.8122790926
 20
107.9632143131
 30
0.0
 11
195.4122788407
 21
107.9632143131
 31
0.0
  0
LINE
  5
2E7
330
1F
100
AcDbEntity
  8
0
  6
Continuous
 62
     7
370
    25
100
AcDbLine
 10
194.6122788027
 20
106.763214489
 30
0.0
 11
194.1792373214
 21
106.763214489
 31
0.0
  0
ELLIPSE
  5
2E8
330
1F
100
AcDbEntity
  8
0
  6
Continuous
 62
     7
370
    25
100
AcDbEllipse
 10
194.1792373821
 20
107.1632152131
 30
0.0
 11
0.0
 21
0.3999999999999915
 31
0.0
210
0.0
220
0.0
230
1.0
 40
0.1673962939
 41
1.570796326794897
 42
3.141592653589793
  0
LINE
  5
2E9
330
1F
100
AcDbEntity
  8
0
  6
Continuous
 62
     7
370
    25
100
AcDbLine
 10
194.1122789536
 20
107.1632156721
 30
0.0
 11
194.6122788027
 21
107.1632156721
 31
0.0
  0
LINE
  5
2EA
330
1F
100
AcDbEntity
  8
0
  6
Continuous
 62
     7
370
    25
100
AcDbLine
 10
194.1792373214
 20
106.763214489
 30
0.0
 11
181.9856890612
 21
106.763214489
 31
0.0
  0
SPLINE
  5
2EB
330
1F
100
AcDbEntity
  8
0
  6
Continuous
 62
     7
370
    25
100
AcDbSpline
210
0.0
220
0.0
230
1.0
 70
     8
 71
     3
 72
    10
 73
     6
 74
     0
 42
0.000000001
 43
0.00000001
 40
0.0
 40
0.0
 40
0.0
 40
0.0
 40
0.5
 40
0.5
 40
1.0
 40
1.0
 40
1.0
 40
1.0
 10
183.7181611627995
 20
107.1632152131476
 30
0.0
 10
183.4046778584829
 20
107.0631097948389
 30
0.0
 10
183.1057183595763
 20
106.9597887149533
 30
0.0
 10
182.5335197042312
 20
106.8089233075531
 30
0.0
 10
182.2605490670929
 20
106.7632152131475
 30
0.0
 10
181.9856889950528
 20
106.7632152131475
 30
0.0
  0
LINE
  5
2EC
330
1F
100
AcDbEntity
  8
0
  6
Continuous
 62
     7
370
    25
100
AcDbLine
 10
194.6122788027
 20
128.9632152233
 30
0.0
 11
194.1122789536
 21
128.9632152233
 31
0.0
  0
ARC
  5
2ED
330
1F
100
AcDbEntity
  8
0
  6
Continuous
 62
     7
370
    25
100
AcDbCircle
 10
194.6122788646
 20
128.1632152131
 30
0.0
 40
0.8000000000000114
100
AcDbArc
 50
0.0
 51
90.0
  0
LINE
  5
2EE
330
1F
100
AcDbEntity
  8
0
  6
Continuous
 62
     7
370
    25
100
AcDbLine
 10
195.4122788407
 20
107.9632143131
 30
0.0
 11
195.4122788407
 21
128.1632151562
 31
0.0
  0
LINE
  5
2EF
330
1F
100
AcDbEntity
  8
0
  6
Continuous
 62
     7
370
    25
100
AcDbLine
 10
194.5122789726
 20
126.6632151431
 30
0.0
 11
194.5122789726
 21
109.4632154903
 31
0.0
  0
LINE
  5
2F0
330
1F
100
AcDbEntity
  8
0
  6
Continuous
 62
     7
370
    25
100
AcDbLine
 10
195.8122790926
 20
128.1632151562
 30
0.0
 11
195.8122790926
 21
107.9632143131
 31
0.0
  0
LINE
  5
2F1
330
1F
100
AcDbEntity
  8
0
  6
Continuous
 62
     7
370
    25
100
AcDbLine
 10
195.8122790926
 20
128.1632151562
 30
0.0
 11
195.4122788407
 21
128.1632151562
 31
0.0
  0
LINE
  5
2F2
330
1F
100
AcDbEntity
  8
0
  6
Continuous
 62
     7
370
    25
100
AcDbLine
 10
194.1122789536
 20
109.4632154903
 30
0.0
 11
194.1122789536
 21
126.6632151431
 31
0.0
  0
ARC
  5
2F3
330
1F
100
AcDbEntity
  8
0
  6
Continuous
 62
     7
370
    25
100
AcDbCircle
 10
194.6122788646
 20
128.1632152131
 30
0.0
 40
1.200000000000017
100
AcDbArc
 50
0.0
 51
90.0
  0
LINE
  5
2F4
330
1F
100
AcDbEntity
  8
0
  6
Continuous
 62
     7
370
    25
100
AcDbLine
 10
194.6122788027
 20
129.3632152131
 30
0.0
 11
194.6122788027
 21
128.9632152233
 31
0.0
  0
LINE
  5
2F5
330
1F
100
AcDbEntity
  8
0
  6
Continuous
 62
     7
370
    25
100
AcDbLine
 10
194.1792373214
 20
129.3632152131
 30
0.0
 11
194.6122788027
 21
129.3632152131
 31
0.0
  0
ELLIPSE
  5
2F6
330
1F
100
AcDbEntity
  8
0
  6
Continuous
 62
     7
370
    25
100
AcDbEllipse
 10
194.1792373821
 20
128.9632152131
 30
0.0
 11
0.0
 21
0.4000000000000057
 31
0.0
210
0.0
220
0.0
230
1.0
 40
0.1673962939
 41
0.0
 42
1.570796326794897
  0
LINE
  5
2F7
330
1F
100
AcDbEntity
  8
0
  6
Continuous
 62
     7
370
    25
100
AcDbLine
 10
181.9856890612
 20
129.3632152131
 30
0.0
 11
194.1792373214
 21
129.3632152131
 31
0.0
  0
SPLINE
  5
2F8
330
1F
100
AcDbEntity
  8
0
  6
Continuous
 62
     7
370
    25
100
AcDbSpline
210
0.0
220
0.0
230
1.0
 70
     8
 71
     3
 72
    10
 73
     6
 74
     0
 42
0.000000001
 43
0.00000001
 40
0.0
 40
0.0
 40
0.0
 40
0.0
 40
0.5
 40
0.5
 40
1.0
 40
1.0
 40
1.0
 40
1.0
 10
183.7181611627995
 20
128.9632152131475
 30
0.0
 10
183.4046778584829
 20
129.0633206314562
 30
0.0
 10
183.1057183595763
 20
129.1666417113418
 30
0.0
 10
182.5335197042312
 20
129.317507118742
 30
0.0
 10
182.2605490670933
 20
129.3632152131475
 30
0.0
 10
181.9856889950528
 20
129.3632152131476
 30
0.0
  0
ARC
  5
2F9
330
1F
100
AcDbEntity
  8
0
  6
Continuous
 62
     7
370
    25
100
AcDbCircle
 10
192.9122788646
 20
109.4632152131
 30
0.0
 40
1.200000000000003
100
AcDbArc
 50
270.0
 51
322.358647589
  0
LWPOLYLINE
  5
2FA
330
1F
100
AcDbEntity
  8
0
  6
Continuous
 62
     7
370
    25
100
AcDbPolyline
 90
        9
 70
   128
 43
0.0
 10
192.9122788966
 20
108.2632156661
 10
192.8868650826
 20
108.2555285296
 10
192.8624278768
 20
108.2327670059
 10
192.8399065178
 20
108.1958028129
 10
192.820166321
 20
108.1460571489
 10
192.8039659648
 20
108.0854429505
 10
192.7919280384
 20
108.016288524
 10
192.7845151764
 20
107.9412518642
 10
192.7820121306
 20
107.863214483
  0
ARC
  5
2FB
330
1F
100
AcDbEntity
  8
0
  6
Continuous
 62
     7
370
    25
100
AcDbCircle
 10
192.9122788646
 20
126.6632152131
 30
0.0
 40
1.200000000000003
100
AcDbArc
 50
37.641352411
 51
90.0
  0
LWPOLYLINE
  5
2FC
330
1F
100
AcDbEntity
  8
0
  6
Continuous
 62
     7
370
    25
100
AcDbPolyline
 90
        9
 70
   128
 43
0.0
 10
192.7820121306
 20
128.2632152191
 10
192.7845151764
 20
128.1851791185
 10
192.7919280384
 20
128.1101418766
 10
192.8039659648
 20
128.0409871009
 10
192.820166321
 20
127.9803725532
 10
192.8399065178
 20
127.9306273549
 10
192.8624278768
 20
127.8936633947
 10
192.8868650826
 20
127.8709010561
 10
192.9122788966
 20
127.8632152001
  0
LINE
  5
2FD
330
1F
100
AcDbEntity
  8
0
  6
Continuous
 62
     7
370
    25
100
AcDbLine
 10
186.3405278087
 20
108.2632156661
 30
0.0
 11
192.9122788966
 21
108.2632156661
 31
0.0
  0
SPLINE
  5
2FE
330
1F
100
AcDbEntity
  8
0
  6
Continuous
 62
     7
370
    25
100
AcDbSpline
210
0.0
220
0.0
230
1.0
 70
     8
 71
     3
 72
    14
 73
    10
 74
     0
 42
0.000000001
 43
0.00000001
 40
0.0
 40
0.0
 40
0.0
 40
0.0
 40
0.125000000000001
 40
0.125000000000001
 40
0.250000000000002
 40
0.250000000000002
 40
0.5000000000000023
 40
0.5000000000000023
 40
1.0
 40
1.0
 40
1.0
 40
1.0
 10
184.9545850146879
 20
107.8632152131475
 30
0.0
 10
184.9931775980558
 20
107.9112588844608
 30
0.0
 10
185.0410610509094
 20
107.9494907734968
 30
0.0
 10
185.1445881162193
 20
108.0176183130863
 30
0.0
 10
185.1996358952541
 20
108.0463044453795
 30
0.0
 10
185.3685114310317
 20
108.1215057263474
 30
0.0
 10
185.4881447763473
 20
108.1580489234742
 30
0.0
 10
185.8484257221667
 20
108.2411366150231
 30
0.0
 10
186.0930236097687
 20
108.2632152131475
 30
0.0
 10
186.3405277047302
 20
108.2632152131475
 30
0.0
  0
LINE
  5
2FF
330
1F
100
AcDbEntity
  8
0
  6
Continuous
 62
     7
370
    25
100
AcDbLine
 10
192.9122788966
 20
127.8632152001
 30
0.0
 11
186.3405278087
 21
127.8632152001
 31
0.0
  0
SPLINE
  5
300
330
1F
100
AcDbEntity
  8
0
  6
Continuous
 62
     7
370
    25
100
AcDbSpline
210
0.0
220
0.0
230
1.0
 70
     8
 71
     3
 72
    14
 73
    10
 74
     0
 42
0.000000001
 43
0.00000001
 40
0.0
 40
0.0
 40
0.0
 40
0.0
 40
0.5000000000000009
 40
0.5000000000000009
 40
0.7500000000000004
 40
0.7500000000000004
 40
0.8750000000000002
 40
0.8750000000000002
 40
1.0
 40
1.0
 40
1.0
 40
1.0
 10
186.3405277047301
 20
127.8632152131476
 30
0.0
 10
186.0932347893606
 20
127.8632152131476
 30
0.0
 10
185.8485275259868
 20
127.8852229750305
 30
0.0
 10
185.4874091389137
 20
127.9685749014833
 30
0.0
 10
185.3686158001502
 20
128.0048500472419
 30
0.0
 10
185.19917378812
 20
128.080345899409
 30
0.0
 10
185.1441359599004
 20
128.1091156143644
 30
0.0
 10
185.041632870047
 20
128.1765574126734
 30
0.0
 10
184.9928503301603
 20
128.2155789556385
 30
0.0
 10
184.9545850146879
 20
128.2632152131475
 30
0.0
  0
LINE
  5
301
330
1F
100
AcDbEntity
  8
0
  6
Continuous
 62
     7
370
    25
100
AcDbLine
 10
205.9122786992
 20
108.4632153264
 30
0.0
 11
205.212278957
 21
108.4632153264
 31
0.0
  0
LINE
  5
302
330
1F
100
AcDbEntity
  8
0
  6
Continuous
 62
     7
370
    25
100
AcDbLine
 10
205.212278957
 20
108.4632153264
 30
0.0
 11
205.212278957
 21
108.7632148168
 31
0.0
  0
LINE
  5
303
330
1F
100
AcDbEntity
  8
0
  6
Continuous
 62
     7
370
    25
100
AcDbLine
 10
205.212278957
 20
108.7632148168
 30
0.0
 11
206.2122791209
 21
108.7632148168
 31
0.0
  0
ARC
  5
304
330
1F
100
AcDbEntity
  8
0
  6
Continuous
 62
     7
370
    25
100
AcDbCircle
 10
205.9122788646
 20
108.7632152131
 30
0.0
 40
0.2999999999999972
100
AcDbArc
 50
270.0
 51
0.0
  0
LINE
  5
305
330
1F
100
AcDbEntity
  8
0
  6
Continuous
 62
     7
370
    25
100
AcDbLine
 10
195.8122790926
 20
108.7632148168
 30
0.0
 11
205.212278957
 21
108.7632148168
 31
0.0
  0
LINE
  5
306
330
1F
100
AcDbEntity
  8
0
  6
Continuous
 62
     7
370
    25
100
AcDbLine
 10
205.212278957
 20
108.4632153264
 30
0.0
 11
195.8122790926
 21
108.4632153264
 31
0.0
  0
LINE
  5
307
330
1F
100
AcDbEntity
  8
0
  6
Continuous
 62
     7
370
    25
100
AcDbLine
 10
206.2122791209
 20
109.1632159999
 30
0.0
 11
205.212278957
 21
109.1632159999
 31
0.0
  0
LINE
  5
308
330
1F
100
AcDbEntity
  8
0
  6
Continuous
 62
     7
370
    25
100
AcDbLine
 10
206.2122791209
 20
109.1632159999
 30
0.0
 11
206.2122791209
 21
108.7632148168
 31
0.0
  0
LINE
  5
309
330
1F
100
AcDbEntity
  8
0
  6
Continuous
 62
     7
370
    25
100
AcDbLine
 10
205.212278957
 20
108.7632148168
 30
0.0
 11
205.212278957
 21
109.1632159999
 31
0.0
  0
LINE
  5
30A
330
1F
100
AcDbEntity
  8
0
  6
Continuous
 62
     7
370
    25
100
AcDbLine
 10
205.212278957
 20
109.1632159999
 30
0.0
 11
195.8122790926
 21
109.1632159999
 31
0.0
  0
LINE
  5
30B
330
1F
100
AcDbEntity
  8
0
  6
Continuous
 62
     7
370
    25
100
AcDbLine
 10
205.212278957
 20
109.1632159999
 30
0.0
 11
205.212278957
 21
109.4632154903
 31
0.0
  0
LINE
  5
30C
330
1F
100
AcDbEntity
  8
0
  6
Continuous
 62
     7
370
    25
100
AcDbLine
 10
205.212278957
 20
109.4632154903
 30
0.0
 11
205.9122786992
 21
109.4632154903
 31
0.0
  0
ARC
  5
30D
330
1F
100
AcDbEntity
  8
0
  6
Continuous
 62
     7
370
    25
100
AcDbCircle
 10
205.9122788646
 20
109.1632152131
 30
0.0
 40
0.2999999999999972
100
AcDbArc
 50
0.0
 51
90.0
  0
LINE
  5
30E
330
1F
100
AcDbEntity
  8
0
  6
Continuous
 62
     7
370
    25
100
AcDbLine
 10
195.8122790926
 20
109.4632154903
 30
0.0
 11
205.212278957
 21
109.4632154903
 31
0.0
  0
LINE
  5
30F
330
1F
100
AcDbEntity
  8
0
  6
Continuous
 62
     7
370
    25
100
AcDbLine
 10
200.5122785591
 20
111.8132142923
 30
0.0
 11
200.5122785591
 21
114.1132150418
 31
0.0
  0
LINE
  5
310
330
1F
100
AcDbEntity
  8
0
  6
Continuous
 62
     7
370
    25
100
AcDbLine
 10
199.7122789868
 20
114.1132150418
 30
0.0
 11
200.5122785591
 21
114.1132150418
 31
0.0
  0
LINE
  5
311
330
1F
100
AcDbEntity
  8
0
  6
Continuous
 62
     7
370
    25
100
AcDbLine
 10
199.7122789868
 20
111.8132142923
 30
0.0
 11
199.7122789868
 21
114.1132150418
 31
0.0
  0
LINE
  5
312
330
1F
100
AcDbEntity
  8
0
  6
Continuous
 62
     7
370
    25
100
AcDbLine
 10
199.7122789868
 20
111.8132142923
 30
0.0
 11
200.5122785591
 21
111.8132142923
 31
0.0
  0
LINE
  5
313
330
1F
100
AcDbEntity
  8
0
  6
Continuous
 62
     7
370
    25
100
AcDbLine
 10
202.9230899312
 20
111.8132142923
 30
0.0
 11
202.9230899312
 21
114.1132150418
 31
0.0
  0
LINE
  5
314
330
1F
100
AcDbEntity
  8
0
  6
Continuous
 62
     7
370
    25
100
AcDbLine
 10
200.5122785591
 20
114.1132150418
 30
0.0
 11
202.9230899312
 21
114.1132150418
 31
0.0
  0
LINE
  5
315
330
1F
100
AcDbEntity
  8
0
  6
Continuous
 62
     7
370
    25
100
AcDbLine
 10
200.5122785591
 20
111.8132142923
 30
0.0
 11
202.9230899312
 21
111.8132142923
 31
0.0
  0
LINE
  5
316
330
1F
100
AcDbEntity
  8
0
  6
Continuous
 62
     7
370
    25
100
AcDbLine
 10
185.0122788124
 20
114.7632148689
 30
0.0
 11
185.0122788124
 21
115.2632149509
 31
0.0
  0
LINE
  5
317
330
1F
100
AcDbEntity
  8
0
  6
Continuous
 62
     7
370
    25
100
AcDbLine
 10
185.0122788124
 20
115.2632149509
 30
0.0
 11
194.1122789536
 21
115.2632149509
 31
0.0
  0
LINE
  5
318
330
1F
100
AcDbEntity
  8
0
  6
Continuous
 62
     7
370
    25
100
AcDbLine
 10
194.1122789536
 20
114.7632148689
 30
0.0
 11
185.0122788124
 21
114.7632148689
 31
0.0
  0
ARC
  5
319
330
1F
100
AcDbEntity
  8
0
  6
Continuous
 62
     7
370
    25
100
AcDbCircle
 10
184.5122788646
 20
115.2632152131
 30
0.0
 40
0.5
100
AcDbArc
 50
180.0
 51
270.0
  0
LINE
  5
31A
330
1F
100
AcDbEntity
  8
0
  6
Continuous
 62
     7
370
    25
100
AcDbLine
 10
184.0122786485
 20
115.2632149509
 30
0.0
 11
185.0122788124
 21
115.2632149509
 31
0.0
  0
LINE
  5
31B
330
1F
100
AcDbEntity
  8
0
  6
Continuous
 62
     7
370
    25
100
AcDbLine
 10
185.0122788124
 20
114.7632148689
 30
0.0
 11
184.5122787305
 21
114.7632148689
 31
0.0
  0
LINE
  5
31C
330
1F
100
AcDbEntity
  8
0
  6
Continuous
 62
     7
370
    25
100
AcDbLine
 10
194.1122789536
 20
115.7632150328
 30
0.0
 11
185.0122788124
 21
115.7632150328
 31
0.0
  0
LINE
  5
31D
330
1F
100
AcDbEntity
  8
0
  6
Continuous
 62
     7
370
    25
100
AcDbLine
 10
185.0122788124
 20
115.7632150328
 30
0.0
 11
185.0122788124
 21
115.2632149509
 31
0.0
  0
LINE
  5
31E
330
1F
100
AcDbEntity
  8
0
  6
Continuous
 62
     7
370
    25
100
AcDbLine
 10
185.0122788124
 20
115.7632150328
 30
0.0
 11
184.0122786485
 21
115.7632150328
 31
0.0
  0
LINE
  5
31F
330
1F
100
AcDbEntity
  8
0
  6
Continuous
 62
     7
370
    25
100
AcDbLine
 10
184.0122786485
 20
115.2632149509
 30
0.0
 11
184.0122786485
 21
115.7632150328
 31
0.0
  0
LINE
  5
320
330
1F
100
AcDbEntity
  8
0
  6
Continuous
 62
     7
370
    25
100
AcDbLine
 10
184.5122787305
 20
116.2632151148
 30
0.0
 11
185.0122788124
 21
116.2632151148
 31
0.0
  0
LINE
  5
321
330
1F
100
AcDbEntity
  8
0
  6
Continuous
 62
     7
370
    25
100
AcDbLine
 10
185.0122788124
 20
115.7632150328
 30
0.0
 11
185.0122788124
 21
116.2632151148
 31
0.0
  0
ARC
  5
322
330
1F
100
AcDbEntity
  8
0
  6
Continuous
 62
     7
370
    25
100
AcDbCircle
 10
184.5122788646
 20
115.7632152131
 30
0.0
 40
0.5
100
AcDbArc
 50
90.0
 51
180.0
  0
LINE
  5
323
330
1F
100
AcDbEntity
  8
0
  6
Continuous
 62
     7
370
    25
100
AcDbLine
 10
185.0122788124
 20
116.2632151148
 30
0.0
 11
194.1122789536
 21
116.2632151148
 31
0.0
  0
LINE
  5
324
330
1F
100
AcDbEntity
  8
0
  6
Continuous
 62
     7
370
    25
100
AcDbLine
 10
195.8122790926
 20
116.7632151968
 30
0.0
 11
205.212278957
 21
116.7632151968
 31
0.0
  0
LINE
  5
325
330
1F
100
AcDbEntity
  8
0
  6
Continuous
 62
     7
370
    25
100
AcDbLine
 10
205.212278957
 20
116.4632147751
 30
0.0
 11
205.212278957
 21
116.7632151968
 31
0.0
  0
LINE
  5
326
330
1F
100
AcDbEntity
  8
0
  6
Continuous
 62
     7
370
    25
100
AcDbLine
 10
205.212278957
 20
116.4632147751
 30
0.0
 11
195.8122790926
 21
116.4632147751
 31
0.0
  0
LINE
  5
327
330
1F
100
AcDbEntity
  8
0
  6
Continuous
 62
     7
370
    25
100
AcDbLine
 10
205.9122786992
 20
116.4632147751
 30
0.0
 11
205.212278957
 21
116.4632147751
 31
0.0
  0
LINE
  5
328
330
1F
100
AcDbEntity
  8
0
  6
Continuous
 62
     7
370
    25
100
AcDbLine
 10
205.212278957
 20
116.7632151968
 30
0.0
 11
206.2122791209
 21
116.7632151968
 31
0.0
  0
ARC
  5
329
330
1F
100
AcDbEntity
  8
0
  6
Continuous
 62
     7
370
    25
100
AcDbCircle
 10
205.9122788646
 20
116.7632152131
 30
0.0
 40
0.3000000000000114
100
AcDbArc
 50
270.0
 51
0.0
  0
LINE
  5
32A
330
1F
100
AcDbEntity
  8
0
  6
Continuous
 62
     7
370
    25
100
AcDbLine
 10
206.2122791209
 20
117.1632154486
 30
0.0
 11
205.212278957
 21
117.1632154486
 31
0.0
  0
LINE
  5
32B
330
1F
100
AcDbEntity
  8
0
  6
Continuous
 62
     7
370
    25
100
AcDbLine
 10
206.2122791209
 20
117.1632154486
 30
0.0
 11
206.2122791209
 21
116.7632151968
 31
0.0
  0
LINE
  5
32C
330
1F
100
AcDbEntity
  8
0
  6
Continuous
 62
     7
370
    25
100
AcDbLine
 10
205.212278957
 20
116.7632151968
 30
0.0
 11
205.212278957
 21
117.1632154486
 31
0.0
  0
LINE
  5
32D
330
1F
100
AcDbEntity
  8
0
  6
Continuous
 62
     7
370
    25
100
AcDbLine
 10
205.212278957
 20
117.1632154486
 30
0.0
 11
195.8122790926
 21
117.1632154486
 31
0.0
  0
LINE
  5
32E
330
1F
100
AcDbEntity
  8
0
  6
Continuous
 62
     7
370
    25
100
AcDbLine
 10
195.8122790926
 20
117.463214939
 30
0.0
 11
205.212278957
 21
117.463214939
 31
0.0
  0
LINE
  5
32F
330
1F
100
AcDbEntity
  8
0
  6
Continuous
 62
     7
370
    25
100
AcDbLine
 10
205.212278957
 20
117.1632154486
 30
0.0
 11
205.212278957
 21
117.463214939
 31
0.0
  0
LINE
  5
330
330
1F
100
AcDbEntity
  8
0
  6
Continuous
 62
     7
370
    25
100
AcDbLine
 10
205.212278957
 20
117.463214939
 30
0.0
 11
205.9122786992
 21
117.463214939
 31
0.0
  0
ARC
  5
331
330
1F
100
AcDbEntity
  8
0
  6
Continuous
 62
     7
370
    25
100
AcDbCircle
 10
205.9122788646
 20
117.1632152131
 30
0.0
 40
0.2999999999999972
100
AcDbArc
 50
0.0
 51
90.0
  0
LINE
  5
332
330
1F
100
AcDbEntity
  8
0
  6
Continuous
 62
     7
370
    25
100
AcDbLine
 10
195.8122790926
 20
119.3632154367
 30
0.0
 11
205.212278957
 21
119.3632154367
 31
0.0
  0
LINE
  5
333
330
1F
100
AcDbEntity
  8
0
  6
Continuous
 62
     7
370
    25
100
AcDbLine
 10
205.212278957
 20
119.063215015
 30
0.0
 11
205.212278957
 21
119.3632154367
 31
0.0
  0
LINE
  5
334
330
1F
100
AcDbEntity
  8
0
  6
Continuous
 62
     7
370
    25
100
AcDbLine
 10
205.212278957
 20
119.063215015
 30
0.0
 11
195.8122790926
 21
119.063215015
 31
0.0
  0
LINE
  5
335
330
1F
100
AcDbEntity
  8
0
  6
Continuous
 62
     7
370
    25
100
AcDbLine
 10
205.9122786992
 20
119.063215015
 30
0.0
 11
205.212278957
 21
119.063215015
 31
0.0
  0
LINE
  5
336
330
1F
100
AcDbEntity
  8
0
  6
Continuous
 62
     7
370
    25
100
AcDbLine
 10
205.212278957
 20
119.3632154367
 30
0.0
 11
206.2122791209
 21
119.3632154367
 31
0.0
  0
ARC
  5
337
330
1F
100
AcDbEntity
  8
0
  6
Continuous
 62
     7
370
    25
100
AcDbCircle
 10
205.9122788646
 20
119.3632152131
 30
0.0
 40
0.2999999999999972
100
AcDbArc
 50
270.0
 51
0.0
  0
LINE
  5
338
330
1F
100
AcDbEntity
  8
0
  6
Continuous
 62
     7
370
    25
100
AcDbLine
 10
205.212278957
 20
119.7632147572
 30
0.0
 11
195.8122790926
 21
119.7632147572
 31
0.0
  0
LINE
  5
339
330
1F
100
AcDbEntity
  8
0
  6
Continuous
 62
     7
370
    25
100
AcDbLine
 10
205.212278957
 20
119.3632154367
 30
0.0
 11
205.212278957
 21
119.7632147572
 31
0.0
  0
LINE
  5
33A
330
1F
100
AcDbEntity
  8
0
  6
Continuous
 62
     7
370
    25
100
AcDbLine
 10
206.2122791209
 20
119.7632147572
 30
0.0
 11
205.212278957
 21
119.7632147572
 31
0.0
  0
LINE
  5
33B
330
1F
100
AcDbEntity
  8
0
  6
Continuous
 62
     7
370
    25
100
AcDbLine
 10
206.2122791209
 20
119.7632147572
 30
0.0
 11
206.2122791209
 21
119.3632154367
 31
0.0
  0
LINE
  5
33C
330
1F
100
AcDbEntity
  8
0
  6
Continuous
 62
     7
370
    25
100
AcDbLine
 10
205.212278957
 20
119.7632147572
 30
0.0
 11
205.212278957
 21
120.0632151789
 31
0.0
  0
LINE
  5
33D
330
1F
100
AcDbEntity
  8
0
  6
Continuous
 62
     7
370
    25
100
AcDbLine
 10
205.212278957
 20
120.0632151789
 30
0.0
 11
205.9122786992
 21
120.0632151789
 31
0.0
  0
ARC
  5
33E
330
1F
100
AcDbEntity
  8
0
  6
Continuous
 62
     7
370
    25
100
AcDbCircle
 10
205.9122788646
 20
119.7632152131
 30
0.0
 40
0.3000000000000114
100
AcDbArc
 50
0.0
 51
90.0
  0
LINE
  5
33F
330
1F
100
AcDbEntity
  8
0
  6
Continuous
 62
     7
370
    25
100
AcDbLine
 10
195.8122790926
 20
120.0632151789
 30
0.0
 11
205.212278957
 21
120.0632151789
 31
0.0
  0
LINE
  5
340
330
1F
100
AcDbEntity
  8
0
  6
Continuous
 62
     7
370
    25
100
AcDbLine
 10
185.0122788124
 20
120.2632148391
 30
0.0
 11
184.5122787305
 21
120.2632148391
 31
0.0
  0
ARC
  5
341
330
1F
100
AcDbEntity
  8
0
  6
Continuous
 62
     7
370
    25
100
AcDbCircle
 10
184.5122788646
 20
120.7632152131
 30
0.0
 40
0.5
100
AcDbArc
 50
180.0
 51
270.0
  0
LINE
  5
342
330
1F
100
AcDbEntity
  8
0
  6
Continuous
 62
     7
370
    25
100
AcDbLine
 10
184.0122786485
 20
120.7632149211
 30
0.0
 11
185.0122788124
 21
120.7632149211
 31
0.0
  0
LINE
  5
343
330
1F
100
AcDbEntity
  8
0
  6
Continuous
 62
     7
370
    25
100
AcDbLine
 10
185.0122788124
 20
120.2632148391
 30
0.0
 11
185.0122788124
 21
120.7632149211
 31
0.0
  0
LINE
  5
344
330
1F
100
AcDbEntity
  8
0
  6
Continuous
 62
     7
370
    25
100
AcDbLine
 10
194.1122789536
 20
120.2632148391
 30
0.0
 11
185.0122788124
 21
120.2632148391
 31
0.0
  0
LINE
  5
345
330
1F
100
AcDbEntity
  8
0
  6
Continuous
 62
     7
370
    25
100
AcDbLine
 10
185.0122788124
 20
120.7632149211
 30
0.0
 11
194.1122789536
 21
120.7632149211
 31
0.0
  0
LINE
  5
346
330
1F
100
AcDbEntity
  8
0
  6
Continuous
 62
     7
370
    25
100
AcDbLine
 10
194.1122789536
 20
121.263215003
 30
0.0
 11
185.0122788124
 21
121.263215003
 31
0.0
  0
LINE
  5
347
330
1F
100
AcDbEntity
  8
0
  6
Continuous
 62
     7
370
    25
100
AcDbLine
 10
185.0122788124
 20
121.263215003
 30
0.0
 11
185.0122788124
 21
120.7632149211
 31
0.0
  0
LINE
  5
348
330
1F
100
AcDbEntity
  8
0
  6
Continuous
 62
     7
370
    25
100
AcDbLine
 10
185.0122788124
 20
121.263215003
 30
0.0
 11
184.0122786485
 21
121.263215003
 31
0.0
  0
LINE
  5
349
330
1F
100
AcDbEntity
  8
0
  6
Continuous
 62
     7
370
    25
100
AcDbLine
 10
184.0122786485
 20
120.7632149211
 30
0.0
 11
184.0122786485
 21
121.263215003
 31
0.0
  0
LINE
  5
34A
330
1F
100
AcDbEntity
  8
0
  6
Continuous
 62
     7
370
    25
100
AcDbLine
 10
185.0122788124
 20
121.263215003
 30
0.0
 11
185.0122788124
 21
121.763215085
 31
0.0
  0
ARC
  5
34B
330
1F
100
AcDbEntity
  8
0
  6
Continuous
 62
     7
370
    25
100
AcDbCircle
 10
184.5122788646
 20
121.2632152131
 30
0.0
 40
0.5
100
AcDbArc
 50
90.0
 51
180.0
  0
LINE
  5
34C
330
1F
100
AcDbEntity
  8
0
  6
Continuous
 62
     7
370
    25
100
AcDbLine
 10
184.5122787305
 20
121.763215085
 30
0.0
 11
185.0122788124
 21
121.763215085
 31
0.0
  0
LINE
  5
34D
330
1F
100
AcDbEntity
  8
0
  6
Continuous
 62
     7
370
    25
100
AcDbLine
 10
185.0122788124
 20
121.763215085
 30
0.0
 11
194.1122789536
 21
121.763215085
 31
0.0
  0
LINE
  5
34E
330
1F
100
AcDbEntity
  8
0
  6
Continuous
 62
     7
370
    25
100
AcDbLine
 10
200.5122785591
 20
122.4132153778
 30
0.0
 11
200.5122785591
 21
124.713215196
 31
0.0
  0
LINE
  5
34F
330
1F
100
AcDbEntity
  8
0
  6
Continuous
 62
     7
370
    25
100
AcDbLine
 10
199.7122789868
 20
124.713215196
 30
0.0
 11
200.5122785591
 21
124.713215196
 31
0.0
  0
LINE
  5
350
330
1F
100
AcDbEntity
  8
0
  6
Continuous
 62
     7
370
    25
100
AcDbLine
 10
199.7122789868
 20
122.4132153778
 30
0.0
 11
199.7122789868
 21
124.713215196
 31
0.0
  0
LINE
  5
351
330
1F
100
AcDbEntity
  8
0
  6
Continuous
 62
     7
370
    25
100
AcDbLine
 10
199.7122789868
 20
122.4132153778
 30
0.0
 11
200.5122785591
 21
122.4132153778
 31
0.0
  0
LINE
  5
352
330
1F
100
AcDbEntity
  8
0
  6
Continuous
 62
     7
370
    25
100
AcDbLine
 10
202.9230899312
 20
122.4132153778
 30
0.0
 11
202.9230899312
 21
124.713215196
 31
0.0
  0
LINE
  5
353
330
1F
100
AcDbEntity
  8
0
  6
Continuous
 62
     7
370
    25
100
AcDbLine
 10
200.5122785591
 20
124.713215196
 30
0.0
 11
202.9230899312
 21
124.713215196
 31
0.0
  0
LINE
  5
354
330
1F
100
AcDbEntity
  8
0
  6
Continuous
 62
     7
370
    25
100
AcDbLine
 10
200.5122785591
 20
122.4132153778
 30
0.0
 11
202.9230899312
 21
122.4132153778
 31
0.0
  0
LINE
  5
355
330
1F
100
AcDbEntity
  8
0
  6
Continuous
 62
     7
370
    25
100
AcDbLine
 10
205.9122786992
 20
127.0632151621
 30
0.0
 11
205.212278957
 21
127.0632151621
 31
0.0
  0
LINE
  5
356
330
1F
100
AcDbEntity
  8
0
  6
Continuous
 62
     7
370
    25
100
AcDbLine
 10
205.212278957
 20
127.0632151621
 30
0.0
 11
205.212278957
 21
127.3632151182
 31
0.0
  0
LINE
  5
357
330
1F
100
AcDbEntity
  8
0
  6
Continuous
 62
     7
370
    25
100
AcDbLine
 10
205.212278957
 20
127.3632151182
 30
0.0
 11
206.2122791209
 21
127.3632151182
 31
0.0
  0
ARC
  5
358
330
1F
100
AcDbEntity
  8
0
  6
Continuous
 62
     7
370
    25
100
AcDbCircle
 10
205.9122788646
 20
127.3632152131
 30
0.0
 40
0.2999999999999972
100
AcDbArc
 50
270.0
 51
0.0
  0
LINE
  5
359
330
1F
100
AcDbEntity
  8
0
  6
Continuous
 62
     7
370
    25
100
AcDbLine
 10
195.8122790926
 20
127.3632151182
 30
0.0
 11
205.212278957
 21
127.3632151182
 31
0.0
  0
LINE
  5
35A
330
1F
100
AcDbEntity
  8
0
  6
Continuous
 62
     7
370
    25
100
AcDbLine
 10
205.212278957
 20
127.0632151621
 30
0.0
 11
195.8122790926
 21
127.0632151621
 31
0.0
  0
LINE
  5
35B
330
1F
100
AcDbEntity
  8
0
  6
Continuous
 62
     7
370
    25
100
AcDbLine
 10
206.2122791209
 20
127.7632152536
 30
0.0
 11
205.212278957
 21
127.7632152536
 31
0.0
  0
LINE
  5
35C
330
1F
100
AcDbEntity
  8
0
  6
Continuous
 62
     7
370
    25
100
AcDbLine
 10
206.2122791209
 20
127.7632152536
 30
0.0
 11
206.2122791209
 21
127.3632151182
 31
0.0
  0
LINE
  5
35D
330
1F
100
AcDbEntity
  8
0
  6
Continuous
 62
     7
370
    25
100
AcDbLine
 10
205.212278957
 20
127.3632151182
 30
0.0
 11
205.212278957
 21
127.7632152536
 31
0.0
  0
LINE
  5
35E
330
1F
100
AcDbEntity
  8
0
  6
Continuous
 62
     7
370
    25
100
AcDbLine
 10
205.212278957
 20
127.7632152536
 30
0.0
 11
195.8122790926
 21
127.7632152536
 31
0.0
  0
LINE
  5
35F
330
1F
100
AcDbEntity
  8
0
  6
Continuous
 62
     7
370
    25
100
AcDbLine
 10
205.212278957
 20
127.7632152536
 30
0.0
 11
205.212278957
 21
128.0632152096
 31
0.0
  0
LINE
  5
360
330
1F
100
AcDbEntity
  8
0
  6
Continuous
 62
     7
370
    25
100
AcDbLine
 10
205.212278957
 20
128.0632152096
 30
0.0
 11
205.9122786992
 21
128.0632152096
 31
0.0
  0
ARC
  5
361
330
1F
100
AcDbEntity
  8
0
  6
Continuous
 62
     7
370
    25
100
AcDbCircle
 10
205.9122788646
 20
127.7632152131
 30
0.0
 40
0.3000000000000256
100
AcDbArc
 50
0.0
 51
90.0
  0
LINE
  5
362
330
1F
100
AcDbEntity
  8
0
  6
Continuous
 62
     7
370
    25
100
AcDbLine
 10
195.8122790926
 20
128.0632152096
 30
0.0
 11
205.212278957
 21
128.0632152096
 31
0.0
  0
LINE
  5
363
330
1F
100
AcDbEntity
  8
0
  6
Continuous
 62
     7
370
    25
100
AcDbLine
 10
196.8730042823
 20
107.9632143131
 30
0.0
 11
198.5730041884
 21
108.3632154963
 31
0.0
  0
LWPOLYLINE
  5
364
330
1F
100
AcDbEntity
  8
0
  6
Continuous
 62
     7
370
    25
100
AcDbPolyline
 90
        9
 70
   128
 43
0.0
 10
198.5730041884
 20
108.3632154963
 10
198.6001750589
 20
108.129107078
 10
198.6263023824
 20
107.9039952359
 10
198.6503807962
 20
107.6965300939
 10
198.6714864284
 20
107.5146874985
 10
198.6888067
 20
107.3654523692
 10
198.7016771123
 20
107.2545597902
 10
198.7096026674
 20
107.1862733564
 10
198.7122788229
 20
107.1632156721
  0
LINE
  5
365
330
1F
100
AcDbEntity
  8
0
  6
Continuous
 62
     7
370
    25
100
AcDbLine
 10
198.7122788229
 20
107.1632156721
 30
0.0
 11
197.0122789167
 21
106.763214489
 31
0.0
  0
LWPOLYLINE
  5
366
330
1F
100
AcDbEntity
  8
0
  6
Continuous
 62
     7
370
    25
100
AcDbPolyline
 90
        9
 70
   128
 43
0.0
 10
196.8730042823
 20
107.9632143131
 10
196.9001751528
 20
107.7291077575
 10
196.9263024763
 20
107.5039959154
 10
196.9503808901
 20
107.2965307734
 10
196.9714860566
 20
107.1146863154
 10
196.9888067939
 20
106.965451186
 10
197.0016772062
 20
106.8545604697
 10
197.0096027613
 20
106.7862721733
 10
197.0122789167
 20
106.763214489
  0
LINE
  5
367
330
1F
100
AcDbEntity
  8
0
  6
Continuous
 62
     7
370
    25
100
AcDbLine
 10
195.8122790926
 20
107.9632143131
 30
0.0
 11
196.8730042823
 21
107.9632143131
 31
0.0
  0
LINE
  5
368
330
1F
100
AcDbEntity
  8
0
  6
Continuous
 62
     7
370
    25
100
AcDbLine
 10
197.0122789167
 20
106.763214489
 30
0.0
 11
194.6122788027
 21
106.763214489
 31
0.0
  0
LINE
  5
369
330
1F
100
AcDbEntity
  8
0
  6
Continuous
 62
     7
370
    25
100
AcDbLine
 10
166.3122779824
 20
108.2632156661
 30
0.0
 11
166.3122779824
 21
106.763214489
 31
0.0
  0
LINE
  5
36A
330
1F
100
AcDbEntity
  8
0
  6
Continuous
 62
     7
370
    25
100
AcDbLine
 10
166.3122779824
 20
108.2632156661
 30
0.0
 11
186.3405278087
 21
108.2632156661
 31
0.0
  0
LINE
  5
36B
330
1F
100
AcDbEntity
  8
0
  6
Continuous
 62
     7
370
    25
100
AcDbLine
 10
181.9856890612
 20
106.763214489
 30
0.0
 11
166.3122779824
 21
106.763214489
 31
0.0
  0
ARC
  5
36C
330
1F
100
AcDbEntity
  8
0
  6
Continuous
 62
     7
370
    25
100
AcDbCircle
 10
166.3122788646
 20
107.0632152131
 30
0.0
 40
0.3000000000000114
100
AcDbArc
 50
180.0
 51
270.0
  0
LINE
  5
36D
330
1F
100
AcDbEntity
  8
0
  6
Continuous
 62
     7
370
    25
100
AcDbLine
 10
166.0122784921
 20
107.063215842
 30
0.0
 11
166.0122784921
 21
108.2632156661
 31
0.0
  0
LINE
  5
36E
330
1F
100
AcDbEntity
  8
0
  6
Continuous
 62
     7
370
    25
100
AcDbLine
 10
166.3122779824
 20
108.2632156661
 30
0.0
 11
166.0122784921
 21
108.2632156661
 31
0.0
  0
LINE
  5
36F
330
1F
100
AcDbEntity
  8
0
  6
Continuous
 62
     7
370
    25
100
AcDbLine
 10
198.5730041884
 20
108.3632154963
 30
0.0
 11
212.712279255
 21
108.3632154963
 31
0.0
  0
ELLIPSE
  5
370
330
1F
100
AcDbEntity
  8
0
  6
Continuous
 62
     7
370
    25
100
AcDbEllipse
 10
211.8122788646
 20
108.3632152131
 30
0.0
 11
0.0
 21
1.200000000000003
 31
0.0
210
0.0
220
0.0
230
1.0
 40
0.75
 41
3.141592653589793
 42
4.7123889803847
  0
LINE
  5
371
330
1F
100
AcDbEntity
  8
0
  6
Continuous
 62
     7
370
    25
100
AcDbLine
 10
211.8122789212
 20
107.1632156721
 30
0.0
 11
198.7122788229
 21
107.1632156721
 31
0.0
  0
ARC
  5
372
330
1F
100
AcDbEntity
  8
0
  6
Continuous
 62
     7
370
    25
100
AcDbCircle
 10
211.8122788646
 20
108.3632152131
 30
0.0
 40
1.200000000000017
100
AcDbArc
 50
270.0
 51
0.0
  0
LINE
  5
373
330
1F
100
AcDbEntity
  8
0
  6
Continuous
 62
     7
370
    25
100
AcDbLine
 10
212.712279255
 20
108.3632154963
 30
0.0
 11
213.0122787454
 21
108.3632154963
 31
0.0
  0
LINE
  5
374
330
1F
100
AcDbEntity
  8
0
  6
Continuous
 62
     7
370
    25
100
AcDbLine
 10
166.3122779824
 20
112.2132154754
 30
0.0
 11
166.3122779824
 21
108.2632156661
 31
0.0
  0
LINE
  5
375
330
1F
100
AcDbEntity
  8
0
  6
Continuous
 62
     7
370
    25
100
AcDbLine
 10
166.3122779824
 20
112.2132154754
 30
0.0
 11
194.1122789536
 21
112.2132154754
 31
0.0
  0
LINE
  5
376
330
1F
100
AcDbEntity
  8
0
  6
Continuous
 62
     7
370
    25
100
AcDbLine
 10
194.1122789536
 20
113.71321479
 30
0.0
 11
166.3122779824
 21
113.71321479
 31
0.0
  0
LINE
  5
377
330
1F
100
AcDbEntity
  8
0
  6
Continuous
 62
     7
370
    25
100
AcDbLine
 10
166.3122779824
 20
127.8632152001
 30
0.0
 11
166.3122779824
 21
113.71321479
 31
0.0
  0
LINE
  5
378
330
1F
100
AcDbEntity
  8
0
  6
Continuous
 62
     7
370
    25
100
AcDbLine
 10
186.3405278087
 20
127.8632152001
 30
0.0
 11
166.3122779824
 21
127.8632152001
 31
0.0
  0
LINE
  5
379
330
1F
100
AcDbEntity
  8
0
  6
Continuous
 62
     7
370
    25
100
AcDbLine
 10
195.8122790926
 20
124.713215196
 30
0.0
 11
199.7122789868
 21
124.713215196
 31
0.0
  0
LINE
  5
37A
330
1F
100
AcDbEntity
  8
0
  6
Continuous
 62
     7
370
    25
100
AcDbLine
 10
195.8122790926
 20
122.4132153778
 30
0.0
 11
199.7122789868
 21
122.4132153778
 31
0.0
  0
LINE
  5
37B
330
1F
100
AcDbEntity
  8
0
  6
Continuous
 62
     7
370
    25
100
AcDbLine
 10
195.8122790926
 20
114.1132150418
 30
0.0
 11
199.7122789868
 21
114.1132150418
 31
0.0
  0
LINE
  5
37C
330
1F
100
AcDbEntity
  8
0
  6
Continuous
 62
     7
370
    25
100
AcDbLine
 10
195.8122790926
 20
111.8132142923
 30
0.0
 11
199.7122789868
 21
111.8132142923
 31
0.0
  0
LINE
  5
37D
330
1F
100
AcDbEntity
  8
0
  6
Continuous
 62
     7
370
    25
100
AcDbLine
 10
212.712279255
 20
109.1632159999
 30
0.0
 11
206.2122791209
 21
109.1632159999
 31
0.0
  0
LINE
  5
37E
330
1F
100
AcDbEntity
  8
0
  6
Continuous
 62
     7
370
    25
100
AcDbLine
 10
212.712279255
 20
108.3632154963
 30
0.0
 11
212.712279255
 21
109.1632159999
 31
0.0
  0
LINE
  5
37F
330
1F
100
AcDbEntity
  8
0
  6
Continuous
 62
     7
370
    25
100
AcDbLine
 10
166.0122784921
 20
108.2632156661
 30
0.0
 11
166.0122784921
 21
112.3132153055
 31
0.0
  0
SPLINE
  5
380
330
1F
100
AcDbEntity
  8
0
  6
Continuous
 62
     7
370
    25
100
AcDbSpline
210
0.0
220
0.0
230
1.0
 70
     8
 71
     3
 72
    12
 73
     8
 74
     0
 42
0.000000001
 43
0.00000001
 40
0.0
 40
0.0
 40
0.0
 40
0.0
 40
0.2500000000000001
 40
0.2500000000000001
 40
0.5000000000000002
 40
0.5000000000000002
 40
1.0
 40
1.0
 40
1.0
 40
1.0
 10
166.0122788645843
 20
112.3132152131475
 30
0.0
 10
166.0122788645843
 20
112.2884137353711
 30
0.0
 10
166.0178638376437
 20
112.2680711933914
 30
0.0
 10
166.0443972094172
 20
112.2378249955769
 30
0.0
 10
166.0655438583191
 20
112.228060894409
 30
0.0
 10
166.1484204226673
 20
112.2108958442722
 30
0.0
 10
166.2295044047251
 20
112.2132152131475
 30
0.0
 10
166.3122788645843
 20
112.2132152131475
 30
0.0
  0
LINE
  5
381
330
1F
100
AcDbEntity
  8
0
  6
Continuous
 62
     7
370
    25
100
AcDbLine
 10
213.0122787454
 20
109.1632159999
 30
0.0
 11
212.712279255
 21
109.1632159999
 31
0.0
  0
LINE
  5
382
330
1F
100
AcDbEntity
  8
0
  6
Continuous
 62
     7
370
    25
100
AcDbLine
 10
213.0122787454
 20
109.1632159999
 30
0.0
 11
213.0122787454
 21
108.3632154963
 31
0.0
  0
LINE
  5
383
330
1F
100
AcDbEntity
  8
0
  6
Continuous
 62
     7
370
    25
100
AcDbLine
 10
212.712279255
 20
109.1632159999
 30
0.0
 11
212.712279255
 21
109.4632154903
 31
0.0
  0
LINE
  5
384
330
1F
100
AcDbEntity
  8
0
  6
Continuous
 62
     7
370
    25
100
AcDbLine
 10
205.9122786992
 20
109.4632154903
 30
0.0
 11
212.712279255
 21
109.4632154903
 31
0.0
  0
ARC
  5
385
330
1F
100
AcDbEntity
  8
0
  6
Continuous
 62
     7
370
    25
100
AcDbCircle
 10
212.7122788646
 20
109.1632152131
 30
0.0
 40
0.2999999999999972
100
AcDbArc
 50
0.0
 51
90.0
  0
LINE
  5
386
330
1F
100
AcDbEntity
  8
0
  6
Continuous
 62
     7
370
    25
100
AcDbLine
 10
212.712279255
 20
111.8132142923
 30
0.0
 11
212.712279255
 21
114.1132150418
 31
0.0
  0
ARC
  5
387
330
1F
100
AcDbEntity
  8
0
  6
Continuous
 62
     7
370
    25
100
AcDbCircle
 10
212.7122788646
 20
113.8132152131
 30
0.0
 40
0.2999999999999972
100
AcDbArc
 50
0.0
 51
90.0
  0
LINE
  5
388
330
1F
100
AcDbEntity
  8
0
  6
Continuous
 62
     7
370
    25
100
AcDbLine
 10
213.0122787454
 20
113.8132155514
 30
0.0
 11
213.0122787454
 21
112.1132156453
 31
0.0
  0
ARC
  5
389
330
1F
100
AcDbEntity
  8
0
  6
Continuous
 62
     7
370
    25
100
AcDbCircle
 10
212.7122788646
 20
112.1132152131
 30
0.0
 40
0.2999999999999972
100
AcDbArc
 50
270.0
 51
0.0
  0
LINE
  5
38A
330
1F
100
AcDbEntity
  8
0
  6
Continuous
 62
     7
370
    25
100
AcDbLine
 10
202.9230899312
 20
114.1132150418
 30
0.0
 11
212.712279255
 21
114.1132150418
 31
0.0
  0
LINE
  5
38B
330
1F
100
AcDbEntity
  8
0
  6
Continuous
 62
     7
370
    25
100
AcDbLine
 10
202.9230899312
 20
111.8132142923
 30
0.0
 11
212.712279255
 21
111.8132142923
 31
0.0
  0
LINE
  5
38C
330
1F
100
AcDbEntity
  8
0
  6
Continuous
 62
     7
370
    25
100
AcDbLine
 10
166.0122784921
 20
112.713214626
 30
0.0
 11
194.1122789536
 21
112.713214626
 31
0.0
  0
LINE
  5
38D
330
1F
100
AcDbEntity
  8
0
  6
Continuous
 62
     7
370
    25
100
AcDbLine
 10
166.0122784921
 20
112.3132153055
 30
0.0
 11
166.0122784921
 21
112.713214626
 31
0.0
  0
LINE
  5
38E
330
1F
100
AcDbEntity
  8
0
  6
Continuous
 62
     7
370
    25
100
AcDbLine
 10
194.1122789536
 20
113.2132156393
 30
0.0
 11
166.0122784921
 21
113.2132156393
 31
0.0
  0
LINE
  5
38F
330
1F
100
AcDbEntity
  8
0
  6
Continuous
 62
     7
370
    25
100
AcDbLine
 10
166.0122784921
 20
113.2132156393
 30
0.0
 11
166.0122784921
 21
113.6132149598
 31
0.0
  0
SPLINE
  5
390
330
1F
100
AcDbEntity
  8
0
  6
Continuous
 62
     7
370
    25
100
AcDbSpline
210
0.0
220
0.0
230
1.0
 70
     8
 71
     3
 72
    12
 73
     8
 74
     0
 42
0.000000001
 43
0.00000001
 40
0.0
 40
0.0
 40
0.0
 40
0.0
 40
0.4999999999999944
 40
0.4999999999999944
 40
0.7499999999999972
 40
0.7499999999999972
 40
1.0
 40
1.0
 40
1.0
 40
1.0
 10
166.3122788645844
 20
113.7132152131475
 30
0.0
 10
166.2295172154544
 20
113.7132152131475
 30
0.0
 10
166.148391688946
 20
113.7155119482762
 30
0.0
 10
166.065660373093
 20
113.6984019897684
 30
0.0
 10
166.0444317872457
 20
113.6886291954996
 30
0.0
 10
166.0178747680963
 20
113.6583873175902
 30
0.0
 10
166.0122788645843
 20
113.6380205511507
 30
0.0
 10
166.0122788645843
 20
113.6132152131475
 30
0.0
  0
LINE
  5
391
330
1F
100
AcDbEntity
  8
0
  6
Continuous
 62
     7
370
    25
100
AcDbLine
 10
166.0122784921
 20
113.6132149598
 30
0.0
 11
166.0122784921
 21
127.8632152001
 31
0.0
  0
LINE
  5
392
330
1F
100
AcDbEntity
  8
0
  6
Continuous
 62
     7
370
    25
100
AcDbLine
 10
166.3122779824
 20
127.8632152001
 30
0.0
 11
166.0122784921
 21
127.8632152001
 31
0.0
  0
LINE
  5
393
330
1F
100
AcDbEntity
  8
0
  6
Continuous
 62
     7
370
    25
100
AcDbLine
 10
206.2122791209
 20
116.7632151968
 30
0.0
 11
212.712279255
 21
116.7632151968
 31
0.0
  0
LINE
  5
394
330
1F
100
AcDbEntity
  8
0
  6
Continuous
 62
     7
370
    25
100
AcDbLine
 10
212.712279255
 20
116.4632147751
 30
0.0
 11
212.712279255
 21
116.7632151968
 31
0.0
  0
LINE
  5
395
330
1F
100
AcDbEntity
  8
0
  6
Continuous
 62
     7
370
    25
100
AcDbLine
 10
212.712279255
 20
116.4632147751
 30
0.0
 11
205.9122786992
 21
116.4632147751
 31
0.0
  0
ARC
  5
396
330
1F
100
AcDbEntity
  8
0
  6
Continuous
 62
     7
370
    25
100
AcDbCircle
 10
212.7122788646
 20
116.7632152131
 30
0.0
 40
0.3000000000000114
100
AcDbArc
 50
270.0
 51
0.0
  0
LINE
  5
397
330
1F
100
AcDbEntity
  8
0
  6
Continuous
 62
     7
370
    25
100
AcDbLine
 10
213.0122787454
 20
116.7632151968
 30
0.0
 11
212.712279255
 21
116.7632151968
 31
0.0
  0
LINE
  5
398
330
1F
100
AcDbEntity
  8
0
  6
Continuous
 62
     7
370
    25
100
AcDbLine
 10
212.712279255
 20
117.1632154486
 30
0.0
 11
206.2122791209
 21
117.1632154486
 31
0.0
  0
LINE
  5
399
330
1F
100
AcDbEntity
  8
0
  6
Continuous
 62
     7
370
    25
100
AcDbLine
 10
212.712279255
 20
116.7632151968
 30
0.0
 11
212.712279255
 21
117.1632154486
 31
0.0
  0
LINE
  5
39A
330
1F
100
AcDbEntity
  8
0
  6
Continuous
 62
     7
370
    25
100
AcDbLine
 10
213.0122787454
 20
117.1632154486
 30
0.0
 11
213.0122787454
 21
116.7632151968
 31
0.0
  0
LINE
  5
39B
330
1F
100
AcDbEntity
  8
0
  6
Continuous
 62
     7
370
    25
100
AcDbLine
 10
213.0122787454
 20
117.1632154486
 30
0.0
 11
212.712279255
 21
117.1632154486
 31
0.0
  0
LINE
  5
39C
330
1F
100
AcDbEntity
  8
0
  6
Continuous
 62
     7
370
    25
100
AcDbLine
 10
212.712279255
 20
117.1632154486
 30
0.0
 11
212.712279255
 21
117.463214939
 31
0.0
  0
LINE
  5
39D
330
1F
100
AcDbEntity
  8
0
  6
Continuous
 62
     7
370
    25
100
AcDbLine
 10
205.9122786992
 20
117.463214939
 30
0.0
 11
212.712279255
 21
117.463214939
 31
0.0
  0
ARC
  5
39E
330
1F
100
AcDbEntity
  8
0
  6
Continuous
 62
     7
370
    25
100
AcDbCircle
 10
212.7122788646
 20
117.1632152131
 30
0.0
 40
0.2999999999999972
100
AcDbArc
 50
0.0
 51
90.0
  0
LINE
  5
39F
330
1F
100
AcDbEntity
  8
0
  6
Continuous
 62
     7
370
    25
100
AcDbLine
 10
206.2122791209
 20
119.3632154367
 30
0.0
 11
212.712279255
 21
119.3632154367
 31
0.0
  0
LINE
  5
3A0
330
1F
100
AcDbEntity
  8
0
  6
Continuous
 62
     7
370
    25
100
AcDbLine
 10
212.712279255
 20
119.063215015
 30
0.0
 11
212.712279255
 21
119.3632154367
 31
0.0
  0
LINE
  5
3A1
330
1F
100
AcDbEntity
  8
0
  6
Continuous
 62
     7
370
    25
100
AcDbLine
 10
212.712279255
 20
119.063215015
 30
0.0
 11
205.9122786992
 21
119.063215015
 31
0.0
  0
LINE
  5
3A2
330
1F
100
AcDbEntity
  8
0
  6
Continuous
 62
     7
370
    25
100
AcDbLine
 10
212.712279255
 20
119.7632147572
 30
0.0
 11
206.2122791209
 21
119.7632147572
 31
0.0
  0
LINE
  5
3A3
330
1F
100
AcDbEntity
  8
0
  6
Continuous
 62
     7
370
    25
100
AcDbLine
 10
212.712279255
 20
119.3632154367
 30
0.0
 11
212.712279255
 21
119.7632147572
 31
0.0
  0
ARC
  5
3A4
330
1F
100
AcDbEntity
  8
0
  6
Continuous
 62
     7
370
    25
100
AcDbCircle
 10
212.7122788646
 20
119.3632152131
 30
0.0
 40
0.2999999999999972
100
AcDbArc
 50
270.0
 51
0.0
  0
LINE
  5
3A5
330
1F
100
AcDbEntity
  8
0
  6
Continuous
 62
     7
370
    25
100
AcDbLine
 10
213.0122787454
 20
119.3632154367
 30
0.0
 11
212.712279255
 21
119.3632154367
 31
0.0
  0
LINE
  5
3A6
330
1F
100
AcDbEntity
  8
0
  6
Continuous
 62
     7
370
    25
100
AcDbLine
 10
212.712279255
 20
119.7632147572
 30
0.0
 11
212.712279255
 21
120.0632151789
 31
0.0
  0
LINE
  5
3A7
330
1F
100
AcDbEntity
  8
0
  6
Continuous
 62
     7
370
    25
100
AcDbLine
 10
205.9122786992
 20
120.0632151789
 30
0.0
 11
212.712279255
 21
120.0632151789
 31
0.0
  0
LINE
  5
3A8
330
1F
100
AcDbEntity
  8
0
  6
Continuous
 62
     7
370
    25
100
AcDbLine
 10
213.0122787454
 20
119.7632147572
 30
0.0
 11
213.0122787454
 21
119.3632154367
 31
0.0
  0
LINE
  5
3A9
330
1F
100
AcDbEntity
  8
0
  6
Continuous
 62
     7
370
    25
100
AcDbLine
 10
213.0122787454
 20
119.7632147572
 30
0.0
 11
212.712279255
 21
119.7632147572
 31
0.0
  0
ARC
  5
3AA
330
1F
100
AcDbEntity
  8
0
  6
Continuous
 62
     7
370
    25
100
AcDbCircle
 10
212.7122788646
 20
119.7632152131
 30
0.0
 40
0.3000000000000114
100
AcDbArc
 50
0.0
 51
90.0
  0
LINE
  5
3AB
330
1F
100
AcDbEntity
  8
0
  6
Continuous
 62
     7
370
    25
100
AcDbLine
 10
212.712279255
 20
122.4132153778
 30
0.0
 11
212.712279255
 21
124.713215196
 31
0.0
  0
LINE
  5
3AC
330
1F
100
AcDbEntity
  8
0
  6
Continuous
 62
     7
370
    25
100
AcDbLine
 10
202.9230899312
 20
124.713215196
 30
0.0
 11
212.712279255
 21
124.713215196
 31
0.0
  0
LINE
  5
3AD
330
1F
100
AcDbEntity
  8
0
  6
Continuous
 62
     7
370
    25
100
AcDbLine
 10
202.9230899312
 20
122.4132153778
 30
0.0
 11
212.712279255
 21
122.4132153778
 31
0.0
  0
ARC
  5
3AE
330
1F
100
AcDbEntity
  8
0
  6
Continuous
 62
     7
370
    25
100
AcDbCircle
 10
212.7122788646
 20
124.4132152131
 30
0.0
 40
0.2999999999999972
100
AcDbArc
 50
0.0
 51
90.0
  0
LINE
  5
3AF
330
1F
100
AcDbEntity
  8
0
  6
Continuous
 62
     7
370
    25
100
AcDbLine
 10
213.0122787454
 20
124.41321524
 30
0.0
 11
213.0122787454
 21
122.7132153338
 31
0.0
  0
ARC
  5
3B0
330
1F
100
AcDbEntity
  8
0
  6
Continuous
 62
     7
370
    25
100
AcDbCircle
 10
212.7122788646
 20
122.7132152131
 30
0.0
 40
0.2999999999999829
100
AcDbArc
 50
270.0
 51
0.0
  0
LINE
  5
3B1
330
1F
100
AcDbEntity
  8
0
  6
Continuous
 62
     7
370
    25
100
AcDbLine
 10
206.2122791209
 20
127.3632151182
 30
0.0
 11
212.712279255
 21
127.3632151182
 31
0.0
  0
LINE
  5
3B2
330
1F
100
AcDbEntity
  8
0
  6
Continuous
 62
     7
370
    25
100
AcDbLine
 10
212.712279255
 20
127.0632151621
 30
0.0
 11
212.712279255
 21
127.3632151182
 31
0.0
  0
LINE
  5
3B3
330
1F
100
AcDbEntity
  8
0
  6
Continuous
 62
     7
370
    25
100
AcDbLine
 10
212.712279255
 20
127.0632151621
 30
0.0
 11
205.9122786992
 21
127.0632151621
 31
0.0
  0
LINE
  5
3B4
330
1F
100
AcDbEntity
  8
0
  6
Continuous
 62
     7
370
    25
100
AcDbLine
 10
212.712279255
 20
127.3632151182
 30
0.0
 11
213.0122787454
 21
127.3632151182
 31
0.0
  0
ARC
  5
3B5
330
1F
100
AcDbEntity
  8
0
  6
Continuous
 62
     7
370
    25
100
AcDbCircle
 10
212.7122788646
 20
127.3632152131
 30
0.0
 40
0.2999999999999972
100
AcDbArc
 50
270.0
 51
0.0
  0
LINE
  5
3B6
330
1F
100
AcDbEntity
  8
0
  6
Continuous
 62
     7
370
    25
100
AcDbLine
 10
212.712279255
 20
128.1632151562
 30
0.0
 11
195.8122790926
 21
128.1632151562
 31
0.0
  0
LINE
  5
3B7
330
1F
100
AcDbEntity
  8
0
  6
Continuous
 62
     7
370
    25
100
AcDbLine
 10
212.712279255
 20
127.3632151182
 30
0.0
 11
212.712279255
 21
128.1632151562
 31
0.0
  0
LINE
  5
3B8
330
1F
100
AcDbEntity
  8
0
  6
Continuous
 62
     7
370
    25
100
AcDbLine
 10
213.0122787454
 20
128.1632151562
 30
0.0
 11
212.712279255
 21
128.1632151562
 31
0.0
  0
LINE
  5
3B9
330
1F
100
AcDbEntity
  8
0
  6
Continuous
 62
     7
370
    25
100
AcDbLine
 10
213.0122787454
 20
128.1632151562
 30
0.0
 11
213.0122787454
 21
127.3632151182
 31
0.0
  0
LINE
  5
3BA
330
1F
100
AcDbEntity
  8
0
  6
Continuous
 62
     7
370
    25
100
AcDbLine
 10
166.3122779824
 20
129.3632152131
 30
0.0
 11
166.3122779824
 21
127.8632152001
 31
0.0
  0
LINE
  5
3BB
330
1F
100
AcDbEntity
  8
0
  6
Continuous
 62
     7
370
    25
100
AcDbLine
 10
166.3122779824
 20
129.3632152131
 30
0.0
 11
181.9856890612
 21
129.3632152131
 31
0.0
  0
LINE
  5
3BC
330
1F
100
AcDbEntity
  8
0
  6
Continuous
 62
     7
370
    25
100
AcDbLine
 10
166.0122784921
 20
127.8632152001
 30
0.0
 11
166.0122784921
 21
129.0632151989
 31
0.0
  0
ARC
  5
3BD
330
1F
100
AcDbEntity
  8
0
  6
Continuous
 62
     7
370
    25
100
AcDbCircle
 10
166.3122788646
 20
129.0632152131
 30
0.0
 40
0.3000000000000114
100
AcDbArc
 50
90.0
 51
180.0
  0
ARC
  5
3BE
330
1F
100
AcDbEntity
  8
0
  6
Continuous
 62
     7
370
    25
100
AcDbCircle
 10
211.8122788646
 20
128.1632152131
 30
0.0
 40
1.200000000000017
100
AcDbArc
 50
0.0
 51
90.0
  0
ELLIPSE
  5
3BF
330
1F
100
AcDbEntity
  8
0
  6
Continuous
 62
     7
370
    25
100
AcDbEllipse
 10
211.8122788646
 20
128.1632152131
 30
0.0
 11
0.0
 21
1.199999999999989
 31
0.0
210
0.0
220
0.0
230
1.0
 40
0.75
 41
4.7123889803847
 42
6.283185307179586
  0
LINE
  5
3C0
330
1F
100
AcDbEntity
  8
0
  6
Continuous
 62
     7
370
    25
100
AcDbLine
 10
194.6122788027
 20
129.3632152131
 30
0.0
 11
211.8122789212
 21
129.3632152131
 31
0.0
  0
LINE
  5
3C1
330
1F
100
AcDbEntity
  8
0
  6
Continuous
 62
     7
370
    25
100
AcDbLine
 10
166.0122784921
 20
113.2132156393
 30
0.0
 11
166.0122784921
 21
112.713214626
 31
0.0
  0
LINE
  5
3C2
330
1F
100
AcDbEntity
  8
0
  6
Continuous
 62
     7
370
    25
100
AcDbLine
 10
213.0122787454
 20
109.1632159999
 30
0.0
 11
213.0122787454
 21
112.1132156453
 31
0.0
  0
LINE
  5
3C3
330
1F
100
AcDbEntity
  8
0
  6
Continuous
 62
     7
370
    25
100
AcDbLine
 10
213.0122787454
 20
113.8132155514
 30
0.0
 11
213.0122787454
 21
116.7632151968
 31
0.0
  0
LINE
  5
3C4
330
1F
100
AcDbEntity
  8
0
  6
Continuous
 62
     7
370
    25
100
AcDbLine
 10
213.0122787454
 20
117.1632154486
 30
0.0
 11
213.0122787454
 21
119.3632154367
 31
0.0
  0
LINE
  5
3C5
330
1F
100
AcDbEntity
  8
0
  6
Continuous
 62
     7
370
    25
100
AcDbLine
 10
213.0122787454
 20
119.7632147572
 30
0.0
 11
213.0122787454
 21
122.7132153338
 31
0.0
  0
LINE
  5
3C6
330
1F
100
AcDbEntity
  8
0
  6
Continuous
 62
     7
370
    25
100
AcDbLine
 10
213.0122787454
 20
124.41321524
 30
0.0
 11
213.0122787454
 21
127.3632151182
 31
0.0
  0
LINE
  5
3C7
330
1F
100
AcDbEntity
  8
0
  6
Continuous
 62
     7
370
    25
100
AcDbLine
 10
240.5041606339
 20
194.7353861641
 30
0.0
 11
254.8412466262
 21
186.4587625936
 31
0.0
  0
LINE
  5
3C8
330
1F
100
AcDbEntity
  8
0
  6
Continuous
 62
     7
370
    25
100
AcDbLine
 10
254.8412466252
 20
186.4587625953
 30
0.0
 11
254.8412466252
 21
179.2113619719
 31
0.0
  0
SPLINE
  5
3C9
330
1F
100
AcDbEntity
  8
0
  6
Continuous
 62
     7
370
    25
100
AcDbSpline
210
0.0
220
0.0
230
1.0
 70
     8
 71
     3
 72
    14
 73
    10
 74
     0
 42
0.000000001
 43
0.00000001
 40
0.0
 40
0.0
 40
0.0
 40
0.0
 40
0.1049973802229323
 40
0.2996110678203303
 40
0.4726191930251633
 40
0.6386221768249571
 40
0.7989273255510503
 40
0.9705833064232341
 40
0.9999999999999999
 40
0.9999999999999999
 40
0.9999999999999999
 40
0.9999999999999999
 10
254.7791267809677
 20
178.1659073356868
 30
0.0
 10
254.8107393468838
 20
178.1486181025863
 30
0.0
 10
254.9009461178583
 20
178.0992831041316
 30
0.0
 10
255.0473654811046
 20
178.0441467591557
 30
0.0
 10
255.2147069191952
 20
178.0105302666824
 30
0.0
 10
255.3717841703593
 20
178.0072097731422
 30
0.0
 10
255.522973384428
 20
178.0361201965987
 30
0.0
 10
255.6304455968324
 20
178.0730060397873
 30
0.0
 10
255.6806649755987
 20
178.1093007444157
 30
0.0
 10
255.6880120110964
 20
178.1146106166171
 30
0.0
  0
LINE
  5
3CA
330
1F
100
AcDbEntity
  8
0
  6
Continuous
 62
     7
370
    25
100
AcDbLine
 10
255.6790536403
 20
178.1064976751
 30
0.0
 11
267.8646471838
 21
185.1410910922
 31
0.0
  0
LINE
  5
3CB
330
1F
100
AcDbEntity
  8
0
  6
Continuous
 62
     7
370
    25
100
AcDbLine
 10
244.7668636334
 20
183.945863821
 30
0.0
 11
254.779126781
 21
178.1659073357
 31
0.0
  0
SPLINE
  5
3CC
330
1F
100
AcDbEntity
  8
0
  6
Continuous
 62
     7
370
    25
100
AcDbSpline
210
0.0
220
0.0
230
1.0
 70
     8
 71
     3
 72
    13
 73
     9
 74
     0
 42
0.000000001
 43
0.00000001
 40
0.0
 40
0.0
 40
0.0
 40
0.0
 40
0.1404461202705662
 40
0.3089226378601974
 40
0.4789929526186809
 40
0.6544830973219589
 40
0.8374150245145395
 40
1.0
 40
1.0
 40
1.0
 40
1.0
 10
240.3109242593735
 20
195.8012358799792
 30
0.0
 10
240.2753390088101
 20
195.7784446200645
 30
0.0
 10
240.1970663626751
 20
195.7283133945137
 30
0.0
 10
240.1002343734869
 20
195.6193907504274
 30
0.0
 10
240.0184746546448
 20
195.4859786230508
 30
0.0
 10
239.9607896458357
 20
195.3323274647783
 30
0.0
 10
239.9270046094616
 20
195.1694732256485
 30
0.0
 10
239.9231209980011
 20
195.0543107592
 30
0.0
 10
239.9212935421829
 20
195.0001203950261
 30
0.0
  0
LINE
  5
3CD
330
1F
100
AcDbEntity
  8
0
  6
Continuous
 62
     7
370
    25
100
AcDbLine
 10
258.0675329001
 20
206.0548492408
 30
0.0
 11
240.3198826301
 21
195.8093488215
 31
0.0
  0
LINE
  5
3CE
330
1F
100
AcDbEntity
  8
0
  6
Continuous
 62
     7
370
    25
100
AcDbLine
 10
239.9212935422
 20
195.000120395
 30
0.0
 11
239.9212935422
 21
187.8962153316
 31
0.0
  0
LINE
  5
3CF
330
1F
100
AcDbEntity
  8
0
  6
Continuous
 62
     7
370
    25
100
AcDbLine
 10
267.6980716292
 20
185.1111847866
 30
0.0
 11
275.5205838324
 21
186.5156071885
 31
0.0
  0
LINE
  5
3D0
330
1F
100
AcDbEntity
  8
0
  6
Continuous
 62
     7
370
    25
100
AcDbLine
 10
240.9198338697
 20
186.1667068315
 30
0.0
 11
243.7194827736
 21
184.5505039212
 31
0.0
  0
LINE
  5
3D1
330
1F
100
AcDbEntity
  8
0
  6
Continuous
 62
     7
370
    25
100
AcDbLine
 10
273.346753931
 20
200.4950078196
 30
0.0
 11
271.0143258505
 21
199.1485257494
 31
0.0
  0
SPLINE
  5
3D2
330
1F
100
AcDbEntity
  8
0
  6
Continuous
 62
     7
370
    25
100
AcDbSpline
210
0.0
220
0.0
230
1.0
 70
     8
 71
     3
 72
    18
 73
    14
 74
     0
 42
0.000000001
 43
0.00000001
 40
0.0
 40
0.0
 40
0.0
 40
0.0
 40
0.0567740655746303
 40
0.1605299083567711
 40
0.2639538838542288
 40
0.3669803630853174
 40
0.4696764775620552
 40
0.5722844434942191
 40
0.6750906954246856
 40
0.7783459283882471
 40
0.8823917765401935
 40
0.9814723274615846
 40
1.0
 40
1.0
 40
1.0
 40
1.0
 10
239.9212935421829
 20
187.8962153316201
 30
0.0
 10
239.922110178339
 20
187.8599585987621
 30
0.0
 10
239.9244192348768
 20
187.757441896037
 30
0.0
 10
239.9490364346762
 20
187.5829021951955
 30
0.0
 10
240.0015464998587
 20
187.3747673696033
 30
0.0
 10
240.0775528376303
 20
187.1677212537418
 30
0.0
 10
240.1745580892468
 20
186.9661079603936
 30
0.0
 10
240.2905238056012
 20
186.7738828539588
 30
0.0
 10
240.4231662011606
 20
186.5949218309635
 30
0.0
 10
240.5702198424543
 20
186.4328286174575
 30
0.0
 10
240.7264237404223
 20
186.2941025278741
 30
0.0
 10
240.845258003669
 20
186.2105393580969
 30
0.0
 10
240.9096843260134
 20
186.1726723022465
 30
0.0
 10
240.9198338697114
 20
186.1667068315493
 30
0.0
  0
ARC
  5
3D3
330
1F
100
AcDbEntity
  8
0
  6
Continuous
 62
     7
370
    25
100
AcDbCircle
 10
273.9502870048
 20
199.8578813604
 30
0.0
 40
0.5
100
AcDbArc
 50
0.0
 51
60.0026882664
  0
LINE
  5
3D4
330
1F
100
AcDbEntity
  8
0
  6
Continuous
 62
     7
370
    25
100
AcDbLine
 10
274.4502870048
 20
198.8780323862
 30
0.0
 11
274.4502870048
 21
199.8578813604
 31
0.0
  0
LINE
  5
3D5
330
1F
100
AcDbEntity
  8
0
  6
Continuous
 62
     7
370
    25
100
AcDbLine
 10
274.2002666879
 20
200.2909057916
 30
0.0
 11
273.8467132973
 21
200.4950078196
 31
0.0
  0
ARC
  5
3D6
330
1F
100
AcDbEntity
  8
0
  6
Continuous
 62
     7
370
    25
100
AcDbCircle
 10
273.5967336142
 20
200.0619833884
 30
0.0
 40
0.5000000000000423
100
AcDbArc
 50
60.0026882663
 51
119.9973117337
  0
LINE
  5
3D7
330
1F
100
AcDbEntity
  8
0
  6
Continuous
 62
     7
370
    25
100
AcDbLine
 10
267.9020317159
 20
203.6381790501
 30
0.0
 11
265.5696036353
 21
202.2916969799
 31
0.0
  0
LINE
  5
3D8
330
1F
100
AcDbEntity
  8
0
  6
Continuous
 62
     7
370
    25
100
AcDbLine
 10
276.3523685328
 20
187.4058131243
 30
0.0
 11
276.3523685328
 21
189.8974644364
 31
0.0
  0
LINE
  5
3D9
330
1F
100
AcDbEntity
  8
0
  6
Continuous
 62
     7
370
    25
100
AcDbLine
 10
276.3523685288
 20
189.8974644295
 30
0.0
 11
288.3645929761
 21
196.8319739978
 31
0.0
  0
ARC
  5
3DA
330
1F
100
AcDbEntity
  8
0
  6
Continuous
 62
     7
370
    25
100
AcDbCircle
 10
268.5055647896
 20
203.001052591
 30
0.0
 40
0.5
100
AcDbArc
 50
0.0
 51
60.0026882663
  0
LINE
  5
3DB
330
1F
100
AcDbEntity
  8
0
  6
Continuous
 62
     7
370
    25
100
AcDbLine
 10
269.0055647896
 20
202.0212036167
 30
0.0
 11
269.0055647896
 21
203.001052591
 31
0.0
  0
LINE
  5
3DC
330
1F
100
AcDbEntity
  8
0
  6
Continuous
 62
     7
370
    25
100
AcDbLine
 10
268.7555444728
 20
203.4340770221
 30
0.0
 11
268.4019910822
 21
203.6381790501
 31
0.0
  0
ARC
  5
3DD
330
1F
100
AcDbEntity
  8
0
  6
Continuous
 62
     7
370
    25
100
AcDbCircle
 10
268.1520113991
 20
203.2051546189
 30
0.0
 40
0.5000000000000177
100
AcDbArc
 50
60.0026882663
 51
119.9973117336
  0
LINE
  5
3DE
330
1F
100
AcDbEntity
  8
0
  6
Continuous
 62
     7
370
    25
100
AcDbLine
 10
275.5783491562
 20
186.5367323098
 30
0.0
 11
275.9180377043
 21
186.7328303346
 31
0.0
  0
SPLINE
  5
3DF
330
1F
100
AcDbEntity
  8
0
  6
Continuous
 62
     7
370
    25
100
AcDbSpline
210
0.0
220
0.0
230
1.0
 70
     8
 71
     3
 72
    13
 73
     9
 74
     0
 42
0.000000001
 43
0.00000001
 40
0.0
 40
0.0
 40
0.0
 40
0.0
 40
0.1252563878486191
 40
0.3215325189137345
 40
0.5078468978029687
 40
0.6859481768217157
 40
0.8589948025766987
 40
1.0
 40
1.0
 40
1.0
 40
1.0
 10
275.9180377042748
 20
186.7328303345803
 30
0.0
 10
275.9485512356966
 20
186.751601961338
 30
0.0
 10
276.0268793177012
 20
186.7997886330055
 30
0.0
 10
276.1348740926071
 20
186.8925315254168
 30
0.0
 10
276.23400302703
 20
187.012191432185
 30
0.0
 10
276.3036695714923
 20
187.1429642210371
 30
0.0
 10
276.3456879846753
 20
187.2734440027673
 30
0.0
 10
276.3480067628692
 20
187.3602483047487
 30
0.0
 10
276.349047864219
 20
187.3992223110583
 30
0.0
  0
LINE
  5
3E0
330
1F
100
AcDbEntity
  8
0
  6
Continuous
 62
     7
370
    25
100
AcDbLine
 10
276.3523685328
 20
189.303532063
 30
0.0
 11
282.5148455108
 21
192.8610542984
 31
0.0
  0
LINE
  5
3E1
330
1F
100
AcDbEntity
  8
0
  6
Continuous
 62
     7
370
    25
100
AcDbLine
 10
262.4573095008
 20
206.7813502806
 30
0.0
 11
260.1248814202
 21
205.4348682104
 31
0.0
  0
LINE
  5
3E2
330
1F
100
AcDbEntity
  8
0
  6
Continuous
 62
     7
370
    25
100
AcDbLine
 10
260.8960464241
 20
206.1933078302
 30
0.0
 11
258.42117269
 21
206.1527130148
 31
0.0
  0
SPLINE
  5
3E3
330
1F
100
AcDbEntity
  8
0
  6
Continuous
 62
     7
370
    25
100
AcDbSpline
210
0.0
220
0.0
230
1.0
 70
     8
 71
     3
 72
    14
 73
    10
 74
     0
 42
0.000000001
 43
0.00000001
 40
0.0
 40
0.0
 40
0.0
 40
0.0
 40
0.0580373699365739
 40
0.2604484502315956
 40
0.4515777035950883
 40
0.6313795664334928
 40
0.8054556404808026
 40
0.9727644475209585
 40
1.0
 40
1.0
 40
1.0
 40
1.0
 10
288.5118596660296
 20
204.1320863246431
 30
0.0
 10
288.512602795771
 20
204.1522169829313
 30
0.0
 10
288.5159376641444
 20
204.2425553073428
 30
0.0
 10
288.4960325302575
 20
204.3976382667126
 30
0.0
 10
288.4507528689866
 20
204.5888630240127
 30
0.0
 10
288.3802594081017
 20
204.7621515598287
 30
0.0
 10
288.2853945949852
 20
204.9118799506635
 30
0.0
 10
288.2068925654551
 20
205.0119200056468
 30
0.0
 10
288.1542486619156
 20
205.0523319923752
 30
0.0
 10
288.146878693436
 20
205.0579895338637
 30
0.0
  0
ARC
  5
3E4
330
1F
100
AcDbEntity
  8
0
  6
Continuous
 62
     7
370
    25
100
AcDbCircle
 10
263.0608425745
 20
206.1442238215
 30
0.0
 40
0.5000000000000177
100
AcDbArc
 50
0.0
 51
60.0026882663
  0
LINE
  5
3E5
330
1F
100
AcDbEntity
  8
0
  6
Continuous
 62
     7
370
    25
100
AcDbLine
 10
288.5146051692
 20
197.0917886616
 30
0.0
 11
288.5146051692
 21
204.1262796784
 31
0.0
  0
LINE
  5
3E6
330
1F
100
AcDbEntity
  8
0
  6
Continuous
 62
     7
370
    25
100
AcDbLine
 10
263.5608425745
 20
205.1643748472
 30
0.0
 11
263.5608425745
 21
206.1442238215
 31
0.0
  0
LINE
  5
3E7
330
1F
100
AcDbEntity
  8
0
  6
Continuous
 62
     7
370
    25
100
AcDbLine
 10
263.3108222577
 20
206.5772482527
 30
0.0
 11
262.9572688671
 21
206.7813502806
 31
0.0
  0
ARC
  5
3E8
330
1F
100
AcDbEntity
  8
0
  6
Continuous
 62
     7
370
    25
100
AcDbCircle
 10
262.7072891839
 20
206.3483258494
 30
0.0
 40
0.5000000000000177
100
AcDbArc
 50
60.0026882664
 51
119.9973117337
  0
SPLINE
  5
3E9
330
1F
100
AcDbEntity
  8
0
  6
Continuous
 62
     7
370
    25
100
AcDbSpline
210
0.0
220
0.0
230
1.0
 70
     8
 71
     3
 72
    10
 73
     6
 74
     0
 42
0.000000001
 43
0.00000001
 40
0.0
 40
0.0
 40
0.0
 40
0.0
 40
0.3274932508627053
 40
0.89895587757158
 40
1.0
 40
1.0
 40
1.0
 40
1.0
 10
288.148634779666
 20
205.0595222338554
 30
0.0
 10
288.1192170719099
 20
205.0851273643758
 30
0.0
 10
288.0384666404966
 20
205.1554124237371
 30
0.0
 10
287.9434291110155
 20
205.2215624710275
 30
0.0
 10
287.8779765517401
 20
205.2600379402823
 30
0.0
 10
287.8681423063275
 20
205.2658188785864
 30
0.0
  0
LINE
  5
3EA
330
1F
100
AcDbEntity
  8
0
  6
Continuous
 62
     7
370
    25
100
AcDbLine
 10
287.8681423063
 20
205.2658188786
 30
0.0
 11
274.2916921075
 21
213.1033367521
 31
0.0
  0
LINE
  5
3EB
330
1F
100
AcDbEntity
  8
0
  6
Continuous
 62
     7
370
    25
100
AcDbLine
 10
261.9919978047
 20
206.9322752265
 30
0.0
 11
260.706545645
 21
206.1901994902
 31
0.0
  0
SPLINE
  5
3EC
330
1F
100
AcDbEntity
  8
0
  6
Continuous
 62
     7
370
    25
100
AcDbSpline
210
0.0
220
0.0
230
1.0
 70
     8
 71
     3
 72
    15
 73
    11
 74
     0
 42
0.000000001
 43
0.00000001
 40
0.0
 40
0.0
 40
0.0
 40
0.0
 40
0.0856216160890675
 40
0.2361150955356073
 40
0.3862834453435592
 40
0.5359389136094351
 40
0.6855370604717905
 40
0.8360258512844303
 40
0.9883854841081181
 40
1.0
 40
1.0
 40
1.0
 40
1.0
 10
282.5148455107966
 20
192.8610542984009
 30
0.0
 10
282.5417279281022
 20
192.8776376026659
 30
0.0
 10
282.6158604289855
 20
192.9233686767761
 30
0.0
 10
282.729638787686
 20
193.019333934791
 30
0.0
 10
282.850558236087
 20
193.1516261361899
 30
0.0
 10
282.9556580311159
 20
193.301466827064
 30
0.0
 10
283.0431358635354
 20
193.4637897825464
 30
0.0
 10
283.1064731860085
 20
193.6337131137865
 30
0.0
 10
283.141333257948
 20
193.754242086995
 30
0.0
 10
283.1461567716752
 20
193.8153068339733
 30
0.0
 10
283.1464984278282
 20
193.8196321345147
 30
0.0
  0
LINE
  5
3ED
330
1F
100
AcDbEntity
  8
0
  6
Continuous
 62
     7
370
    25
100
AcDbLine
 10
263.5403939002
 20
207.4923107046
 30
0.0
 11
262.0554696597
 21
206.9616454319
 31
0.0
  0
LINE
  5
3EE
330
1F
100
AcDbEntity
  8
0
  6
Continuous
 62
     7
370
    25
100
AcDbLine
 10
273.2282297379
 20
213.0922506069
 30
0.0
 11
263.5073303073
 21
207.4804948152
 31
0.0
  0
SPLINE
  5
3EF
330
1F
100
AcDbEntity
  8
0
  6
Continuous
 62
     7
370
    25
100
AcDbSpline
210
0.0
220
0.0
230
1.0
 70
     8
 71
     3
 72
    12
 73
     8
 74
     0
 42
0.000000001
 43
0.00000001
 40
0.0
 40
0.0
 40
0.0
 40
0.0
 40
0.0604669213008828
 40
0.3379542690938154
 40
0.6270708354326179
 40
0.9055215056137744
 40
1.0
 40
1.0
 40
1.0
 40
1.0
 10
288.355752943224
 20
196.8300999241242
 30
0.0
 10
288.3619653734308
 20
196.8324932270293
 30
0.0
 10
288.3966871231852
 20
196.8458695808537
 30
0.0
 10
288.4473704256505
 20
196.8969361968503
 30
0.0
 10
288.4959466056496
 20
196.9756355029296
 30
0.0
 10
288.5162592797691
 20
197.0481378211817
 30
0.0
 10
288.5129607561396
 20
197.0890450785262
 30
0.0
 10
288.5121251026809
 20
197.0994085910926
 30
0.0
  0
SPLINE
  5
3F0
330
1F
100
AcDbEntity
  8
0
  6
Continuous
 62
     7
370
    25
100
AcDbSpline
210
0.0
220
0.0
230
1.0
 70
     8
 71
     3
 72
    13
 73
     9
 74
     0
 42
0.000000001
 43
0.00000001
 40
0.0
 40
0.0
 40
0.0
 40
0.0
 40
0.0173213478938835
 40
0.2080232251017904
 40
0.4036938911382122
 40
0.6135753624756912
 40
0.8331203668738366
 40
1.0
 40
1.0
 40
1.0
 40
1.0
 10
273.9767677807611
 20
213.2320416930883
 30
0.0
 10
273.9725480484504
 20
213.2335265756262
 30
0.0
 10
273.9218705648218
 20
213.2513594865706
 30
0.0
 10
273.8160579086957
 20
213.2583043634401
 30
0.0
 10
273.662684947946
 20
213.2534536121396
 30
0.0
 10
273.503128982247
 20
213.2171105437735
 30
0.0
 10
273.3559376290489
 20
213.1630340311756
 30
0.0
 10
273.2663341617515
 20
213.1112757850799
 30
0.0
 10
273.2276384050699
 20
213.0889236980726
 30
0.0
  0
SPLINE
  5
3F1
330
1F
100
AcDbEntity
  8
0
  6
Continuous
 62
     7
370
    25
100
AcDbSpline
210
0.0
220
0.0
230
1.0
 70
     8
 71
     3
 72
    10
 73
     6
 74
     0
 42
0.000000001
 43
0.00000001
 40
0.0
 40
0.0
 40
0.0
 40
0.0
 40
0.3253324767939209
 40
0.8587063875989501
 40
0.9999999999999999
 40
0.9999999999999999
 40
0.9999999999999999
 40
0.9999999999999999
 10
274.2916921075458
 20
213.1033367520844
 30
0.0
 10
274.2584131750866
 20
213.1214825380569
 30
0.0
 10
274.1705743212566
 20
213.1693778557213
 30
0.0
 10
274.0644474980598
 20
213.2100692794723
 30
0.0
 10
273.9917869032813
 20
213.2293528006579
 30
0.0
 10
273.9765698110658
 20
213.2333912911357
 30
0.0
  0
ARC
  5
3F2
330
1F
100
AcDbEntity
  8
0
  6
Continuous
 62
     7
370
    25
100
AcDbCircle
 10
253.6966832128
 20
185.7979977903
 30
0.0
 40
2.295235058301405
100
AcDbArc
 50
2.4763980378
 51
57.5236021078
  0
ARC
  5
3F3
330
1F
100
AcDbEntity
  8
0
  6
Continuous
 62
     7
370
    25
100
AcDbCircle
 10
255.7776427283
 20
186.3065832737
 30
0.0
 40
0.4611065723733753
100
AcDbArc
 50
242.6096722366
 51
297.3903277634
  0
ARC
  5
3F4
330
1F
100
AcDbEntity
  8
0
  6
Continuous
 62
     7
370
    25
100
AcDbCircle
 10
253.7232513723
 20
185.8133369255
 30
0.0
 40
1.844165769086381
100
AcDbArc
 50
2.6054784857
 51
57.39452166
  0
ARC
  5
3F5
330
1F
100
AcDbEntity
  8
0
  6
Continuous
 62
     7
370
    25
100
AcDbCircle
 10
255.1775473869
 20
187.3459055339
 30
0.0
 40
0.4610414422715937
100
AcDbArc
 50
122.60547834
 51
177.3945215144
  0
ELLIPSE
  5
3F6
330
1F
100
AcDbEntity
  8
0
  6
Continuous
 62
     7
370
    25
100
AcDbEllipse
 10
272.5042440965
 20
196.655382334
 30
0.0
 11
-0.4068894346709158
 21
1.470332568395066
 31
0.0
210
0.0
220
0.0
230
1.0
 40
0.6865348614
 41
4.103147741217056
 42
5.673944068011891
  0
LINE
  5
3F7
330
1F
100
AcDbEntity
  8
0
  6
Continuous
 62
     7
370
    25
100
AcDbLine
 10
273.5649042683
 20
196.0430762501
 30
0.0
 11
255.9897747626
 21
185.8971699482
 31
0.0
  0
LINE
  5
3F8
330
1F
100
AcDbEntity
  8
0
  6
Continuous
 62
     7
370
    25
100
AcDbLine
 10
254.9291145909
 20
187.7342872499
 30
0.0
 11
272.7482054768
 21
198.0210294589
 31
0.0
  0
LINE
  5
3F9
330
1F
100
AcDbEntity
  8
0
  6
Continuous
 62
     7
370
    25
100
AcDbLine
 10
240.2920042203
 20
187.3655102489
 30
0.0
 11
240.2920042203
 21
194.9593397995
 31
0.0
  0
LINE
  5
3FA
330
1F
100
AcDbEntity
  8
0
  6
Continuous
 62
     7
370
    25
100
AcDbLine
 10
254.9291145909
 20
178.9156862916
 30
0.0
 11
240.2920042203
 21
187.3655102489
 31
0.0
  0
LINE
  5
3FB
330
1F
100
AcDbEntity
  8
0
  6
Continuous
 62
     7
370
    25
100
AcDbLine
 10
254.9291145909
 20
186.5095158421
 30
0.0
 11
254.9291145909
 21
178.9156862916
 31
0.0
  0
LINE
  5
3FC
330
1F
100
AcDbEntity
  8
0
  6
Continuous
 62
     7
370
    25
100
AcDbLine
 10
240.2920042203
 20
194.9593397995
 30
0.0
 11
254.9291145909
 21
186.5095158421
 31
0.0
  0
LINE
  5
3FD
330
1F
100
AcDbEntity
  8
0
  6
Continuous
 62
     7
370
    25
100
AcDbLine
 10
244.3578682121
 20
184.4467583591
 30
0.0
 11
244.0043148215
 21
184.6508603871
 31
0.0
  0
ARC
  5
3FE
330
1F
100
AcDbEntity
  8
0
  6
Continuous
 62
     7
370
    25
100
AcDbCircle
 10
243.8629106493
 20
184.4677137964
 30
0.0
 40
0.2313823968984892
100
AcDbArc
 50
52.328918428
 51
127.6818340548
  0
LINE
  5
3FF
330
1F
100
AcDbEntity
  8
0
  6
Continuous
 62
     7
370
    25
100
AcDbLine
 10
240.8576896453
 20
186.3040602735
 30
0.0
 11
243.7214721091
 21
184.650833847
 31
0.0
  0
ARC
  5
400
330
1F
100
AcDbEntity
  8
0
  6
Continuous
 62
     7
370
    25
100
AcDbCircle
 10
241.8514208295
 20
187.8575871376
 30
0.0
 40
1.844165769086496
100
AcDbArc
 50
182.6054784857
 51
237.39452166
  0
LINE
  5
401
330
1F
100
AcDbEntity
  8
0
  6
Continuous
 62
     7
370
    25
100
AcDbLine
 10
240.0091615078
 20
194.8776591783
 30
0.0
 11
240.0091615078
 21
187.7737541148
 31
0.0
  0
ARC
  5
402
330
1F
100
AcDbEntity
  8
0
  6
Continuous
 62
     7
370
    25
100
AcDbCircle
 10
240.5264507487
 20
194.9615718145
 30
0.0
 40
0.5240510369141668
100
AcDbArc
 50
50.7967147643
 51
189.2140369905
  0
LINE
  5
403
330
1F
100
AcDbEntity
  8
0
  6
Continuous
 62
     7
370
    25
100
AcDbLine
 10
254.7169825565
 20
187.3668637896
 30
0.0
 11
240.8576896453
 21
195.3676632854
 31
0.0
  0
LINE
  5
404
330
1F
100
AcDbEntity
  8
0
  6
Continuous
 62
     7
370
    25
100
AcDbLine
 10
255.5655106939
 20
178.7932648848
 30
0.0
 11
255.5655106939
 21
185.8971699482
 31
0.0
  0
ARC
  5
405
330
1F
100
AcDbEntity
  8
0
  6
Continuous
 62
     7
370
    25
100
AcDbCircle
 10
255.048221453
 20
178.7093522485
 30
0.0
 40
0.5240510369142601
100
AcDbArc
 50
230.7967147643
 51
9.2140369905
  0
LINE
  5
406
330
1F
100
AcDbEntity
  8
0
  6
Continuous
 62
     7
370
    25
100
AcDbLine
 10
244.6407109246
 20
184.1201685744
 30
0.0
 11
254.7169825565
 21
178.3032607776
 31
0.0
  0
ARC
  5
407
330
1F
100
AcDbEntity
  8
0
  6
Continuous
 62
     7
370
    25
100
AcDbCircle
 10
243.9565819883
 20
183.8134521829
 30
0.0
 40
0.7497381851641322
100
AcDbArc
 50
24.1481851101
 51
57.6401404474
  0
LINE
  5
408
330
1F
100
AcDbEntity
  8
0
  6
Continuous
 62
     7
370
    25
100
AcDbLine
 10
255.9897747626
 20
185.8971699482
 30
0.0
 11
255.9897747626
 21
178.7932648848
 31
0.0
  0
ARC
  5
409
330
1F
100
AcDbEntity
  8
0
  6
Continuous
 62
     7
370
    25
100
AcDbCircle
 10
255.7776427283
 20
179.2026782103
 30
0.0
 40
0.4611065723734005
100
AcDbArc
 50
242.6096722366
 51
297.3903277634
  0
LINE
  5
40A
330
1F
100
AcDbEntity
  8
0
  6
Continuous
 62
     7
370
    25
100
AcDbLine
 10
241.0698216796
 20
195.7350867458
 30
0.0
 11
254.9291145909
 21
187.7342872499
 31
0.0
  0
ARC
  5
40B
330
1F
100
AcDbEntity
  8
0
  6
Continuous
 62
     7
370
    25
100
AcDbCircle
 10
241.3182544757
 20
195.3467050297
 30
0.0
 40
0.4610414422717633
100
AcDbArc
 50
122.60547834
 51
177.3945215143
  0
LINE
  5
40C
330
1F
100
AcDbEntity
  8
0
  6
Continuous
 62
     7
370
    25
100
AcDbLine
 10
276.0397780024
 20
196.0836710656
 30
0.0
 11
273.5649042683
 21
196.0430762501
 31
0.0
  0
LINE
  5
40D
330
1F
100
AcDbEntity
  8
0
  6
Continuous
 62
     7
370
    25
100
AcDbLine
 10
288.1631333066
 20
203.082335112
 30
0.0
 11
276.0397780024
 21
196.0836710656
 31
0.0
  0
LINE
  5
40E
330
1F
100
AcDbEntity
  8
0
  6
Continuous
 62
     7
370
    25
100
AcDbLine
 10
288.1631333066
 20
197.1215871852
 30
0.0
 11
288.1631333066
 21
203.082335112
 31
0.0
  0
LINE
  5
40F
330
1F
100
AcDbEntity
  8
0
  6
Continuous
 62
     7
370
    25
100
AcDbLine
 10
276.0008966702
 20
190.1004774235
 30
0.0
 11
288.1631333066
 21
197.1215871852
 31
0.0
  0
LINE
  5
410
330
1F
100
AcDbEntity
  8
0
  6
Continuous
 62
     7
370
    25
100
AcDbLine
 10
276.0008966702
 20
186.9159682572
 30
0.0
 11
276.0008966702
 21
190.1004774235
 31
0.0
  0
LINE
  5
411
330
1F
100
AcDbEntity
  8
0
  6
Continuous
 62
     7
370
    25
100
AcDbLine
 10
275.6946901015
 20
186.7391989677
 30
0.0
 11
276.0008966702
 21
186.9159682572
 31
0.0
  0
LINE
  5
412
330
1F
100
AcDbEntity
  8
0
  6
Continuous
 62
     7
370
    25
100
AcDbLine
 10
267.0725493502
 20
185.19121447
 30
0.0
 11
275.6946901015
 21
186.7391989677
 31
0.0
  0
LINE
  5
413
330
1F
100
AcDbEntity
  8
0
  6
Continuous
 62
     7
370
    25
100
AcDbLine
 10
255.9897747626
 20
178.7932648848
 30
0.0
 11
267.0725493502
 21
185.19121447
 31
0.0
  0
LINE
  5
414
330
1F
100
AcDbEntity
  8
0
  6
Continuous
 62
     7
370
    25
100
AcDbLine
 10
263.0608425745
 20
206.5524942274
 30
0.0
 11
262.7072891839
 21
206.7565962554
 31
0.0
  0
LINE
  5
415
330
1F
100
AcDbEntity
  8
0
  6
Continuous
 62
     7
370
    25
100
AcDbLine
 10
260.5152581622
 20
205.0829596261
 30
0.0
 11
263.0608425745
 21
206.5524942274
 31
0.0
  0
LINE
  5
416
330
1F
100
AcDbEntity
  8
0
  6
Continuous
 62
     7
370
    25
100
AcDbLine
 10
265.6064269868
 20
202.1438904236
 30
0.0
 11
260.5152581622
 21
205.0829596261
 31
0.0
  0
LINE
  5
417
330
1F
100
AcDbEntity
  8
0
  6
Continuous
 62
     7
370
    25
100
AcDbLine
 10
268.1520113991
 20
203.6134250249
 30
0.0
 11
265.6064269868
 21
202.1438904236
 31
0.0
  0
LINE
  5
418
330
1F
100
AcDbEntity
  8
0
  6
Continuous
 62
     7
370
    25
100
AcDbLine
 10
268.5055647896
 20
203.4093229969
 30
0.0
 11
268.1520113991
 21
203.6134250249
 31
0.0
  0
LINE
  5
419
330
1F
100
AcDbEntity
  8
0
  6
Continuous
 62
     7
370
    25
100
AcDbLine
 10
265.9599803774
 20
201.9397883956
 30
0.0
 11
268.5055647896
 21
203.4093229969
 31
0.0
  0
LINE
  5
41A
330
1F
100
AcDbEntity
  8
0
  6
Continuous
 62
     7
370
    25
100
AcDbLine
 10
271.0511492019
 20
199.0007191931
 30
0.0
 11
265.9599803774
 21
201.9397883956
 31
0.0
  0
LINE
  5
41B
330
1F
100
AcDbEntity
  8
0
  6
Continuous
 62
     7
370
    25
100
AcDbLine
 10
273.5967336142
 20
200.4702537943
 30
0.0
 11
271.0511492019
 21
199.0007191931
 31
0.0
  0
LINE
  5
41C
330
1F
100
AcDbEntity
  8
0
  6
Continuous
 62
     7
370
    25
100
AcDbLine
 10
273.9502870048
 20
200.2661517664
 30
0.0
 11
273.5967336142
 21
200.4702537943
 31
0.0
  0
LINE
  5
41D
330
1F
100
AcDbEntity
  8
0
  6
Continuous
 62
     7
370
    25
100
AcDbLine
 10
271.4047025925
 20
198.7966171651
 30
0.0
 11
273.9502870048
 21
200.2661517664
 31
0.0
  0
LINE
  5
41E
330
1F
100
AcDbEntity
  8
0
  6
Continuous
 62
     7
370
    25
100
AcDbLine
 10
272.7482054768
 20
198.0210294589
 30
0.0
 11
271.4047025925
 21
198.7966171651
 31
0.0
  0
LINE
  5
41F
330
1F
100
AcDbEntity
  8
0
  6
Continuous
 62
     7
370
    25
100
AcDbLine
 10
258.8889125655
 20
206.0218289547
 30
0.0
 11
241.0698216796
 21
195.7350867458
 31
0.0
  0
LINE
  5
420
330
1F
100
AcDbEntity
  8
0
  6
Continuous
 62
     7
370
    25
100
AcDbLine
 10
260.1617047716
 20
205.2870616541
 30
0.0
 11
258.8889125655
 21
206.0218289547
 31
0.0
  0
LINE
  5
421
330
1F
100
AcDbEntity
  8
0
  6
Continuous
 62
     7
370
    25
100
AcDbLine
 10
262.7072891839
 20
206.7565962554
 30
0.0
 11
260.1617047716
 21
205.2870616541
 31
0.0
  0
ELLIPSE
  5
422
330
1F
100
AcDbEntity
  8
0
  6
Continuous
 62
     7
370
    25
100
AcDbEllipse
 10
255.1412466252
 20
186.6319770589
 30
0.0
 11
0.3000000019767128
 21
0.173214465845092
 31
0.0
210
0.0
220
0.0
230
1.0
 40
0.0000703729
 41
2.356153854986843
 42
3.141633287119669
  0
ELLIPSE
  5
423
330
1F
100
AcDbEntity
  8
0
  6
Continuous
 62
     7
370
    25
100
AcDbEllipse
 10
240.5041362547
 20
195.0818010162
 30
0.0
 11
-0.2121406535362667
 21
0.3674184841878514
 31
0.0
210
0.0
220
0.0
230
1.0
 40
0.5773346305
 41
1.570755694763756
 42
2.356235122223465
  0
ELLIPSE
  5
424
330
1F
100
AcDbEntity
  8
0
  6
Continuous
 62
     7
370
    25
100
AcDbEllipse
 10
255.1412466252
 20
179.0381475083
 30
0.0
 11
-0.2121406535362382
 21
0.3674184841878514
 31
0.0
210
0.0
220
0.0
230
1.0
 40
0.5773346305
 41
0.7853575313664197
 42
1.570755694763915
  0
SPLINE
  5
425
330
1F
100
AcDbEntity
  8
0
  6
Continuous
 62
     7
370
    25
100
AcDbSpline
210
0.0
220
0.0
230
1.0
 70
     8
 71
     3
 72
    11
 73
     7
 74
     0
 42
0.000000001
 43
0.00000001
 40
0.0
 40
0.0
 40
0.0
 40
0.0
 40
0.0404558328463847
 40
0.5074344479621378
 40
0.98414053489182
 40
1.0
 40
1.0
 40
1.0
 40
1.0
 10
267.6978715641345
 20
185.113260535434
 30
0.0
 10
267.6904575363683
 20
185.1112627179802
 30
0.0
 10
267.5974639475075
 20
185.0862042449369
 30
0.0
 10
267.4102504082342
 20
185.1017725347849
 30
0.0
 10
267.1979144029261
 20
185.1537611255114
 30
0.0
 10
267.0764599026313
 20
185.1900461757931
 30
0.0
 10
267.072549350215
 20
185.1912144700161
 30
0.0
  0
ELLIPSE
  5
426
330
1F
100
AcDbEntity
  8
0
  6
Continuous
 62
     7
370
    25
100
AcDbEllipse
 10
240.5041362547
 20
187.4879714657
 30
0.0
 11
0.2999999998192493
 21
0.1732144645994254
 31
0.0
210
0.0
220
0.0
230
1.0
 40
0.0000703729
 41
0.7853575308798503
 42
2.356153857822306
  0
LINE
  5
427
330
1F
100
AcDbEntity
  8
0
  6
Continuous
 62
     7
370
    25
100
AcDbLine
 10
246.7812393442
 20
191.1117057568
 30
0.0
 11
240.716268289
 21
187.6104724925
 31
0.0
  0
SPLINE
  5
428
330
1F
100
AcDbEntity
  8
0
  6
Continuous
 62
     7
370
    25
100
AcDbSpline
210
0.0
220
0.0
230
1.0
 70
     8
 71
     3
 72
    10
 73
     6
 74
     0
 42
0.000000001
 43
0.00000001
 40
0.0
 40
0.0
 40
0.0
 40
0.0
 40
0.2544963130636366
 40
0.62063675993624
 40
1.0
 40
1.0
 40
1.0
 40
1.0
 10
244.7687629688041
 20
183.9489420850929
 30
0.0
 10
244.7560484320089
 20
183.9562120523054
 30
0.0
 10
244.7250416609259
 20
183.9739412242579
 30
0.0
 10
244.6825831822953
 20
184.0361031751584
 30
0.0
 10
244.6548324130765
 20
184.09181737881
 30
0.0
 10
244.6407109245988
 20
184.1201685743644
 30
0.0
  0
ELLIPSE
  5
429
330
1F
100
AcDbEntity
  8
0
  6
Continuous
 62
     7
370
    25
100
AcDbEllipse
 10
258.6449511853
 20
204.6561818299
 30
0.0
 11
-0.4068894346709158
 21
1.470332568395066
 31
0.0
210
0.0
220
0.0
230
1.0
 40
0.6865348614
 41
5.673944068011926
 42
6.45926096734723
  0
LINE
  5
42A
330
1F
100
AcDbEntity
  8
0
  6
Continuous
 62
     7
370
    25
100
AcDbLine
 10
272.7482054768
 20
198.0210294589
 30
0.0
 11
275.2230792109
 21
198.0616242743
 31
0.0
  0
ELLIPSE
  5
42B
330
1F
100
AcDbEntity
  8
0
  6
Continuous
 62
     7
370
    25
100
AcDbEllipse
 10
274.9791178307
 20
196.6959771495
 30
0.0
 11
-0.4068894346709725
 21
1.470332568395065
 31
0.0
210
0.0
220
0.0
230
1.0
 40
0.6865348614
 41
4.103147741216977
 42
5.673944068011902
  0
ELLIPSE
  5
42C
330
1F
100
AcDbEntity
  8
0
  6
Continuous
 62
     7
370
    25
100
AcDbEllipse
 10
275.411847389
 20
186.90248059
 30
0.0
 11
-0.1385386707551675
 21
0.3788253351486617
 31
0.0
210
0.0
220
0.0
230
1.0
 40
0.6628255679
 41
3.02631069897268
 42
4.042354035666307
  0
ELLIPSE
  5
42D
330
1F
100
AcDbEntity
  8
0
  6
Continuous
 62
     7
370
    25
100
AcDbEllipse
 10
272.132606632
 20
198.8085568167
 30
0.0
 11
0.8089979480667466
 21
-0.08287860125270186
 31
0.0
210
0.0
220
0.0
230
1.0
 40
0.2310256198
 41
3.617409748082342
 42
5.18820607487711
  0
LINE
  5
42E
330
1F
100
AcDbEntity
  8
0
  6
Continuous
 62
     7
370
    25
100
AcDbLine
 10
272.4861600226
 20
198.6044547888
 30
0.0
 11
274.2331297173
 21
198.6331099526
 31
0.0
  0
LINE
  5
42F
330
1F
100
AcDbEntity
  8
0
  6
Continuous
 62
     7
370
    25
100
AcDbLine
 10
275.2230792109
 20
198.0616242743
 30
0.0
 11
274.2331297173
 21
198.6331099526
 31
0.0
  0
SPLINE
  5
430
330
1F
100
AcDbEntity
  8
0
  6
Continuous
 62
     7
370
    25
100
AcDbSpline
210
0.0
220
0.0
230
1.0
 70
     8
 71
     3
 72
    12
 73
     8
 74
     0
 42
0.000000001
 43
0.00000001
 40
0.0
 40
0.0
 40
0.0
 40
0.0
 40
0.2500000000000001
 40
0.2500000000000001
 40
0.5000000000000002
 40
0.5000000000000002
 40
1.0
 40
1.0
 40
1.0
 40
1.0
 10
243.7214721090563
 20
184.6508338470491
 30
0.0
 10
243.7039348159371
 20
184.6339560191373
 30
0.0
 10
243.6934996388798
 20
184.6151727029473
 30
0.0
 10
243.6908742744088
 20
184.5801550985549
 30
0.0
 10
243.6989229510986
 20
184.5641336303766
 30
0.0
 10
243.7453880083996
 20
184.5326120274949
 30
0.0
 10
243.8043630834181
 20
184.5353643556076
 30
0.0
 10
243.8628934652936
 20
184.5691532258479
 30
0.0
  0
LINE
  5
431
330
1F
100
AcDbEntity
  8
0
  6
Continuous
 62
     7
370
    25
100
AcDbLine
 10
243.8628934653
 20
184.5691532258
 30
0.0
 11
244.0043722886
 21
184.650827212
 31
0.0
  0
ARC
  5
432
330
1F
100
AcDbEntity
  8
0
  6
Continuous
 62
     7
370
    25
100
AcDbCircle
 10
273.5362323447
 20
199.6188489063
 30
0.0
 40
0.7684024037864108
100
AcDbArc
 50
2.6054784857
 51
57.39452166
  0
LINE
  5
433
330
1F
100
AcDbEntity
  8
0
  6
Continuous
 62
     7
370
    25
100
AcDbLine
 10
274.3038403954
 20
199.6537793325
 30
0.0
 11
272.4861600226
 21
198.6044547888
 31
0.0
  0
LINE
  5
434
330
1F
100
AcDbEntity
  8
0
  6
Continuous
 62
     7
370
    25
100
AcDbLine
 10
272.1773162408
 20
199.8199058109
 30
0.0
 11
268.7884075021
 21
201.7762811831
 31
0.0
  0
ELLIPSE
  5
435
330
1F
100
AcDbEntity
  8
0
  6
Continuous
 62
     7
370
    25
100
AcDbEllipse
 10
271.7790532414
 20
199.0126588447
 30
0.0
 11
0.8089979480667466
 21
-0.08287860125270186
 31
0.0
210
0.0
220
0.0
230
1.0
 40
0.2310256198
 41
2.832092848747166
 42
3.617409748082208
  0
ELLIPSE
  5
436
330
1F
100
AcDbEntity
  8
0
  6
Continuous
 62
     7
370
    25
100
AcDbEllipse
 10
266.6878844168
 20
201.9517280472
 30
0.0
 11
0.8089979480667467
 21
-0.08287860125267343
 31
0.0
210
0.0
220
0.0
230
1.0
 40
0.2310256198
 41
3.617409748082151
 42
5.188206074877154
  0
LINE
  5
437
330
1F
100
AcDbEntity
  8
0
  6
Continuous
 62
     7
370
    25
100
AcDbLine
 10
267.0414378074
 20
201.7476260193
 30
0.0
 11
268.7884075021
 21
201.7762811831
 31
0.0
  0
LINE
  5
438
330
1F
100
AcDbEntity
  8
0
  6
Continuous
 62
     7
370
    25
100
AcDbLine
 10
274.3038403954
 20
198.6739303582
 30
0.0
 11
274.3038403954
 21
199.6537793325
 31
0.0
  0
LINE
  5
439
330
1F
100
AcDbEntity
  8
0
  6
Continuous
 62
     7
370
    25
100
AcDbLine
 10
274.3038403954
 20
198.6739303582
 30
0.0
 11
274.2331297173
 21
198.6331099526
 31
0.0
  0
LINE
  5
43A
330
1F
100
AcDbEntity
  8
0
  6
Continuous
 62
     7
370
    25
100
AcDbLine
 10
275.2230792109
 20
198.0616242743
 30
0.0
 11
287.6681585598
 21
205.2460156584
 31
0.0
  0
ARC
  5
43B
330
1F
100
AcDbEntity
  8
0
  6
Continuous
 62
     7
370
    25
100
AcDbCircle
 10
286.8045616548
 20
203.7727609066
 30
0.0
 40
1.707711678846448
100
AcDbArc
 50
47.538460917
 51
59.6218925718
  0
SPLINE
  5
43C
330
1F
100
AcDbEntity
  8
0
  6
Continuous
 62
     7
370
    25
100
AcDbSpline
210
0.0
220
0.0
230
1.0
 70
     8
 71
     3
 72
    14
 73
    10
 74
     0
 42
0.000000001
 43
0.00000001
 40
0.0
 40
0.0
 40
0.0
 40
0.0
 40
0.25
 40
0.25
 40
0.5
 40
0.5
 40
0.75
 40
0.75
 40
1.0
 40
1.0
 40
1.0
 40
1.0
 10
287.9574295157402
 20
205.0325921941876
 30
0.0
 10
288.0793409392156
 20
204.9223071853
 30
0.0
 10
288.1714042108256
 20
204.7801331884467
 30
0.0
 10
288.2983406720529
 20
204.4642318549672
 30
0.0
 10
288.3332157356577
 20
204.2908559101151
 30
0.0
 10
288.3554169368113
 20
203.9412101122776
 30
0.0
 10
288.3429195310875
 20
203.7616497230557
 30
0.0
 10
288.2805093935834
 20
203.4154757889029
 30
0.0
 10
288.2294715035189
 20
203.24312309718
 30
0.0
 10
288.1631333066309
 20
203.0823351119637
 30
0.0
  0
ARC
  5
43D
330
1F
100
AcDbEntity
  8
0
  6
Continuous
 62
     7
370
    25
100
AcDbCircle
 10
274.2000584735
 20
198.9029855746
 30
0.0
 40
0.2514696392470349
100
AcDbArc
 50
294.3746582936
 51
354.3052007488
  0
LINE
  5
43E
330
1F
100
AcDbEntity
  8
0
  6
Continuous
 62
     7
370
    25
100
AcDbLine
 10
268.8591181802
 20
201.8171015887
 30
0.0
 11
268.7884075021
 21
201.7762811831
 31
0.0
  0
ARC
  5
43F
330
1F
100
AcDbEntity
  8
0
  6
Continuous
 62
     7
370
    25
100
AcDbCircle
 10
268.7553362584
 20
202.0461568051
 30
0.0
 40
0.2514696392469353
100
AcDbArc
 50
294.3746582936
 51
354.3052007488
  0
LINE
  5
440
330
1F
100
AcDbEntity
  8
0
  6
Continuous
 62
     7
370
    25
100
AcDbLine
 10
266.7325940256
 20
202.9630770415
 30
0.0
 11
263.343685287
 21
204.9194524137
 31
0.0
  0
LINE
  5
441
330
1F
100
AcDbEntity
  8
0
  6
Continuous
 62
     7
370
    25
100
AcDbLine
 10
263.4143959651
 20
204.9602728193
 30
0.0
 11
263.343685287
 21
204.9194524137
 31
0.0
  0
ARC
  5
442
330
1F
100
AcDbEntity
  8
0
  6
Continuous
 62
     7
370
    25
100
AcDbCircle
 10
263.3106140433
 20
205.1893280357
 30
0.0
 40
0.2514696392469353
100
AcDbArc
 50
294.3746582936
 51
354.3052007488
  0
LINE
  5
443
330
1F
100
AcDbEntity
  8
0
  6
Continuous
 62
     7
370
    25
100
AcDbLine
 10
274.091708361
 20
213.0835335319
 30
0.0
 11
264.1398214444
 21
207.3384315028
 31
0.0
  0
LINE
  5
444
330
1F
100
AcDbEntity
  8
0
  6
Continuous
 62
     7
370
    25
100
AcDbLine
 10
287.6681585598
 20
205.2460156584
 30
0.0
 11
274.091708361
 21
213.0835335319
 31
0.0
  0
ARC
  5
445
330
1F
100
AcDbEntity
  8
0
  6
Continuous
 62
     7
370
    25
100
AcDbCircle
 10
268.0915101296
 20
202.7620201369
 30
0.0
 40
0.7684024037860279
100
AcDbArc
 50
2.6054784857
 51
57.39452166
  0
LINE
  5
446
330
1F
100
AcDbEntity
  8
0
  6
Continuous
 62
     7
370
    25
100
AcDbLine
 10
268.8591181802
 20
202.796950563
 30
0.0
 11
267.0414378074
 21
201.7476260193
 31
0.0
  0
ELLIPSE
  5
447
330
1F
100
AcDbEntity
  8
0
  6
Continuous
 62
     7
370
    25
100
AcDbEllipse
 10
266.3343310262
 20
202.1558300752
 30
0.0
 11
0.8089979480667466
 21
-0.08287860125270186
 31
0.0
210
0.0
220
0.0
230
1.0
 40
0.2310256198
 41
2.832092848746929
 42
3.617409748082408
  0
ELLIPSE
  5
448
330
1F
100
AcDbEntity
  8
0
  6
Continuous
 62
     7
370
    25
100
AcDbEllipse
 10
261.2431622017
 20
205.0948992777
 30
0.0
 11
0.8089979480668035
 21
-0.08287860125270186
 31
0.0
210
0.0
220
0.0
230
1.0
 40
0.2310256198
 41
3.617409748082367
 42
5.188206074877137
  0
LINE
  5
449
330
1F
100
AcDbEntity
  8
0
  6
Continuous
 62
     7
370
    25
100
AcDbLine
 10
261.5967155923
 20
204.8907972498
 30
0.0
 11
263.343685287
 21
204.9194524137
 31
0.0
  0
LINE
  5
44A
330
1F
100
AcDbEntity
  8
0
  6
Continuous
 62
     7
370
    25
100
AcDbLine
 10
268.8591181802
 20
201.8171015887
 30
0.0
 11
268.8591181802
 21
202.796950563
 31
0.0
  0
ELLIPSE
  5
44B
330
1F
100
AcDbEntity
  8
0
  6
Continuous
 62
     7
370
    25
100
AcDbEllipse
 10
275.1523685328
 20
190.5903222906
 30
0.0
 11
1.200000003568846
 21
-0.6928578608756766
 31
0.0
210
0.0
220
0.0
230
1.0
 40
0.0000703729
 41
0.0000406319086712
 42
0.785438797234943
  0
ARC
  5
44C
330
1F
100
AcDbEntity
  8
0
  6
Continuous
 62
     7
370
    25
100
AcDbCircle
 10
262.6467879144
 20
205.9051913674
 30
0.0
 40
0.7684024037857626
100
AcDbArc
 50
2.6054784856
 51
57.39452166
  0
LINE
  5
44D
330
1F
100
AcDbEntity
  8
0
  6
Continuous
 62
     7
370
    25
100
AcDbLine
 10
263.4143959651
 20
205.9401217935
 30
0.0
 11
261.5967155923
 21
204.8907972498
 31
0.0
  0
ELLIPSE
  5
44E
330
1F
100
AcDbEntity
  8
0
  6
Continuous
 62
     7
370
    25
100
AcDbEllipse
 10
260.8896088111
 20
205.2990013057
 30
0.0
 11
0.8089979480668035
 21
-0.08287860125270186
 31
0.0
210
0.0
220
0.0
230
1.0
 40
0.2310256198
 41
2.832092848747067
 42
3.617409748082355
  0
LINE
  5
44F
330
1F
100
AcDbEntity
  8
0
  6
Continuous
 62
     7
370
    25
100
AcDbLine
 10
263.4143959651
 20
204.9602728193
 30
0.0
 11
263.4143959651
 21
205.9401217935
 31
0.0
  0
ELLIPSE
  5
450
330
1F
100
AcDbEntity
  8
0
  6
Continuous
 62
     7
370
    25
100
AcDbEllipse
 10
261.1198249194
 20
204.6967766453
 30
0.0
 11
-0.4068894346709725
 21
1.470332568395094
 31
0.0
210
0.0
220
0.0
230
1.0
 40
0.6865348614
 41
5.748353104301343
 42
6.10710964701198
  0
LWPOLYLINE
  5
451
330
1F
100
AcDbEntity
  8
0
  6
Continuous
 62
     7
370
    25
100
AcDbPolyline
 90
        6
 70
   128
 43
0.0
 10
287.9574295157
 20
205.0325921942
 10
288.0111271888
 20
205.0592645833
 10
288.059796885
 20
205.0745474169
 10
288.1015682551
 20
205.0778533844
 10
288.1348360487
 20
205.0690554394
 10
288.1486338059
 20
205.0595231147
  0
ELLIPSE
  5
452
330
1F
100
AcDbEntity
  8
0
  6
Continuous
 62
     7
370
    25
100
AcDbEllipse
 10
262.6548972039
 20
205.5829550123
 30
0.0
 11
-0.6318269556319365
 21
1.365439169906665
 31
0.0
210
0.0
220
0.0
230
1.0
 40
0.5072963558
 41
5.591215090499655
 42
6.329017343263624
  0
ELLIPSE
  5
453
330
1F
100
AcDbEntity
  8
0
  6
Continuous
 62
     7
370
    25
100
AcDbEllipse
 10
264.1398214444
 20
206.113620285
 30
0.0
 11
-0.6318269556319933
 21
1.365439169906637
 31
0.0
210
0.0
220
0.0
230
1.0
 40
0.5072963558
 41
5.54370044392822
 42
6.237353271095594
  0
SPLINE
  5
454
330
1F
100
AcDbEntity
  8
0
  6
Continuous
 62
     7
370
    25
100
AcDbSpline
210
0.0
220
0.0
230
1.0
 70
     8
 71
     3
 72
    10
 73
     6
 74
     0
 42
0.000000001
 43
0.00000001
 40
0.0
 40
0.0
 40
0.0
 40
0.0
 40
0.4618350550157392
 40
0.9085505916666272
 40
1.0
 40
1.0
 40
1.0
 40
1.0
 10
273.8024374050786
 20
213.2040952043403
 30
0.0
 10
273.7165206543624
 20
213.2128927975046
 30
0.0
 10
273.5474998885077
 20
213.2301999689456
 30
0.0
 10
273.3466903314541
 20
213.1649483167112
 30
0.0
 10
273.2471838881095
 20
213.0999269205445
 30
0.0
 10
273.2302749358375
 20
213.0888779507744
 30
0.0
  0
ARC
  5
455
330
1F
100
AcDbEntity
  8
0
  6
Continuous
 62
     7
370
    25
100
AcDbCircle
 10
273.5151812407
 20
212.1075504734
 30
0.0
 40
1.133545963324084
100
AcDbArc
 50
59.4290473367
 51
75.3203856773
  0
ARC
  5
456
330
1F
100
AcDbEntity
  8
0
  6
Continuous
 62
     8
370
    25
100
AcDbCircle
 10
255.2569726135
 20
178.7103738784
 30
0.0
 40
0.7374753614737359
100
AcDbArc
 50
305.6121948603
 51
6.4535879047
  0
ARC
  5
457
330
1F
100
AcDbEntity
  8
0
  6
Continuous
 62
     8
370
    25
100
AcDbCircle
 10
254.8671876393
 20
178.2884811123
 30
0.0
 40
0.1509304654610714
100
AcDbArc
 50
174.3803812441
 51
234.2932370844
  0
LINE
  5
458
330
1F
100
AcDbEntity
  8
0
  6
Continuous
 62
     8
370
    25
100
AcDbLine
 10
240.716268289
 20
187.6104724925
 30
0.0
 11
254.8412466252
 21
179.4562960655
 31
0.0
  0
ARC
  5
459
330
1F
100
AcDbEntity
  8
0
  6
Continuous
 62
     8
370
    25
100
AcDbCircle
 10
240.6317030844
 20
195.126043923
 30
0.0
 40
0.7502539992854508
100
AcDbArc
 50
54.2704219093
 51
115.1768574625
  0
ARC
  5
45A
330
1F
100
AcDbEntity
  8
0
  6
Continuous
 62
     8
370
    25
100
AcDbCircle
 10
240.0714388644
 20
195.0151020027
 30
0.0
 40
0.1508939996518338
100
AcDbArc
 50
185.7099217766
 51
245.6240236315
  0
LINE
  5
45B
330
1F
100
AcDbEntity
  8
0
  6
Continuous
 62
     8
370
    25
100
AcDbLine
 10
240.716268289
 20
194.6129390211
 30
0.0
 11
240.716268289
 21
187.6104724925
 31
0.0
  0
ARC
  5
45C
330
1F
100
AcDbEntity
  8
0
  6
Continuous
 62
     8
370
    25
100
AcDbCircle
 10
240.0714306609
 20
187.9111872447
 30
0.0
 40
0.1508817835482172
100
AcDbArc
 50
185.6947992512
 51
245.6253417064
  0
ARC
  5
45D
330
1F
100
AcDbEntity
  8
0
  6
Continuous
 62
     8
370
    25
100
AcDbCircle
 10
241.004690216
 20
186.2878342523
 30
0.0
 40
0.1478933789954639
100
AcDbArc
 50
173.7011524804
 51
234.9866671263
  0
ARC
  5
45E
330
1F
100
AcDbEntity
  8
0
  6
Continuous
 62
     8
370
    25
100
AcDbCircle
 10
273.4502735868
 20
200.2658131298
 30
0.0
 40
0.2514886179508274
100
AcDbArc
 50
54.3824225248
 51
114.3071190461
  0
ARC
  5
45F
330
1F
100
AcDbEntity
  8
0
  6
Continuous
 62
     8
370
    25
100
AcDbCircle
 10
274.0967470322
 20
200.0617111018
 30
0.0
 40
0.2514886179507214
100
AcDbArc
 50
65.6928809539
 51
125.6175774752
  0
ARC
  5
460
330
1F
100
AcDbEntity
  8
0
  6
Continuous
 62
     8
370
    25
100
AcDbCircle
 10
274.2000584735
 20
199.8828345489
 30
0.0
 40
0.2514696392471092
100
AcDbArc
 50
294.3746582936
 51
354.3052007488
  0
LINE
  5
461
330
1F
100
AcDbEntity
  8
0
  6
Continuous
 62
     8
370
    25
100
AcDbLine
 10
264.1398214444
 20
207.3384315028
 30
0.0
 11
262.7604591782
 21
206.8454907634
 31
0.0
  0
ARC
  5
462
330
1F
100
AcDbEntity
  8
0
  6
Continuous
 62
     8
370
    25
100
AcDbCircle
 10
273.7431936416
 20
200.2658131298
 30
0.0
 40
0.2514886179510372
100
AcDbArc
 50
65.6928809539
 51
125.6175774752
  0
ARC
  5
463
330
1F
100
AcDbEntity
  8
0
  6
Continuous
 62
     8
370
    25
100
AcDbCircle
 10
268.0055513716
 20
203.4089843603
 30
0.0
 40
0.2514886179507861
100
AcDbArc
 50
54.3824225248
 51
114.3071190461
  0
ARC
  5
464
330
1F
100
AcDbEntity
  8
0
  6
Continuous
 62
     8
370
    25
100
AcDbCircle
 10
275.7518200578
 20
187.4657007765
 30
0.0
 40
0.6035271341926641
100
AcDbArc
 50
294.3746582936
 51
354.3052007488
  0
ELLIPSE
  5
465
330
1F
100
AcDbEntity
  8
0
  6
Continuous
 62
     8
370
    25
100
AcDbEllipse
 10
287.3146051692
 20
197.6114320523
 30
0.0
 11
1.056501812302429
 21
-0.7737225402989623
 31
0.0
210
0.0
220
0.0
230
1.0
 40
0.1212698414
 41
6.229785805010522
 42
7.015265232469994
  0
ARC
  5
466
330
1F
100
AcDbEntity
  8
0
  6
Continuous
 62
     8
370
    25
100
AcDbCircle
 10
268.6520248171
 20
203.2048823323
 30
0.0
 40
0.2514886179506721
100
AcDbArc
 50
65.6928809539
 51
125.6175774752
  0
ARC
  5
467
330
1F
100
AcDbEntity
  8
0
  6
Continuous
 62
     8
370
    25
100
AcDbCircle
 10
268.7553362584
 20
203.0260057794
 30
0.0
 40
0.2514696392470105
100
AcDbArc
 50
294.3746582936
 51
354.3052007488
  0
ARC
  5
468
330
1F
100
AcDbEntity
  8
0
  6
Continuous
 62
     8
370
    25
100
AcDbCircle
 10
268.2984714265
 20
203.4089843603
 30
0.0
 40
0.2514886179509077
100
AcDbArc
 50
65.6928809539
 51
125.6175774752
  0
ARC
  5
469
330
1F
100
AcDbEntity
  8
0
  6
Continuous
 62
     8
370
    25
100
AcDbCircle
 10
275.8106224477
 20
186.8917426458
 30
0.0
 40
0.1918102187503802
100
AcDbArc
 50
304.0563508654
 51
7.255829528
  0
ARC
  5
46A
330
1F
100
AcDbEntity
  8
0
  6
Continuous
 62
     8
370
    25
100
AcDbCircle
 10
281.9845397006
 20
193.9156027437
 30
0.0
 40
1.091899133452252
100
AcDbArc
 50
302.8599063727
 51
352.5408657882
  0
LINE
  5
46B
330
1F
100
AcDbEntity
  8
0
  6
Continuous
 62
     8
370
    25
100
AcDbLine
 10
276.3523685328
 20
189.4050104078
 30
0.0
 11
282.5769897353
 21
192.9984077403
 31
0.0
  0
ARC
  5
46C
330
1F
100
AcDbEntity
  8
0
  6
Continuous
 62
     8
370
    25
100
AcDbCircle
 10
282.4299891647
 20
192.9821817191
 30
0.0
 40
0.1478933788842181
100
AcDbArc
 50
305.0133328482
 51
6.2988475452
  0
ARC
  5
46D
330
1F
100
AcDbEntity
  8
0
  6
Continuous
 62
     8
370
    25
100
AcDbCircle
 10
262.5608291565
 20
206.5521555908
 30
0.0
 40
0.251488617951089
100
AcDbArc
 50
54.3824225248
 51
114.3071190461
  0
LINE
  5
46E
330
1F
100
AcDbEntity
  8
0
  6
Continuous
 62
     8
370
    25
100
AcDbLine
 10
261.2075171633
 20
206.0598605216
 30
0.0
 11
258.8889125655
 21
206.0218289547
 31
0.0
  0
SPLINE
  5
46F
330
1F
100
AcDbEntity
  8
0
  6
Continuous
 62
     8
370
    25
100
AcDbSpline
210
0.0
220
0.0
230
1.0
 70
     8
 71
     3
 72
    16
 73
    12
 74
     0
 42
0.000000001
 43
0.00000001
 40
0.0
 40
0.0
 40
0.0
 40
0.0
 40
0.0053733432175069
 40
0.2396148595914045
 40
0.4790715707335008
 40
0.7186438302488563
 40
0.8513607658055079
 40
0.9369948346874041
 40
0.9731894132824017
 40
0.9940353668118466
 40
1.0
 40
1.0
 40
1.0
 40
1.0
 10
288.5139284752271
 20
204.1319013319635
 30
0.0
 10
288.5141126670214
 20
204.130021694138
 30
0.0
 10
288.5223263785088
 20
204.0462025269239
 30
0.0
 10
288.495628543924
 20
203.8707892618722
 30
0.0
 10
288.4348984339646
 20
203.6144786413345
 30
0.0
 10
288.3461065784693
 20
203.3990026975109
 30
0.0
 10
288.2641853496601
 20
203.2436878692122
 30
0.0
 10
288.2135658501817
 20
203.1595469872229
 30
0.0
 10
288.1837094838168
 20
203.113172577532
 30
0.0
 10
288.1702281507788
 20
203.0928564759863
 30
0.0
 10
288.1644244693749
 20
203.0842498535646
 30
0.0
 10
288.1631333066309
 20
203.0823351119637
 30
0.0
  0
ARC
  5
470
330
1F
100
AcDbEntity
  8
0
  6
Continuous
 62
     8
370
    25
100
AcDbCircle
 10
263.2073026019
 20
206.3480535629
 30
0.0
 40
0.2514886179510272
100
AcDbArc
 50
65.6928809539
 51
125.6175774752
  0
ARC
  5
471
330
1F
100
AcDbEntity
  8
0
  6
Continuous
 62
     8
370
    25
100
AcDbCircle
 10
263.3106140433
 20
206.1691770099
 30
0.0
 40
0.2514696392469353
100
AcDbArc
 50
294.3746582936
 51
354.3052007488
  0
ELLIPSE
  5
472
330
1F
100
AcDbEntity
  8
0
  6
Continuous
 62
     8
370
    25
100
AcDbEllipse
 10
287.3146051692
 20
197.6114320523
 30
0.0
 11
1.198293497296049
 21
-0.528132786589623
 31
0.0
210
0.0
220
0.0
230
1.0
 40
0.1211327358
 41
5.551124237236442
 42
6.336522400633754
  0
ARC
  5
473
330
1F
100
AcDbEntity
  8
0
  6
Continuous
 62
     8
370
    25
100
AcDbCircle
 10
262.8537492113
 20
206.5521555908
 30
0.0
 40
0.2514886179508818
100
AcDbArc
 50
65.6928809539
 51
125.6175774752
  0
ARC
  5
474
330
1F
100
AcDbEntity
  8
0
  6
Continuous
 62
     8
370
    25
100
AcDbCircle
 10
287.7854229563
 20
205.0821947596
 30
0.0
 40
0.2014651968684931
100
AcDbArc
 50
65.9469394613
 51
125.5954103813
  0
ARC
  5
475
330
1F
100
AcDbEntity
  8
0
  6
Continuous
 62
     8
370
    25
100
AcDbCircle
 10
274.208876383
 20
212.9199810002
 30
0.0
 40
0.2011908943606889
100
AcDbArc
 50
65.6928809539
 51
125.6175774752
  0
ARC
  5
476
330
1F
100
AcDbEntity
  8
0
  6
Continuous
 62
     8
370
    25
100
AcDbCircle
 10
273.9246586822
 20
213.009770093
 30
0.0
 40
0.2295654361838405
100
AcDbArc
 50
76.9013764525
 51
122.1679454237
  0
OLE2FRAME
  5
477
330
1F
100
AcDbEntity
  8
0
100
AcDbOle2Frame
 70
     2
  3
Microsoft Excel Worksheet
 10
285.2025736023
 20
279.7253255545
 30
0.0
 11
403.9000409126
 21
256.1246595396
 31
0.0
 71
     2
 72
     0
 73
     1
 90
    14464
310
8055904DD1BD3DD37140B4F8F7EE9A7B714000000000000000004AC84C91663E
310
7940B4F8F7EE9A7B714000000000000000004AC84C91663E7940115B009BFE01
310
70400000000000000000904DD1BD3DD37140115B009BFE017040000000000000
310
0000000000000100000000010000010000000100000000000100000000380000
310
D0CF11E0A1B11AE1000000000000000000000000000000003E000300FEFF0900
310
0600000000000000000000000100000001000000000000000010000002000000
310
01000000FEFFFFFF0000000000000000FFFFFFFFFFFFFFFFFFFFFFFFFFFFFFFF
310
FFFFFFFFFFFFFFFFFFFFFFFFFFFFFFFFFFFFFFFFFFFFFFFFFFFFFFFFFFFFFFFF
310
FFFFFFFFFFFFFFFFFFFFFFFFFFFFFFFFFFFFFFFFFFFFFFFFFFFFFFFFFFFFFFFF
310
FFFFFFFFFFFFFFFFFFFFFFFFFFFFFFFFFFFFFFFFFFFFFFFFFFFFFFFFFFFFFFFF
310
FFFFFFFFFFFFFFFFFFFFFFFFFFFFFFFFFFFFFFFFFFFFFFFFFFFFFFFFFFFFFFFF
310
FFFFFFFFFFFFFFFFFFFFFFFFFFFFFFFFFFFFFFFFFFFFFFFFFFFFFFFFFFFFFFFF
310
FFFFFFFFFFFFFFFFFFFFFFFFFFFFFFFFFFFFFFFFFFFFFFFFFFFFFFFFFFFFFFFF
310
FFFFFFFFFFFFFFFFFFFFFFFFFFFFFFFFFFFFFFFFFFFFFFFFFFFFFFFFFFFFFFFF
310
FFFFFFFFFFFFFFFFFFFFFFFFFFFFFFFFFFFFFFFFFFFFFFFFFFFFFFFFFFFFFFFF
310
FFFFFFFFFFFFFFFFFFFFFFFFFFFFFFFFFFFFFFFFFFFFFFFFFFFFFFFFFFFFFFFF
310
FFFFFFFFFFFFFFFFFFFFFFFFFFFFFFFFFFFFFFFFFFFFFFFFFFFFFFFFFFFFFFFF
310
FFFFFFFFFFFFFFFFFFFFFFFFFFFFFFFFFFFFFFFFFFFFFFFFFFFFFFFFFFFFFFFF
310
FFFFFFFFFFFFFFFFFFFFFFFFFFFFFFFFFFFFFFFFFFFFFFFFFFFFFFFFFFFFFFFF
310
FFFFFFFFFFFFFFFFFFFFFFFFFFFFFFFFFFFFFFFFFFFFFFFFFFFFFFFFFFFFFFFF
310
FDFFFFFF17000000FEFFFFFF1800000005000000060000000700000008000000
310
090000000A0000000B0000000C0000000D0000000E0000000F00000010000000
310
110000001200000013000000140000001500000016000000FEFFFFFFFEFFFFFF
310
190000001A000000FEFFFFFFFFFFFFFFFFFFFFFFFFFFFFFFFFFFFFFFFFFFFFFF
310
FFFFFFFFFFFFFFFFFFFFFFFFFFFFFFFFFFFFFFFFFFFFFFFFFFFFFFFFFFFFFFFF
310
FFFFFFFFFFFFFFFFFFFFFFFFFFFFFFFFFFFFFFFFFFFFFFFFFFFFFFFFFFFFFFFF
310
FFFFFFFFFFFFFFFFFFFFFFFFFFFFFFFFFFFFFFFFFFFFFFFFFFFFFFFFFFFFFFFF
310
FFFFFFFFFFFFFFFFFFFFFFFFFFFFFFFFFFFFFFFFFFFFFFFFFFFFFFFFFFFFFFFF
310
FFFFFFFFFFFFFFFFFFFFFFFFFFFFFFFFFFFFFFFFFFFFFFFFFFFFFFFFFFFFFFFF
310
FFFFFFFFFFFFFFFFFFFFFFFFFFFFFFFFFFFFFFFFFFFFFFFFFFFFFFFFFFFFFFFF
310
FFFFFFFFFFFFFFFFFFFFFFFFFFFFFFFFFFFFFFFFFFFFFFFFFFFFFFFFFFFFFFFF
310
FFFFFFFFFFFFFFFFFFFFFFFFFFFFFFFFFFFFFFFFFFFFFFFFFFFFFFFFFFFFFFFF
310
FFFFFFFFFFFFFFFFFFFFFFFFFFFFFFFFFFFFFFFFFFFFFFFFFFFFFFFFFFFFFFFF
310
FFFFFFFFFFFFFFFFFFFFFFFFFFFFFFFFFFFFFFFFFFFFFFFFFFFFFFFFFFFFFFFF
310
FFFFFFFFFFFFFFFFFFFFFFFFFFFFFFFFFFFFFFFFFFFFFFFFFFFFFFFFFFFFFFFF
310
FFFFFFFFFFFFFFFFFFFFFFFFFFFFFFFFFFFFFFFFFFFFFFFFFFFFFFFFFFFFFFFF
310
52006F006F007400200045006E00740072007900000000000000000000000000
310
0000000000000000000000000000000000000000000000000000000000000000
310
16000500FFFFFFFFFFFFFFFF020000003008020000000000C000000000000046
310
0000000000000000000000008047F64FD976D701030000004006000000000000
310
01004F006C006500000000000000000000000000000000000000000000000000
310
0000000000000000000000000000000000000000000000000000000000000000
310
0A000201FFFFFFFFFFFFFFFFFFFFFFFF00000000000000000000000000000000
310
0000000000000000000000000000000000000000000000001400000000000000
310
5000610063006B00610067006500000000000000000000000000000000000000
310
0000000000000000000000000000000000000000000000000000000000000000
310
100002010100000003000000FFFFFFFF00000000000000000000000000000000
310
0000000000000000000000000000000000000000040000009F25000000000000
310
010043006F006D0070004F0062006A0000000000000000000000000000000000
310
0000000000000000000000000000000000000000000000000000000000000000
310
12000201FFFFFFFF04000000FFFFFFFF00000000000000000000000000000000
310
0000000000000000000000000000000000000000010000006E00000000000000
310
FEFFFFFF02000000FEFFFFFF0400000005000000060000000700000008000000
310
090000000A0000000B0000000C0000000D0000000E0000000F00000010000000
310
1100000012000000130000001400000015000000160000001700000018000000
310
FEFFFFFFFFFFFFFFFFFFFFFFFFFFFFFFFFFFFFFFFFFFFFFFFFFFFFFFFFFFFFFF
310
FFFFFFFFFFFFFFFFFFFFFFFFFFFFFFFFFFFFFFFFFFFFFFFFFFFFFFFFFFFFFFFF
310
FFFFFFFFFFFFFFFFFFFFFFFFFFFFFFFFFFFFFFFFFFFFFFFFFFFFFFFFFFFFFFFF
310
FFFFFFFFFFFFFFFFFFFFFFFFFFFFFFFFFFFFFFFFFFFFFFFFFFFFFFFFFFFFFFFF
310
FFFFFFFFFFFFFFFFFFFFFFFFFFFFFFFFFFFFFFFFFFFFFFFFFFFFFFFFFFFFFFFF
310
FFFFFFFFFFFFFFFFFFFFFFFFFFFFFFFFFFFFFFFFFFFFFFFFFFFFFFFFFFFFFFFF
310
FFFFFFFFFFFFFFFFFFFFFFFFFFFFFFFFFFFFFFFFFFFFFFFFFFFFFFFFFFFFFFFF
310
FFFFFFFFFFFFFFFFFFFFFFFFFFFFFFFFFFFFFFFFFFFFFFFFFFFFFFFFFFFFFFFF
310
FFFFFFFFFFFFFFFFFFFFFFFFFFFFFFFFFFFFFFFFFFFFFFFFFFFFFFFFFFFFFFFF
310
FFFFFFFFFFFFFFFFFFFFFFFFFFFFFFFFFFFFFFFFFFFFFFFFFFFFFFFFFFFFFFFF
310
FFFFFFFFFFFFFFFFFFFFFFFFFFFFFFFFFFFFFFFFFFFFFFFFFFFFFFFFFFFFFFFF
310
FFFFFFFFFFFFFFFFFFFFFFFFFFFFFFFFFFFFFFFFFFFFFFFFFFFFFFFFFFFFFFFF
310
FFFFFFFFFFFFFFFFFFFFFFFFFFFFFFFFFFFFFFFFFFFFFFFFFFFFFFFFFFFFFFFF
310
0100000200000000000000000000000000000000000000000000000000000000
310
0000000000000000000000000000000000000000000000000000000000000000
310
0100FEFF030A0000FFFFFFFF3008020000000000C0000000000000461D000000
310
4D6963726F736F667420457863656C20838F815B834E8356815B8367000A0000
310
00457863656C4D4C3132000F000000457863656C2E53686565742E313200F439
310
B271000000000000000000000000000000000000000000000000000000000000
310
FFFFFFFF030000000400000001000000FFFFFFFF0200000000000000952A0000
310
9408000028050000010009000003940200000A001C0000000000040000000301
310
0800050000000B0200000000050000000C0254009D0105000000090200000000
310
050000000102FFFFFF000400000004010D000400000002010200030000001E00
310
040000002701FFFF030000001E00040000002701FFFF030000001E0005000000
310
0102FFFFFF0005000000090200000000040000002701FFFF030000001E000500
310
00000102FFFFFF000500000009020000000007000000160453009C0100000000
310
040000002701FFFF030000001E00050000000102FFFFFF000500000009020000
310
000007000000160453009C0100000000040000002701FFFF030000001E000500
310
00000102FFFFFF000500000009020000000007000000160453009C0101000100
310
504B030414000600080000002100413782CF6E01000004050000130008025B43
310
6F6E74656E745F54797065735D2E786D6C20A2040228A0000200000000000000
310
0000000000000000000000000000000000000000000000000000000000000000
310
0000000000000000000000000000000000000000000000000000000000000000
310
0000000000000000000000000000000000000000000000000000000000000000
310
0000000000000000000000000000000000000000000000000000000000000000
310
0000000000000000000000000000000000000000000000000000000000000000
310
0000000000000000000000000000000000000000000000000000000000000000
310
0000000000000000000000000000000000000000000000000000000000000000
310
0000000000000000000000000000000000000000000000000000000000000000
310
0000000000000000000000000000000000000000000000000000000000000000
310
0000000000000000000000000000000000000000000000000000000000000000
310
0000000000000000000000000000000000000000000000000000000000000000
310
0000000000000000000000000000000000000000000000000000000000000000
310
0000000000000000000000000000000000000000000000000000000000000000
310
0000000000000000000000000000000000000000000000000000000000000000
310
0000000000000000000000000000000000000000000000000000000000000000
310
00000000000000000000000000000000000000000000000000AC54C96EC23010
310
BD57EA3F44BE5689A187AAAA081CBA1C5B24E8079878925824B6E51928FC7D27
310
665155B108C125516CCF5B26F33C18ADDA26594240E36C2EFA594F24600BA78D
310
AD72F13DFD489F4582A4AC568DB3908B35A0180DEFEF06D3B5074CB8DA622E6A
310
22FF22251635B40A33E7C1F24EE942AB883F4325BD2AE6AA02F9D8EB3DC9C259
310
024B29751862387883522D1A4ADE57BCBC5132335624AF9B731D552E94F78D29
310
14B150B9B4FA1F49EACAD214A05DB168193A431F4069AC01A86D321F0C338609
310
10B13114F2206780062F23DDBACAB8320AC3DA787C60EB4718BA9DE3AEB6755F
310
FC3B82D1908C55A04FD5B277B96AE48F0BF39973F3EC34C8A5AD892DCA5A65EC
310
4EF709FE7818657CF56F2CA4F31781CFE8209E3190F179BD840873861069DD00
310
DEBAED11F41C73AD02E809F1F4563717F017FB940E8ED438388F9CDA00977761
310
1791AE3AF50C04810CEC437268D8F68C1CF9ABDB0EDD9DA2411FE096F10E1BFE
310
020000FFFF0300504B030414000600080000002100B5553023F40000004C0200
310
000B0008025F72656C732F2E72656C7320A2040228A000020000000000000000
310
0000000000000000000000000000000000000000000000000000000000000000
310
0000000000000000000000000000000000000000000000000000000000000000
310
0000000000000000000000000000000000000000000000000000000000000000
310
0000000000000000000000000000000000000000000000000000000000000000
310
0000000000000000000000000000000000000000000000000000000000000000
310
0000000000000000000000000000000000000000000000000000000000000000
310
0000000000000000000000000000000000000000000000000000000000000000
310
0000000000000000000000000000000000000000000000000000000000000000
310
0000000000000000000000000000000000000000000000000000000000000000
310
0000000000000000000000000000000000000000000000000000000000000000
310
0000000000000000000000000000000000000000000000000000000000000000
310
0000000000000000000000000000000000000000000000000000000000000000
310
0000000000000000000000000000000000000000000000000000000000000000
310
0000000000000000000000000000000000000000000000000000000000000000
310
0000000000000000000000000000000000000000000000000000000000000000
310
000000000000000000000000000000000000000000000000AC924D4FC3300C86
310
EF48FC87C8F7D5DD9010424B774148BB21547E8049DC0FB58DA3241BDDBF271C
310
10541A8303477FBD7EFCCADBDD3C8DEAC821F6E234AC8B12143B23B677AD8697
310
FA7175072A2672964671ACE1C41176D5F5D5F699474A792876BD8F2AABB8A8A1
310
4BC9DF2346D3F144B110CF2E571A0913A51C86163D99815AC64D59DE62F8AE01
310
D54253EDAD86B0B737A0EA93CF9B7FD796A6E90D3F88394CECD29915C8736267
310
D9AE7CC86C21F5F91A5553683969B0629E723A22795F646CC0F3449BBF13FD7C
310
2D4E9CC852223412F832CF47C725A0F57F5AB434F1CB9D79C43709C3ABC8F0C9
310
828B1FA8DE010000FFFF0300504B030414000600080000002100813E9497F300
310
0000BA0200001A000801786C2F5F72656C732F776F726B626F6F6B2E786D6C2E
310
72656C7320A2040128A000010000000000000000000000000000000000000000
310
0000000000000000000000000000000000000000000000000000000000000000
310
0000000000000000000000000000000000000000000000000000000000000000
310
0000000000000000000000000000000000000000000000000000000000000000
310
0000000000000000000000000000000000000000000000000000000000000000
310
0000000000000000000000000000000000000000000000000000000000000000
310
0000000000000000000000000000000000000000000000000000000000000000
310
0000000000000000000000000000000000000000000000000000000000000000
310
000000000000000000000000AC524D4BC43010BD0BFE8730779B761511D9742F
310
22EC55EB0F08C9B429DB2621337EF4DF1B2ABA5D58D64B2F036F8679EFCDC776
310
F7350EE20313F5C12BA88A12047A136CEF3B056FCDF3CD030862EDAD1E824705
310
1312ECEAEBABED0B0E9A7313B93E92C82C9E1438E6F828251987A3A62244F4B9
310
D286346ACE3075326A73D01DCA4D59DECBB4E480FA8453ECAD82B4B7B7209A29
310
66E5FFB943DBF6069F82791FD1F31909493C0D7900D1E8D4212BF8C145F608F2
310
BCFC664D79CE6BC1A3FA0CE51CAB4B1EAA353D7C86742087C8471F7F299273E5
310
A299BB55EFE17442FBCA29BFDBF22CCBF4EF66E4C9C7D5DF000000FFFF030050
310
4B030414000600080000002100ABDD2384E1010000870300000F000000786C2F
310
776F726B626F6F6B2E786D6CAC934D6FDB300C86EF03F61F04DD1D5B8ED3A646
310
9C2259322CC0300C6BD69E159B8E85E8C390E42559B1FF3ECA86B70EBDF4B013
310
45517CF4BEA6BCB8BF28497E8075C2E882B2494209E8D254421F0BFA7DFF319A
310
53E23CD71597464341AFE0E8FDF2FDBBC5D9D8D3C19813418076056DBC6FF338
310
7665038ABB89694163A53656718FA93DC6AEB5C02BD7007825E334496E62C585
310
A60321B76F6198BA16256C4CD929D07E805890DCA37CD788D68D3455BE05A7B8
310
3D756D541AD522E220A4F0D71E4A892AF3DD511BCB0F126D5FD86C24E3F2155A
310
89D21A676A3F41543C887CE59725316383E5E5A216121E87CF4E78DB7EE12ADC
310
222991DCF96D253C5405BDC1D49CE19F0DDBB5EB4E48ACB22C4B131A2FFF8CE2
310
AB2515D4BC937E8F4318F17870364DD3349C0C037B1470767F9B424A2E4F4257
310
E65CD05BB4797D999CFBC293A87C53D07932C7FAB0F509C4B1F1054DD9B41711
310
BF60F733C63BFA4874EFED21CC9DE1630A7117E4536273810BBBAB5810178F6D
310
2597257A09211CECF146C283F809C4425DD015CB575968818BFFEC7C1F496745
310
419F5996AC6E93BB2C4AB6D35994CDEFD2689E4DD3E843B649B7B3DBED66BB9E
310
FDFABFA3C407918F7F4390DD70EBF7969727FC87BE41BDE60E473B3844BDE873
310
541D8F5DCBDF000000FFFF0300504B0304140006000800000021004B4EC1B515
310
010000FA01000014000000786C2F736861726564537472696E67732E786D6C9C
310
91BD4EC33010C77724DEC1BA9D380D504AE5B80312125B077800935C9B48891D
310
7C4E0523ED4BF002A02E4C3C5224C4637009528594053159FEDDFD3F2CABC563
310
5D890D7A2A9D4D6112C520D0662E2FED3A85BBDBEB9319080AC6E6A672165378
310
4282853E3E524441B0D6520A4508CD5C4ACA0AAC0D45AE41CB9395F3B5097CF5
310
6B498D4793538118EA4A26713C95B5292D88CCB536702EC7B6B67C68F1EA00B4
310
A252ABA03F3FF65FFB172583567E5908BA4FA12FC94702FDBCDB3D77BBD76EFB
310
D66DDF872DC96B5A3505F70D65B6F462E56CB8C93905A456B2771D9CFBFA736A
310
4CC6CFE27E847E83A02791185CFEAB4FFEACD7A7D14FDF43237D3622E723321D
310
918B11998DC8E52F22F9EFF437000000FFFF0300504B03041400060008000000
310
21003B6D324BC10000004201000023000000786C2F776F726B7368656574732F
310
5F72656C732F7368656574312E786D6C2E72656C73848FC18AC2301445F703FE
310
43787B93D6850C43533722B855E70362FADA06DB9790F714FD7BB31C65C0E5E5
310
70CFE5369BFB3CA91B660E912CD4BA0285E4631768B0F07BDA2DBF41B138EADC
310
14092D3C9061D32EBE9A034E4E4A89C79058150BB1855124FD18C37EC4D9B18E
310
09A9903EE6D949897930C9F98B1BD0ACAA6A6DF25F07B42F4EB5EF2CE47D5783
310
3A3D5259FEEC8E7D1F3C6EA3BFCE48F2CF84493990603EA24839C845EDF28062
310
41EB77F69E6B7D0E04A66DCCCBF3F6090000FFFF0300504B0304140006000800
310
00002100DBAC8E809F060000921A000013000000786C2F7468656D652F746865
310
6D65312E786D6CEC595B8B1B37147E2FF43F0CF3EEF836E3CB126FB0C776B6CD
310
6E12B24E4A1E655BF628AB199991BC1B1302250B7D29144AD3D29796BEF5A1B4
310
0D24D097EDAFD936A54D217FA1479AB1475ACB4D9A6E202D59C332A3F974F4E9
310
9CA34FB78B97EE46D439C409272C6EB9E50B25D7C1F1888D493C6DB93707FD42
310
C375B840F1185116E396BBC0DCBDB4FDEE3B17D1960871841DA81FF32DD47243
310
21665BC5221F4131E217D80CC7F06DC2920809784DA6C571828EC06E448B9552
310
A9568C10895D27461198BD36999011764E8F3F3A3D3E393DFEDADD5E36D0A3D0
310
4A2CB82C18D1645F9AC7462D851D1F9425822F784013E710D1960B6D8DD9D100
310
DF15AE431117F0A1E596D49F5BDCBE58445B59252A36D4D5EAF5D55F562FAB30
310
3EA8A83693E970D5A8E7F95EADBDB2AF0054ACE37AF55EAD575BD95300341A41
310
4F532EBA4DBFD3EC74FD0CAB81D2478BED6EBD5B2D1B78CD7E758D73DB973F03
310
AF40A97D6F0DDFEF07E04503AF4029DEB7F8A45E093C03AF4029BEB686AF97DA
310
5DAF6EE01528A4243E584397FC5A3558F676059930BA6385377DAF5FAF64C673
310
1464C32ABB641313168B4DB916A13B2CE903400229122476C46286276804991C
310
204A86097176C93484C49BA19871282E554AFD5215FECB9FA79E9447D016465A
310
6DC90B98F0B522C9C7E1A384CC44CB7D1FACBA1AE4F9C9F7CF4F1E3BCF4F1E9D
310
3E7872FAE0A7D3E3E3D3073FA6B68C8A3B289EEA159F7DFBE99F5F7DE8FCF1F8
310
9B670F3FB7E3B98EFFF5878F7FF9F9333B103A9B7BE1E9178F7E7BF2E8E9979F
310
FCFEDD430BBC9DA0A10E1F900873E72A3E726EB008FAA6BC6032C7C3E49FD518
310
848818355008B62DA67B223480571788DA701D6C3AEF56020263035E9EDF31B8
310
EE87C95C104BCB57C2C800EE31463B2CB13AE08A6C4BF3F0601E4FED8D27731D
310
7703A1435BDB018A8DD0F6E633505662331984D8A0799DA258A0298EB170E437
310
7680B1A577B70931FCBA474609E36C229CDBC4E9206275C9800C8D44CA2BED90
310
08E2B2B01184501BBED9BBE57418B5F5BA8B0F4D240C08442DE407981A6EBC8C
310
E602453693031451DDE1BB48843692FB8B64A4E37A5C40A4A79832A737C69CDB
310
EA5C4BA0BF5AD0AF80B8D8C3BE471791894C0439B0D9DC458CE9C82E3B084214
310
CDAC9C491CEAD8F7F801A42872AE336183EF317384C87788038A3786FB16C146
310
B85F2C04374157754A7982C82FF3C412CBCB9899E3714127082B9501D937D43C
310
22F10BA5FD8CA8FB6F453D9D95CE8A7A3B21D6A1B57346CA37E1FE8302DE45F3
310
F83A8631B33E81BDD5EFB7FAEDFEEFF57BD3583E7FD5CE851A343C5FADABB57B
310
B471E93E2194EE8B05C5BB5CADDE394C4FE33E14AA6D85DA5BAEB672B3101EB3
310
8D82819B2648D57112263E2022DC0FD10C96F865B5119DF2CCF4943B33C661E5
310
AF8AD5B6189FB1ADF60FF3688F8DD31D6BB92C77A7A9787024F2F292BF2A87DD
310
8648D1B57ABE0B5B9957FBDAA9DA2D2F09C8BAFF8484D69849A26A21515F1642
310
14FE8E84EAD9B9B0685A5834A4F965A896515CB902A8ADA202EB2707565D2DD7
310
F7D29300D854218AC7324EE9A1C032BA3238E71AE94DCEA47A06C06262990179
310
A49B92EBC6EEC9DEA5A9F61291364868E96692D0D23044639C65A77E74729EB1
310
6EE62135E849572C47434EA3DE781DB1962272461B68AC2B058D9DA3965BABFA
310
70423642B3963B819D3F3C4633C81D2ED7BD884EE1086D249274C0BF8AB2CC12
310
2EBA8887A9C395E8A46A101181138792A8E5CAEEAFB281C64A4314B7720504E1
310
8D25D7045979D3C841D0CD20E3C9048F841E76AD447A3A7D05854FB5C2FA5555
310
7F75B0ACC9E610EEFD707CE40CE93CB98120C5FC7A593A704C381C0095536F8E
310
099C68AE842CCFBF33135326BBFA91A2CAA1B41CD15988B2194517F314AE4474
310
4547BDAD7CA0BD657D0687AEBB70389513ECBF9E755F3C554BCF69A299CF9986
310
AAC859D32EA6AF6F92D758E593A8C12A956EB56DE0B9D635975A07896A9D255E
310
30EBBEC484A051CB1B33A849C6EB322C353B2B35A99DE38240F3446D83DF5673
310
84D513AF3AF343BDB3592B2788E5BA5225BEBAFED06F27D8F00E884717CE81E7
310
5470154AB87B48102CFAD293E454366088DC15D91A119E9C79425AEEBD92DFF6
310
828A1F144A0DBF57F0AA5EA9D0F0DBD542DBF7ABE59E5F2E753B95FB30B18830
310
2AFBE9D54B1FCEA3E822BB8051E56B9730D1F2C8EDC2884545A62E598A8AB8BA
310
8429576C97300379C3E23A0444E75EADD26F569B9D5AA1596DF70B5EB7D32834
310
835AA7D0AD05F56EBF1BF88D66FFBEEB1C2AB0D7AE065EADD728D4CA4150F06A
310
2549BFD12CD4BD4AA5EDD5DB8D9ED7BE9F2D63A0E7A97C64BE00F72A5EDB7F01
310
0000FFFF0300504B030414000600080000002100EEBF14C9BA030000F90B0000
310
0D000000786C2F7374796C65732E786D6CCC56DD8ADB4614BE2FF41DC4DC6BF5
310
63C9B58DA510AF5710484361B7D0DBB134B287CC8F91465B3BA5379B7728F40D
310
7A135268A150F66D1672BBAFD0333392ADEDD6A9E30DB437F6CC9999EF7CE757
310
67FA6CC399734DAA9A4A91A0E0CC470E11B92CA85826E8DBABCC1D21A7565814
310
98494112B425357A967EF9C5B4565B462E5784280720449DA09552EB89E7D5F9
310
8A705C9FC935117052CA8A6305DB6AE9D5EB8AE0A2D68F38F342DF1F7A1C5381
310
2CC284E7C780705CBD6ED66E2EF91A2BBAA08CAAADC1420ECF272F96425678C1
310
80EA268870DE619BCD23784EF34AD6B2546700E7C9B2A43979CC72EC8D3D404A
310
A7A514AA7672D90895A008A0B586C96B21BF17993E0207B6B7D269FDC6B9C60C
310
2401F2D2692E99AC1C059E016246223027F6C6FDEDBBFBDBDF9CFBDB5FEF6E7E
310
BFBBF9E3EEEDDBBB9BF7FA558939655B7B2B34302B5CD5E0718B1C8EB4CCF8BB
310
85E214ACD7424F53B584F75486FAE43FD01B58EE4F76C1E0741734DA515D44FC
310
CF139193E898C0D41019CAD82E95063A6B40904E21A515A944061BA75D5F6DD7
310
903302AACF06D6DCFB97DBCB0A6F83303EFE412D192D348BE5793F4CC6538B56
310
46454136A448D03032C03DAE3AE10C2FF307E62D64554053E96A451B6845E994
310
915241342ABA5CE97F25D7F0BB904A4105A6D382E2A51498E91CEE5E1CF1127A
310
14B4A3047152D08683365B70B851B2AD3740D32A3E55C311C0604167C01369B4
310
1683FF72C2D8A536E9BB72E744DD5B36A5231A9E71F502E200BD5A9779B78400
310
B44BEB30BB49A798D1A5E04440DB2095A2B9EE4A396C89ED149B125CDDD767B5
310
F7140F4F52EC6CCA4F607084612172FA86EDF01DBC5EB3AD2E19DB7F8FB0F781
310
B668FC8F7EFCB8BA570D5F902A331F37ADF6739200CDBA9AB4F71E90002D9D4F
310
ADBA032420271E53B22F66A62EF7A7CFBBDCF8BBEB56B2A26F0048278BAE5874
310
38790E3AF3901D20FFDFDBD1ABADC18170C0958766E819E0C45C30050825D7AB
310
FC0775BFAB4F477FBF13F4E1979F3FFCF9538FC0A2A14C51612B4E37CFDD0BC0
310
2C36FB2E625ABAD21392E92F3B2D604D414ADC3075B53B4CD07EFDB5E9AC10BA
310
F6D637F45A2A0391A0FDFAA5EEEA811934C846BDAC6106817FA7A968827EB898
310
7D359E5F64A13BF26723371A90D81DC7B3B91B47E7B3F93C1BFBA17FFE636F60
310
7BC2B866C64A68974134A9190C75556B6C4BFE722F4B506F63E99BAF1BD0EE73
310
1F8743FF791CF86E36F003371AE2913B1A0E62378B83703E8C66177116F7B8C7
310
A7710F7C2F08EC4CACC9C7134539615474B1EA22D497429060FB1123BC2E12DE
310
7E664FFF020000FFFF0300504B03041400060008000000210091F4F59D9D0300
310
00BA0E000018000000786C2F776F726B7368656574732F7368656574312E786D
310
6CB4975B6FDA3014C7DF27ED3B447E2F21E1D28208151B9DD68749D3E8B667E3
310
38C4228933DBDCFAE9778E3D10AC6664123C94E662FFCEFFF8F2CFF1E8715B16
310
C19A2B2D649590A8D52601AF984C45B548C8F7974F770F24D08656292D64C513
310
B2E39A3C8EDFBF1B6DA45AEA9C731300A1D209C98DA98761A859CE4BAA5BB2E6
310
15BCC9A42AA9815BB50875AD384D6DA7B208E376BB1F965454C41186AA094366
310
99607C2AD9AAE4957110C50B6A40BFCE45ADF7B49235C195542D57F51D93650D
310
88B92884D95928094A367C5E5452D17901796FA32E657BB6BD79832F055352CB
310
CCB400173AA16F731E84831048E3512A20031CF640F12C21936838897B241C8F
310
EC00FD107CA38FAE0343E7335E7066780AF344825729CB19A3A82D8AEE4980F3
310
319772891D9FA1491B4268DB01435066C49A7FE4459190279CD25F36285C42C0
310
F010F1F87A1FFD939DC1AF2A4879465785F926379FB958E40602775A3D18131C
310
9A61BA9B72CD604E20742BB289305900047E8352E0E28231A55BFB7F23529327
310
A417B53AF740D06667F320015B6923CB9FEE7584E20EDDE37DF77EE7A10BF9BA
310
3683A3DE988A8B69139A5243C723253701AC2C08AE6B8AEB341AE2B57DE2A2B9
310
04ED039B541F9372AF0E899ECB12F4217DE290D00FD2D730F2EB717B14AE510F
310
FC8184830EC8A2A90EA4E5822D3F481C6AAF8218423901C84D48E74840E41700
310
4D6E2200B9098189398C40EC17004D6E2200B9A7023A7E01B8E01A2E85FF9A02
310
E49E0AE8FA05F46F2400B9A7027A7E016017371901E49E0AE8FB05A003DD620A
310
907B2AE0DE2F006DE31602907B2AE0C12F20820FED4D1458F0A984C11909CD3C
310
D16FEF07E373CE17DBEFC8B1D145CD9CEE02DDD99A87DECCC62ED09D6779E8CD
310
3CEA02DD199287DECC802ED09DDB78E8CDDCE502DD598987DECC3A2ED09D4F78
310
E8CD7CE102DD998087DE6CD35FA0BB1DFE961E37DBD0FFA65B48423CF46BECD5
310
F8DC5E8DAFB1572DC4ABFD1A7B353EB757E36BEC550BF16ABFC65E85B21EBF0A
310
47B3EA2A6E57A0D6391CAC8C60506167B23258BBDBC2B7A60BFE85AA85A87450
310
F0CCD6D5B071942BBDDB2DB836B2C66A1B4BE8B9345038EFEF72386771A84BDB
310
2D18B64C4AB3BF811219B9336E567550D39AAB9978852304AC6AA90454EFF620
310
95905A2AA3A83024C8E1F92BE8A2C5B416F05D8907DD41FF1E7E091E1B41F79F
310
17B0FCD5508078F59C5AFD020F4F3C7D524A2A38061CDFEE8F1F937838C1EF55
310
B52AE7A0C460FB897EE15B5BF06239FF17243C9C3AC7BF010000FFFF0300504B
310
0304140006000800000021006F74BFC6560100006B02000011000801646F6350
310
726F70732F636F72652E786D6C20A2040128A000010000000000000000000000
310
0000000000000000000000000000000000000000000000000000000000000000
310
0000000000000000000000000000000000000000000000000000000000000000
310
0000000000000000000000000000000000000000000000000000000000000000
310
0000000000000000000000000000000000000000000000000000000000000000
310
0000000000000000000000000000000000000000000000000000000000000000
310
0000000000000000000000000000000000000000000000000000000000000000
310
0000000000000000000000000000000000000000000000000000000000000000
310
0000000000000000000000000000000000000000008C924D4EC3301484F748DC
310
21F23E719CF26B25A904A82B2A2151046267D98F36227622DB90F600881D1760
310
CF0158C37140EA2D70923604CA82A53DF33ECF3C391ECE65EEDD833659A11244
310
821079A0782132354DD0C564E41F20CF58A604CB0B05095A8041C3747B2BE625
310
E58586335D94A06D06C6732465282F1334B3B6A4181B3E03C94CE01CCA893785
310
96CCBAA39EE292F15B36051C85E11E9660996096E11AE8971D11AD908277C8F2
310
4EE70D40700C394850D6601210FCEDB5A0A5F973A0517A4E99D945E93AADE2F6
310
D982B762E79E9BAC3356551554832686CB4FF0D5F8F4BCA9EA67AADE150794C6
310
8253AE81D942A79FAF6FCBC7276FF9FCF0F1FE12E39E526F3167C68EDDC26F32
310
10478BDFE64D832337455A3C08CF45A36D91B57239383E998C501A8564D727A1
310
1F9149B843C3431A92EBFAFD1FF375D4F642AE52FC9B180D28D9EF11D78034C6
310
1BDF23FD020000FFFF0300504B0304140006000800000021009443F89CE00000
310
00240A000027000000786C2F7072696E74657253657474696E67732F7072696E
310
74657253657474696E6773312E62696EF267F066F06450607062B06030623064
310
201530B230B0DE61F0E014EE67606064E06498C56DC2910264B133FCFBCF04A4
310
1918984836939A1A402E4060888B60E6FF070264BB38A11C138E59DC307190EB
310
61981FC83E70E000430A1D7DC40E767F03DC170D40D720DCC708F61BC8877FC1
310
3E81F97440837C58590E095118C9C8E04F617ED9024E59B078830415E15803A9
310
A00D90021B8BCD7C881828AD4B3430C27331C8E508D5A0D489006C0C6C408E08
310
105207D0CED7A3F96328850033926311B5890E3079FC432ABF39462375404300
310
B52E1D8D8CE1130200000000FFFF0300504B03041400060008000000210061D1
310
62469D0100001903000010000801646F6350726F70732F6170702E786D6C20A2
310
040128A000010000000000000000000000000000000000000000000000000000
310
0000000000000000000000000000000000000000000000000000000000000000
310
0000000000000000000000000000000000000000000000000000000000000000
310
0000000000000000000000000000000000000000000000000000000000000000
310
0000000000000000000000000000000000000000000000000000000000000000
310
0000000000000000000000000000000000000000000000000000000000000000
310
0000000000000000000000000000000000000000000000000000000000000000
310
0000000000000000000000000000000000000000000000000000000000000000
310
0000000000009C92B16EDB301086F7027907817B4C396983C2A018144E8B0C2D
310
6AC04E76963A59442992202F82DD315EF23619B3E46DFC223D498823B799B2DD
310
DD7FFCF9F178E272D3D8AC85988C77059B4E729681D3BE346E5DB09BD5B7D3CF
310
2C4BA85CA9AC7750B02D2476294F3E8845F401221A481959B854B01A31CC384F
310
BA8646A509C98E94CAC74621A571CD7D55190D575EDF35E0909FE5F905870D82
310
2BA13C0D07433638CE5A7CAF69E975C7976E57DB40C0527C09C11AAD905E297F
310
181D7DF215665F371AACE0635110DD12F45D34B895B9E0E3542CB5B230276359
310
299B40F0D782B806D50D6DA14C4C52B4386B41A38F59327F686C672CFBA51274
310
38056B5534CA2161756D43D2C736248C72BF7BDCEF9EF7F78FFBFBA72ED83D08
310
4E8D83D887E333E3D87C94D3BE8182E3C6CE600022E1187565D042FA592D54C4
310
37C8A763F29E61E01E709635000E778EF9FAA7D34DFF78CF7D1394DB927088BE
310
1BF73BDD8495BF52082F633D2E8A65AD2294F41387B11F0AE29A261A6D6732AF
310
955B43F9D2F3BFD02DC1EDB0E972FA69929FE7F4BFA39AE0AF3B2DFF020000FF
310
FF0300504B01022D0014000600080000002100413782CF6E0100000405000013
310
00000000000000000000000000000000005B436F6E74656E745F54797065735D
310
2E786D6C504B01022D0014000600080000002100B5553023F40000004C020000
310
0B00000000000000000000000000A70300005F72656C732F2E72656C73504B01
310
022D0014000600080000002100813E9497F3000000BA0200001A000000000000
310
00000000000000CC060000786C2F5F72656C732F776F726B626F6F6B2E786D6C
310
2E72656C73504B01022D0014000600080000002100ABDD2384E1010000870300
310
000F00000000000000000000000000FF080000786C2F776F726B626F6F6B2E78
310
6D6C504B01022D00140006000800000021004B4EC1B515010000FA0100001400
310
0000000000000000000000000D0B0000786C2F736861726564537472696E6773
310
2E786D6C504B01022D00140006000800000021003B6D324BC100000042010000
310
2300000000000000000000000000540C0000786C2F776F726B7368656574732F
310
5F72656C732F7368656574312E786D6C2E72656C73504B01022D001400060008
310
0000002100DBAC8E809F060000921A0000130000000000000000000000000056
310
0D0000786C2F7468656D652F7468656D65312E786D6C504B01022D0014000600
310
080000002100EEBF14C9BA030000F90B00000D00000000000000000000000000
310
26140000786C2F7374796C65732E786D6C504B01022D00140006000800000021
310
0091F4F59D9D030000BA0E000018000000000000000000000000000B18000078
310
6C2F776F726B7368656574732F7368656574312E786D6C504B01022D00140006
310
000800000021006F74BFC6560100006B02000011000000000000000000000000
310
00DE1B0000646F6350726F70732F636F72652E786D6C504B01022D0014000600
310
0800000021009443F89CE0000000240A00002700000000000000000000000000
310
6B1E0000786C2F7072696E74657253657474696E67732F7072696E7465725365
310
7474696E6773312E62696E504B01022D001400060008000000210061D162469D
310
010000190300001000000000000000000000000000901F0000646F6350726F70
310
732F6170702E786D6C504B0506000000000C000C002603000063220000000000
310
0000000000000000000000000000000000000000000000000000000000000000
310
0000000000000000000000000000000000000000000000000000000000000000
310
0000000000000000000000000000000000000000000000000000000000000000
310
02004F006C006500500072006500730030003000300000000000000000000000
310
0000000000000000000000000000000000000000000000000000000000000000
310
18000200FFFFFFFFFFFFFFFFFFFFFFFF00000000000000000000000000000000
310
0000000000000000000000000000000000000000030000006A05000000000000
310
0000000000000000000000000000000000000000000000000000000000000000
310
0000000000000000000000000000000000000000000000000000000000000000
310
00000000FFFFFFFFFFFFFFFFFFFFFFFF00000000000000000000000000000000
310
0000000000000000000000000000000000000000000000000000000000000000
310
0000000000000000000000000000000000000000000000000000000000000000
310
0000000000000000000000000000000000000000000000000000000000000000
310
00000000FFFFFFFFFFFFFFFFFFFFFFFF00000000000000000000000000000000
310
0000000000000000000000000000000000000000000000000000000000000000
310
0000000000000000000000000000000000000000000000000000000000000000
310
0000000000000000000000000000000000000000000000000000000000000000
310
00000000FFFFFFFFFFFFFFFFFFFFFFFF00000000000000000000000000000000
310
0000000000000000000000000000000000000000000000000000000000000000
310
040000002701FFFF030000001E00050000000102FFFFFF000500000009020000
310
000007000000160453009C0101000100040000002701FFFF030000001E000500
310
00000102FFFFFF000500000009020000000007000000160453009C0101000100
310
07000000FC020000FFFFFF000000040000002D010000050000000902FFFFFF00
310
050000000102000000000400000004010D0004000000020102000C0000004009
310
2100F0000000000000006700E401000000001C000000FB02F3FF000000000000
310
90010000008000000030826C827220826F835383568362834E00000000000000
310
00000000000000000000040000002D0101000500000009020000000005000000
310
0102FFFFFF0004000000020101000D000000320A0600030004000000928D8B4C
310
0D0000000D00000007000000FC020000000000000000040000002D0102000C00
310
000040092100F00000000000000001001A0012000300040000002D0100001C00
310
0000FB02F0FF00000000000090010000008000000030826C827220826F835383
310
568362834E0000000000000000000000000000000000040000002D0103000C00
310
0000320A1900030003000000312E20000800030005000C000000320A2D000300
310
03000000322E20000800030005000A000000320A4100030002000000332E0800
310
030007000000FC020000FFFFFF000000040000002D0104001C000000FB021200
310
0800000000009001000000800102020253797374656D000001B9010040086B05
310
0000000031178AFF20A41B0108000000040000002D010500040000002701FFFF
310
030000001E00040000002D010300040000002D010000050000000102FFFFFF00
310
0500000009020000000007000000160453009C010000000007000000FC020000
310
DADCDD000000040000002D01060004000000F0010000050000000902DADCDD00
310
050000000102DADCDD000400000004010D00040000000201020008000000FA02
310
000000000000DADCDD00040000002D01000008000000FA020000000000000000
310
0000040000002D0107000C00000040092100F000000000000000000001000000
310
0000040000002D010000040000002D0107000C00000040092100F00000000000
310
00000000010000009B0107000000FC020000000000000000040000002D010800
310
05000000090200000000050000000102FFFFFF000C00000040092100F0000000
310
0000000002009C01290000000C00000040092100F00000000000000002009C01
310
3D0000000C00000040092100F00000000000000002009C015100000007000000
310
FC020000000000000000040000002D01090004000000F0010800040000002D01
310
0500040000002701FFFF030000001E00040000002D010300050000000102FFFF
310
FF000500000009020000000007000000160453009C010100010004000000F001
310
0200040000002701FFFF03000000000000000000000000000000000000000000
310
00004E414E490000000000000000000000000000000000000000000000000000
310
0000000000000000000000000000000000000000000000000000000000000000
310
0000000000000000000000000000000000000000000000000000000000000000
310
0000000000000000000000000000000000000000000000000000000000000000
310
0000000000000000000000000000000000000000000000000000000000000000
310
0000000000000000000000000000000000000000000000000000000000000000
310
0000000000000000000000000000000000000000000000000000000000000000
310
0000000000000000000000000000000000000000000000000000000000000000
310
0000000000000000000000000000000000000000000000000000000000000000
310
0000000000000000000000000000000000000000000000000000000000000000
310
0000000000000000000000000000000000000000000000000000000000000000
310
0000000000000000000000000000000000000000000000000000000000000000
310
0000000000000000000000000000000000000000000000000000000000000000
310
0000000000000000000000000000000000000000000000000000000000000000
310
0000000000000000000000000000000000000000000000000000000000000000
  1
OLE
  0
ENDSEC
  0
SECTION
  2
OBJECTS
  0
DICTIONARY
  5
C
330
0
100
AcDbDictionary
281
     1
  3
ACAD_DETAILVIEWSTYLE
350
47F
  3
ACAD_GROUP
350
D
  3
ACAD_LAYOUT
350
1A
  3
ACAD_MATERIAL
350
43
  3
ACAD_MLEADERSTYLE
350
6B
  3
ACAD_MLINESTYLE
350
17
  3
ACAD_PLOTSETTINGS
350
19
  3
ACAD_PLOTSTYLENAME
350
E
  3
ACAD_SCALELIST
350
47
  3
ACAD_SECTIONVIEWSTYLE
350
480
  3
ACAD_TABLESTYLE
350
69
  3
ACAD_VISUALSTYLE
350
2A
  3
ACDB_RECOMPOSE_DATA
350
47C
  3
AcDbVariableDictionary
350
478
  0
SUN
  5
6D
330
29
100
AcDbSun
 90
        1
290
     0
 63
     7
421
 16777215
 40
1.0
291
     1
 91
  2455826
 92
 54000000
292
     0
 70
     2
 71
   256
280
     1
  0
DICTIONARY
  5
47F
102
{ACAD_REACTORS
330
C
102
}
330
C
100
AcDbDictionary
281
     1
  0
DICTIONARY
  5
D
102
{ACAD_REACTORS
330
C
102
}
330
C
100
AcDbDictionary
281
     1
  0
DICTIONARY
  5
1A
102
{ACAD_REACTORS
330
C
102
}
330
C
100
AcDbDictionary
281
     1
  3
Layout1
350
1E
  3
Layout2
350
26
  3
Model
350
22
  0
DICTIONARY
  5
43
102
{ACAD_REACTORS
330
C
102
}
330
C
100
AcDbDictionary
281
     1
  3
ByBlock
350
45
  3
ByLayer
350
44
  3
Global
350
46
  0
DICTIONARY
  5
6B
102
{ACAD_REACTORS
330
C
102
}
330
C
100
AcDbDictionary
281
     1
  3
Standard
350
6C
  0
DICTIONARY
  5
17
102
{ACAD_REACTORS
330
C
102
}
330
C
100
AcDbDictionary
281
     1
  3
Standard
350
18
  0
DICTIONARY
  5
19
102
{ACAD_REACTORS
330
C
102
}
330
C
100
AcDbDictionary
281
     1
  0
ACDBDICTIONARYWDFLT
  5
E
102
{ACAD_REACTORS
330
C
102
}
330
C
100
AcDbDictionary
281
     1
  3
Normal
350
F
100
AcDbDictionaryWithDefault
340
F
  0
DICTIONARY
  5
47
102
{ACAD_REACTORS
330
C
102
}
330
C
100
AcDbDictionary
281
     1
  3
A0
350
48
  3
A1
350
49
  3
A2
350
4A
  3
A3
350
4B
  3
A4
350
4C
  3
A5
350
4D
  3
A6
350
4E
  3
A7
350
4F
  3
A8
350
50
  3
A9
350
51
  3
B0
350
52
  3
B1
350
53
  3
B2
350
54
  3
B3
350
55
  3
B4
350
56
  3
B5
350
57
  3
B6
350
58
  3
B7
350
59
  3
B8
350
5A
  3
B9
350
5B
  3
C0
350
5C
  3
C1
350
5D
  3
C2
350
5E
  3
C3
350
5F
  3
C4
350
60
  3
C5
350
61
  3
C6
350
62
  3
C7
350
63
  3
C8
350
64
  3
C9
350
65
  3
D0
350
66
  3
D1
350
67
  3
D2
350
68
  0
DICTIONARY
  5
480
102
{ACAD_REACTORS
330
C
102
}
330
C
100
AcDbDictionary
281
     1
  0
DICTIONARY
  5
69
102
{ACAD_REACTORS
330
C
102
}
330
C
100
AcDbDictionary
281
     1
  3
Standard
350
6A
  0
DICTIONARY
  5
2A
102
{ACAD_REACTORS
330
C
102
}
330
C
100
AcDbDictionary
281
     1
  3
2dWireframe
350
2F
  3
Basic
350
32
  3
Brighten
350
36
  3
ColorChange
350
3A
  3
Conceptual
350
34
  3
Dim
350
35
  3
EdgeColorOff
350
3D
  3
Facepattern
350
39
  3
Flat
350
2B
  3
FlatWithEdges
350
2C
  3
Gouraud
350
2D
  3
GouraudWithEdges
350
2E
  3
Hidden
350
31
  3
JitterOff
350
3B
  3
Linepattern
350
38
  3
OverhangOff
350
3C
  3
Realistic
350
33
  3
Shaded
350
42
  3
Shaded with edges
350
41
  3
Shades of Gray
350
3E
  3
Sketchy
350
3F
  3
Thicken
350
37
  3
Wireframe
350
30
  3
X-Ray
350
40
  0
XRECORD
  5
47C
102
{ACAD_REACTORS
330
C
102
}
330
C
100
AcDbXrecord
280
     1
 90
        1
330
6A
  0
DICTIONARY
  5
478
102
{ACAD_REACTORS
330
C
102
}
330
C
100
AcDbDictionary
281
     1
  3
CANNOSCALE
350
479
  3
CMLEADERSTYLE
350
47E
  3
CTABLESTYLE
350
47D
  3
SECTIONTHICKNESSINC
350
481
  0
LAYOUT
  5
1E
102
{ACAD_REACTORS
330
1A
102
}
330
1A
100
AcDbPlotSettings
  1

  2
none_device
  4

  6

 40
0.0
 41
0.0
 42
0.0
 43
0.0
 44
0.0
 45
0.0
 46
0.0
 47
0.0
 48
0.0
 49
0.0
140
0.0
141
0.0
142
1.0
143
1.0
 70
   688
 72
     1
 73
     0
 74
     5
  7

 75
    16
 76
     0
 77
     2
 78
   300
147
1.0
148
0.0
149
0.0
100
AcDbLayout
  1
Layout1
 70
     1
 71
     1
 10
0.0
 20
0.0
 11
420.0
 21
297.0
 12
0.0
 22
0.0
 32
0.0
 14
1.0000000000E+20
 24
1.0000000000E+20
 34
1.0000000000E+20
 15
-1.0000000000E+20
 25
-1.0000000000E+20
 35
-1.0000000000E+20
146
0.0
 13
0.0
 23
0.0
 33
0.0
 16
1.0
 26
0.0
 36
0.0
 17
0.0
 27
1.0
 37
0.0
 76
     0
330
1B
  0
LAYOUT
  5
26
102
{ACAD_REACTORS
330
1A
102
}
330
1A
100
AcDbPlotSettings
  1

  2
none_device
  4

  6

 40
0.0
 41
0.0
 42
0.0
 43
0.0
 44
0.0
 45
0.0
 46
0.0
 47
0.0
 48
0.0
 49
0.0
140
0.0
141
0.0
142
1.0
143
1.0
 70
   688
 72
     1
 73
     0
 74
     5
  7

 75
    16
 76
     0
 77
     2
 78
   300
147
1.0
148
0.0
149
0.0
100
AcDbLayout
  1
Layout2
 70
     1
 71
     2
 10
0.0
 20
0.0
 11
0.0
 21
0.0
 12
0.0
 22
0.0
 32
0.0
 14
0.0
 24
0.0
 34
0.0
 15
0.0
 25
0.0
 35
0.0
146
0.0
 13
0.0
 23
0.0
 33
0.0
 16
1.0
 26
0.0
 36
0.0
 17
0.0
 27
1.0
 37
0.0
 76
     0
330
23
  0
LAYOUT
  5
22
102
{ACAD_REACTORS
330
1A
102
}
330
1A
100
AcDbPlotSettings
  1

  2
none_device
  4
Letter_(8.50_x_11.00_Inches)
  6

 40
6.35
 41
6.35
 42
6.35000508
 43
6.35000508
 44
215.9
 45
279.4
 46
0.0
 47
0.0
 48
0.0
 49
0.0
140
0.0
141
0.0
142
1.0
143
1.0
 70
  1712
 72
     1
 73
     0
 74
     0
  7

 75
     0
 76
     0
 77
     2
 78
   300
147
1.0
148
0.0
149
0.0
100
AcDbLayout
  1
Model
 70
     1
 71
     0
 10
0.0
 20
0.0
 11
420.0
 21
297.0
 12
0.0
 22
0.0
 32
0.0
 14
0.0
 24
0.0
 34
0.0
 15
420.0
 25
297.0
 35
0.0
146
0.0
 13
0.0
 23
0.0
 33
0.0
 16
1.0
 26
0.0
 36
0.0
 17
0.0
 27
1.0
 37
0.0
 76
     0
330
1F
331
29
  0
MATERIAL
  5
45
102
{ACAD_REACTORS
330
43
102
}
330
43
100
AcDbMaterial
  1
ByBlock
 72
     1
 94
      127
  0
MATERIAL
  5
44
102
{ACAD_REACTORS
330
43
102
}
330
43
100
AcDbMaterial
  1
ByLayer
 72
     1
 94
      127
  0
MATERIAL
  5
46
102
{ACAD_REACTORS
330
43
102
}
330
43
100
AcDbMaterial
  1
Global
 72
     1
 94
      127
  0
MLEADERSTYLE
  5
6C
102
{ACAD_REACTORS
330
6B
102
}
330
6B
100
AcDbMLeaderStyle
179
     2
170
     2
171
     1
172
     0
 90
        2
 40
0.0
 41
0.0
173
     1
 91
-1056964608
340
14
 92
       -2
290
     1
 42
2.0
291
     1
 43
8.0
  3
Standard
341
0
 44
4.0
300

342
11
174
     1
178
     6
175
     1
176
     0
 93
-1056964608
 45
4.0
292
     0
297
     0
 46
4.0
343
0
 94
-1056964608
 47
1.0
 49
1.0
140
1.0
293
     1
141
0.0
294
     1
177
     0
142
1.0
295
     0
296
     0
143
3.75
271
     0
272
     9
273
     9
298
     0
  0
MLINESTYLE
  5
18
102
{ACAD_REACTORS
330
17
102
}
330
17
100
AcDbMlineStyle
  2
Standard
 70
     0
  3

 62
   256
 51
90.0
 52
90.0
 71
     2
 49
0.5
 62
   256
  6
BYLAYER
 49
-0.5
 62
   256
  6
BYLAYER
  0
ACDBPLACEHOLDER
  5
F
102
{ACAD_REACTORS
330
E
102
}
330
E
  0
SCALE
  5
48
102
{ACAD_REACTORS
330
47
102
}
330
47
100
AcDbScale
 70
     0
300
1:1
140
1.0
141
1.0
290
     1
  0
SCALE
  5
49
102
{ACAD_REACTORS
330
47
102
}
330
47
100
AcDbScale
 70
     0
300
1:2
140
1.0
141
2.0
290
     0
  0
SCALE
  5
4A
102
{ACAD_REACTORS
330
47
102
}
330
47
100
AcDbScale
 70
     0
300
1:4
140
1.0
141
4.0
290
     0
  0
SCALE
  5
4B
102
{ACAD_REACTORS
330
47
102
}
330
47
100
AcDbScale
 70
     0
300
1:5
140
1.0
141
5.0
290
     0
  0
SCALE
  5
4C
102
{ACAD_REACTORS
330
47
102
}
330
47
100
AcDbScale
 70
     0
300
1:8
140
1.0
141
8.0
290
     0
  0
SCALE
  5
4D
102
{ACAD_REACTORS
330
47
102
}
330
47
100
AcDbScale
 70
     0
300
1:10
140
1.0
141
10.0
290
     0
  0
SCALE
  5
4E
102
{ACAD_REACTORS
330
47
102
}
330
47
100
AcDbScale
 70
     0
300
1:16
140
1.0
141
16.0
290
     0
  0
SCALE
  5
4F
102
{ACAD_REACTORS
330
47
102
}
330
47
100
AcDbScale
 70
     0
300
1:20
140
1.0
141
20.0
290
     0
  0
SCALE
  5
50
102
{ACAD_REACTORS
330
47
102
}
330
47
100
AcDbScale
 70
     0
300
1:30
140
1.0
141
30.0
290
     0
  0
SCALE
  5
51
102
{ACAD_REACTORS
330
47
102
}
330
47
100
AcDbScale
 70
     0
300
1:40
140
1.0
141
40.0
290
     0
  0
SCALE
  5
52
102
{ACAD_REACTORS
330
47
102
}
330
47
100
AcDbScale
 70
     0
300
1:50
140
1.0
141
50.0
290
     0
  0
SCALE
  5
53
102
{ACAD_REACTORS
330
47
102
}
330
47
100
AcDbScale
 70
     0
300
1:100
140
1.0
141
100.0
290
     0
  0
SCALE
  5
54
102
{ACAD_REACTORS
330
47
102
}
330
47
100
AcDbScale
 70
     0
300
2:1
140
2.0
141
1.0
290
     0
  0
SCALE
  5
55
102
{ACAD_REACTORS
330
47
102
}
330
47
100
AcDbScale
 70
     0
300
4:1
140
4.0
141
1.0
290
     0
  0
SCALE
  5
56
102
{ACAD_REACTORS
330
47
102
}
330
47
100
AcDbScale
 70
     0
300
8:1
140
8.0
141
1.0
290
     0
  0
SCALE
  5
57
102
{ACAD_REACTORS
330
47
102
}
330
47
100
AcDbScale
 70
     0
300
10:1
140
10.0
141
1.0
290
     0
  0
SCALE
  5
58
102
{ACAD_REACTORS
330
47
102
}
330
47
100
AcDbScale
 70
     0
300
100:1
140
100.0
141
1.0
290
     0
  0
SCALE
  5
59
102
{ACAD_REACTORS
330
47
102
}
330
47
100
AcDbScale
 70
     0
300
1/128" = 1'-0"
140
0.0078125
141
12.0
290
     0
  0
SCALE
  5
5A
102
{ACAD_REACTORS
330
47
102
}
330
47
100
AcDbScale
 70
     0
300
1/64" = 1'-0"
140
0.015625
141
12.0
290
     0
  0
SCALE
  5
5B
102
{ACAD_REACTORS
330
47
102
}
330
47
100
AcDbScale
 70
     0
300
1/32" = 1'-0"
140
0.03125
141
12.0
290
     0
  0
SCALE
  5
5C
102
{ACAD_REACTORS
330
47
102
}
330
47
100
AcDbScale
 70
     0
300
1/16" = 1'-0"
140
0.0625
141
12.0
290
     0
  0
SCALE
  5
5D
102
{ACAD_REACTORS
330
47
102
}
330
47
100
AcDbScale
 70
     0
300
3/32" = 1'-0"
140
0.09375
141
12.0
290
     0
  0
SCALE
  5
5E
102
{ACAD_REACTORS
330
47
102
}
330
47
100
AcDbScale
 70
     0
300
1/8" = 1'-0"
140
0.125
141
12.0
290
     0
  0
SCALE
  5
5F
102
{ACAD_REACTORS
330
47
102
}
330
47
100
AcDbScale
 70
     0
300
3/16" = 1'-0"
140
0.1875
141
12.0
290
     0
  0
SCALE
  5
60
102
{ACAD_REACTORS
330
47
102
}
330
47
100
AcDbScale
 70
     0
300
1/4" = 1'-0"
140
0.25
141
12.0
290
     0
  0
SCALE
  5
61
102
{ACAD_REACTORS
330
47
102
}
330
47
100
AcDbScale
 70
     0
300
3/8" = 1'-0"
140
0.375
141
12.0
290
     0
  0
SCALE
  5
62
102
{ACAD_REACTORS
330
47
102
}
330
47
100
AcDbScale
 70
     0
300
1/2" = 1'-0"
140
0.5
141
12.0
290
     0
  0
SCALE
  5
63
102
{ACAD_REACTORS
330
47
102
}
330
47
100
AcDbScale
 70
     0
300
3/4" = 1'-0"
140
0.75
141
12.0
290
     0
  0
SCALE
  5
64
102
{ACAD_REACTORS
330
47
102
}
330
47
100
AcDbScale
 70
     0
300
1" = 1'-0"
140
1.0
141
12.0
290
     0
  0
SCALE
  5
65
102
{ACAD_REACTORS
330
47
102
}
330
47
100
AcDbScale
 70
     0
300
1-1/2" = 1'-0"
140
1.5
141
12.0
290
     0
  0
SCALE
  5
66
102
{ACAD_REACTORS
330
47
102
}
330
47
100
AcDbScale
 70
     0
300
3" = 1'-0"
140
3.0
141
12.0
290
     0
  0
SCALE
  5
67
102
{ACAD_REACTORS
330
47
102
}
330
47
100
AcDbScale
 70
     0
300
6" = 1'-0"
140
6.0
141
12.0
290
     0
  0
SCALE
  5
68
102
{ACAD_REACTORS
330
47
102
}
330
47
100
AcDbScale
 70
     0
300
1'-0" = 1'-0"
140
12.0
141
12.0
290
     0
  0
TABLESTYLE
  5
6A
102
{ACAD_REACTORS
330
69
102
}
102
{ACAD_XDICTIONARY
360
47A
102
}
330
69
100
AcDbTableStyle
  3
Standard
 70
     0
 71
     0
 40
0.06
 41
0.06
280
     0
281
     0
  7
Standard
140
4.5
170
     2
 62
     0
 63
   257
283
     0
 90
        4
 91
        0
  1

274
    -2
284
     1
 64
     0
275
    -2
285
     1
 65
     0
276
    -2
286
     1
 66
     0
277
    -2
287
     1
 67
     0
278
    -2
288
     1
 68
     0
279
    -2
289
     1
 69
     0
  7
Standard
140
6.0
170
     5
 62
     0
 63
   257
283
     0
 90
        4
 91
        0
  1

274
    -2
284
     1
 64
     0
275
    -2
285
     1
 65
     0
276
    -2
286
     1
 66
     0
277
    -2
287
     1
 67
     0
278
    -2
288
     1
 68
     0
279
    -2
289
     1
 69
     0
  7
Standard
140
4.5
170
     5
 62
     0
 63
   257
283
     0
 90
        4
 91
        0
  1

274
    -2
284
     1
 64
     0
275
    -2
285
     1
 65
     0
276
    -2
286
     1
 66
     0
277
    -2
287
     1
 67
     0
278
    -2
288
     1
 68
     0
279
    -2
289
     1
 69
     0
  0
VISUALSTYLE
  5
2F
102
{ACAD_REACTORS
330
2A
102
}
330
2A
100
AcDbVisualStyle
  2
2dWireframe
 70
     4
177
     3
291
     0
 70
    58
 90
        0
176
     1
 90
        2
176
     1
 90
        0
176
     1
 90
        0
176
     1
 40
0.6
176
     1
 40
30.0
176
     1
 62
     7
420
 16777215
176
     1
 90
        1
176
     1
 90
        4
176
     1
 62
     7
176
     1
 62
   257
176
     1
 90
        1
176
     1
 90
        1
176
     1
 40
1.0
176
     1
 90
        0
176
     1
 62
   257
176
     1
 40
1.0
176
     1
 90
        1
176
     1
 90
        6
176
     1
 90
        2
176
     1
 62
     7
176
     1
 90
        5
176
     1
 90
        0
176
     1
 90
        0
176
     1
290
     0
176
     1
 90
        1
176
     1
 40
0.0
176
     1
 90
        0
176
     1
290
     1
176
     1
290
     1
176
     1
290
     0
176
     1
290
     0
176
     1
290
     0
176
     1
290
     0
176
     1
290
     0
176
     1
290
     0
176
     1
290
     0
176
     1
 90
       50
176
     1
 40
0.0
176
     1
 40
1.0
176
     1
 90
        0
176
     1
 62
    18
420
        0
176
     1
 90
       50
176
     1
 90
        3
176
     1
 62
     5
420
      255
176
     1
290
     0
176
     1
 90
       50
176
     1
 90
       50
176
     1
 90
       50
176
     1
290
     0
176
     1
 90
       50
176
     1
 62
   256
176
     0
 40
1.0
176
     0
 90
        2
176
     1
  1
strokes_ogs.tif
176
     1
290
     0
176
     1
 40
1.0
176
     1
 40
1.0
176
     1
  0
VISUALSTYLE
  5
32
102
{ACAD_REACTORS
330
2A
102
}
330
2A
100
AcDbVisualStyle
  2
Basic
 70
     7
177
     3
291
     1
 70
    58
 90
        1
176
     1
 90
        0
176
     1
 90
        1
176
     1
 90
        0
176
     1
 40
0.6
176
     1
 40
30.0
176
     1
 62
     7
420
 16777215
176
     1
 90
        0
176
     1
 90
        4
176
     1
 62
     7
176
     1
 62
   257
176
     1
 90
        1
176
     1
 90
        1
176
     1
 40
1.0
176
     1
 90
        8
176
     1
 62
     7
176
     1
 40
1.0
176
     1
 90
        1
176
     1
 90
        6
176
     1
 90
        2
176
     1
 62
     7
176
     1
 90
        5
176
     1
 90
        0
176
     1
 90
        0
176
     1
290
     0
176
     1
 90
        1
176
     1
 40
0.0
176
     1
 90
        0
176
     1
290
     0
176
     1
290
     1
176
     1
290
     1
176
     1
290
     0
176
     1
290
     0
176
     1
290
     0
176
     1
290
     0
176
     1
290
     0
176
     1
290
     0
176
     1
 90
       50
176
     1
 40
0.0
176
     1
 40
1.0
176
     1
 90
        0
176
     1
 62
    18
420
        0
176
     1
 90
       50
176
     1
 90
        3
176
     1
 62
     5
420
      255
176
     1
290
     0
176
     1
 90
       50
176
     1
 90
       50
176
     1
 90
       50
176
     1
290
     0
176
     1
 90
       50
176
     1
 62
   256
176
     0
 40
1.0
176
     0
 90
        2
176
     1
  1
strokes_ogs.tif
176
     1
290
     0
176
     1
 40
1.0
176
     1
 40
1.0
176
     1
  0
VISUALSTYLE
  5
36
102
{ACAD_REACTORS
330
2A
102
}
330
2A
100
AcDbVisualStyle
  2
Brighten
 70
    12
177
     3
291
     1
 70
    58
 90
        2
176
     1
 90
        2
176
     1
 90
        0
176
     1
 90
        0
176
     1
 40
0.6
176
     1
 40
30.0
176
     1
 62
     7
420
 16777215
176
     1
 90
        1
176
     1
 90
        4
176
     1
 62
     7
176
     1
 62
   257
176
     1
 90
        1
176
     1
 90
        1
176
     1
 40
1.0
176
     1
 90
        8
176
     1
 62
     7
176
     1
 40
1.0
176
     1
 90
        1
176
     1
 90
        6
176
     1
 90
        2
176
     1
 62
     7
176
     1
 90
        5
176
     1
 90
        0
176
     1
 90
        0
176
     1
290
     0
176
     1
 90
        1
176
     1
 40
50.0
176
     1
 90
        0
176
     1
290
     0
176
     1
290
     1
176
     1
290
     1
176
     1
290
     0
176
     1
290
     0
176
     1
290
     0
176
     1
290
     0
176
     1
290
     0
176
     1
290
     0
176
     1
 90
       50
176
     1
 40
0.0
176
     1
 40
1.0
176
     1
 90
        0
176
     1
 62
    18
420
        0
176
     1
 90
       50
176
     1
 90
        3
176
     1
 62
     5
420
      255
176
     1
290
     0
176
     1
 90
       50
176
     1
 90
       50
176
     1
 90
       50
176
     1
290
     0
176
     1
 90
       50
176
     1
 62
   256
176
     0
 40
1.0
176
     0
 90
        2
176
     1
  1
strokes_ogs.tif
176
     1
290
     0
176
     1
 40
1.0
176
     1
 40
1.0
176
     1
  0
VISUALSTYLE
  5
3A
102
{ACAD_REACTORS
330
2A
102
}
330
2A
100
AcDbVisualStyle
  2
ColorChange
 70
    16
177
     3
291
     1
 70
    58
 90
        2
176
     1
 90
        2
176
     1
 90
        3
176
     1
 90
        0
176
     1
 40
0.6
176
     1
 40
30.0
176
     1
 62
     8
420
  8421504
176
     1
 90
        1
176
     1
 90
        4
176
     1
 62
     7
176
     1
 62
   257
176
     1
 90
        1
176
     1
 90
        1
176
     1
 40
1.0
176
     1
 90
        8
176
     1
 62
     8
420
  8421504
176
     1
 40
1.0
176
     1
 90
        1
176
     1
 90
        6
176
     1
 90
        2
176
     1
 62
     7
176
     1
 90
        5
176
     1
 90
        0
176
     1
 90
        0
176
     1
290
     0
176
     1
 90
        1
176
     1
 40
0.0
176
     1
 90
        0
176
     1
290
     0
176
     1
290
     1
176
     1
290
     1
176
     1
290
     0
176
     1
290
     0
176
     1
290
     0
176
     1
290
     0
176
     1
290
     0
176
     1
290
     0
176
     1
 90
       50
176
     1
 40
0.0
176
     1
 40
1.0
176
     1
 90
        0
176
     1
 62
    18
420
        0
176
     1
 90
       50
176
     1
 90
        3
176
     1
 62
     5
420
      255
176
     1
290
     0
176
     1
 90
       50
176
     1
 90
       50
176
     1
 90
       50
176
     1
290
     0
176
     1
 90
       50
176
     1
 62
   256
176
     0
 40
1.0
176
     0
 90
        2
176
     1
  1
strokes_ogs.tif
176
     1
290
     0
176
     1
 40
1.0
176
     1
 40
1.0
176
     1
  0
VISUALSTYLE
  5
34
102
{ACAD_REACTORS
330
2A
102
}
330
2A
100
AcDbVisualStyle
  2
Conceptual
 70
     9
177
     3
291
     0
 70
    58
 90
        3
176
     1
 90
        2
176
     1
 90
        0
176
     1
 90
        0
176
     1
 40
0.6
176
     1
 40
30.0
176
     1
 62
     7
420
 16777215
176
     1
 90
        2
176
     1
 90
        2
176
     1
 62
     7
176
     1
 62
   257
176
     1
 90
        1
176
     1
 90
        1
176
     1
 40
179.0
176
     1
 90
        8
176
     1
 62
     7
176
     1
 40
1.0
176
     1
 90
        1
176
     1
 90
        6
176
     1
 90
        2
176
     1
 62
     7
176
     1
 90
        3
176
     1
 90
        0
176
     1
 90
        0
176
     1
290
     0
176
     1
 90
        1
176
     1
 40
0.0
176
     1
 90
        0
176
     1
290
     0
176
     1
290
     1
176
     1
290
     1
176
     1
290
     0
176
     1
290
     0
176
     1
290
     0
176
     1
290
     0
176
     1
290
     0
176
     1
290
     0
176
     1
 90
       50
176
     1
 40
0.0
176
     1
 40
1.0
176
     1
 90
        0
176
     1
 62
    18
420
        0
176
     1
 90
       50
176
     1
 90
        3
176
     1
 62
     5
420
      255
176
     1
290
     0
176
     1
 90
       50
176
     1
 90
       50
176
     1
 90
       50
176
     1
290
     0
176
     1
 90
       50
176
     1
 62
   256
176
     0
 40
1.0
176
     0
 90
        2
176
     1
  1
strokes_ogs.tif
176
     1
290
     0
176
     1
 40
1.0
176
     1
 40
1.0
176
     1
  0
VISUALSTYLE
  5
35
102
{ACAD_REACTORS
330
2A
102
}
330
2A
100
AcDbVisualStyle
  2
Dim
 70
    11
177
     3
291
     1
 70
    58
 90
        2
176
     1
 90
        2
176
     1
 90
        0
176
     1
 90
        0
176
     1
 40
0.6
176
     1
 40
30.0
176
     1
 62
     7
420
 16777215
176
     1
 90
        1
176
     1
 90
        4
176
     1
 62
     7
176
     1
 62
   257
176
     1
 90
        1
176
     1
 90
        1
176
     1
 40
1.0
176
     1
 90
        8
176
     1
 62
     7
176
     1
 40
1.0
176
     1
 90
        1
176
     1
 90
        6
176
     1
 90
        2
176
     1
 62
     7
176
     1
 90
        5
176
     1
 90
        0
176
     1
 90
        0
176
     1
290
     0
176
     1
 90
        1
176
     1
 40
-50.0
176
     1
 90
        0
176
     1
290
     0
176
     1
290
     1
176
     1
290
     1
176
     1
290
     0
176
     1
290
     0
176
     1
290
     0
176
     1
290
     0
176
     1
290
     0
176
     1
290
     0
176
     1
 90
       50
176
     1
 40
0.0
176
     1
 40
1.0
176
     1
 90
        0
176
     1
 62
    18
420
        0
176
     1
 90
       50
176
     1
 90
        3
176
     1
 62
     5
420
      255
176
     1
290
     0
176
     1
 90
       50
176
     1
 90
       50
176
     1
 90
       50
176
     1
290
     0
176
     1
 90
       50
176
     1
 62
   256
176
     0
 40
1.0
176
     0
 90
        2
176
     1
  1
strokes_ogs.tif
176
     1
290
     0
176
     1
 40
1.0
176
     1
 40
1.0
176
     1
  0
VISUALSTYLE
  5
3D
102
{ACAD_REACTORS
330
2A
102
}
330
2A
100
AcDbVisualStyle
  2
EdgeColorOff
 70
    22
177
     3
291
     1
 70
    58
 90
        2
176
     0
 90
        2
176
     0
 90
        0
176
     0
 90
        0
176
     0
 40
0.6
176
     0
 40
30.0
176
     0
 62
     7
420
 16777215
176
     0
 90
        1
176
     0
 90
        4
176
     0
 62
     7
176
     0
 62
   257
176
     0
 90
        1
176
     0
 90
        1
176
     0
 40
1.0
176
     0
 90
        8
176
     2
 62
     7
176
     0
 40
1.0
176
     0
 90
        1
176
     0
 90
        6
176
     0
 90
        2
176
     0
 62
     7
176
     0
 90
        5
176
     0
 90
        0
176
     0
 90
        0
176
     0
290
     0
176
     0
 90
        1
176
     0
 40
0.0
176
     0
 90
        0
176
     0
290
     0
176
     0
290
     1
176
     0
290
     1
176
     0
290
     0
176
     0
290
     0
176
     0
290
     0
176
     0
290
     0
176
     0
290
     0
176
     0
290
     0
176
     0
 90
       50
176
     0
 40
0.0
176
     0
 40
1.0
176
     0
 90
        0
176
     0
 62
    18
420
        0
176
     0
 90
       50
176
     0
 90
        3
176
     0
 62
     5
420
      255
176
     0
290
     0
176
     0
 90
       50
176
     0
 90
       50
176
     0
 90
       50
176
     0
290
     0
176
     0
 90
       50
176
     0
 62
   256
176
     0
 40
1.0
176
     0
 90
        2
176
     0
  1
strokes_ogs.tif
176
     0
290
     0
176
     0
 40
1.0
176
     0
 40
1.0
176
     0
  0
VISUALSTYLE
  5
39
102
{ACAD_REACTORS
330
2A
102
}
330
2A
100
AcDbVisualStyle
  2
Facepattern
 70
    15
177
     3
291
     1
 70
    58
 90
        2
176
     1
 90
        2
176
     1
 90
        0
176
     1
 90
        0
176
     1
 40
0.6
176
     1
 40
30.0
176
     1
 62
     7
420
 16777215
176
     1
 90
        1
176
     1
 90
        4
176
     1
 62
     7
176
     1
 62
   257
176
     1
 90
        1
176
     1
 90
        1
176
     1
 40
1.0
176
     1
 90
        8
176
     1
 62
     7
176
     1
 40
1.0
176
     1
 90
        1
176
     1
 90
        6
176
     1
 90
        2
176
     1
 62
     7
176
     1
 90
        5
176
     1
 90
        0
176
     1
 90
        0
176
     1
290
     0
176
     1
 90
        1
176
     1
 40
0.0
176
     1
 90
        0
176
     1
290
     0
176
     1
290
     1
176
     1
290
     1
176
     1
290
     0
176
     1
290
     0
176
     1
290
     0
176
     1
290
     0
176
     1
290
     0
176
     1
290
     0
176
     1
 90
       50
176
     1
 40
0.0
176
     1
 40
1.0
176
     1
 90
        0
176
     1
 62
    18
420
        0
176
     1
 90
       50
176
     1
 90
        3
176
     1
 62
     5
420
      255
176
     1
290
     0
176
     1
 90
       50
176
     1
 90
       50
176
     1
 90
       50
176
     1
290
     0
176
     1
 90
       50
176
     1
 62
   256
176
     0
 40
1.0
176
     0
 90
        2
176
     1
  1
strokes_ogs.tif
176
     1
290
     0
176
     1
 40
1.0
176
     1
 40
1.0
176
     1
  0
VISUALSTYLE
  5
2B
102
{ACAD_REACTORS
330
2A
102
}
330
2A
100
AcDbVisualStyle
  2
Flat
 70
     0
177
     3
291
     1
 70
    58
 90
        2
176
     1
 90
        1
176
     1
 90
        1
176
     1
 90
        2
176
     1
 40
0.6
176
     1
 40
30.0
176
     1
 62
     7
420
 16777215
176
     1
 90
        0
176
     1
 90
        0
176
     1
 62
     7
176
     1
 62
   257
176
     1
 90
        1
176
     1
 90
        1
176
     1
 40
1.0
176
     1
 90
        8
176
     1
 62
     7
176
     1
 40
1.0
176
     1
 90
        1
176
     1
 90
        6
176
     1
 90
        2
176
     1
 62
     7
176
     1
 90
        5
176
     1
 90
        0
176
     1
 90
        0
176
     1
290
     0
176
     1
 90
       13
176
     1
 40
0.0
176
     1
 90
        0
176
     1
290
     0
176
     1
290
     1
176
     1
290
     1
176
     1
290
     0
176
     1
290
     0
176
     1
290
     0
176
     1
290
     0
176
     1
290
     0
176
     1
290
     0
176
     1
 90
       50
176
     1
 40
0.0
176
     1
 40
1.0
176
     1
 90
        0
176
     1
 62
    18
420
        0
176
     1
 90
       50
176
     1
 90
        3
176
     1
 62
     5
420
      255
176
     1
290
     0
176
     1
 90
       50
176
     1
 90
       50
176
     1
 90
       50
176
     1
290
     0
176
     1
 90
       50
176
     1
 62
   256
176
     0
 40
1.0
176
     0
 90
        2
176
     1
  1
strokes_ogs.tif
176
     1
290
     0
176
     1
 40
1.0
176
     1
 40
1.0
176
     1
  0
VISUALSTYLE
  5
2C
102
{ACAD_REACTORS
330
2A
102
}
330
2A
100
AcDbVisualStyle
  2
FlatWithEdges
 70
     1
177
     3
291
     1
 70
    58
 90
        2
176
     1
 90
        1
176
     1
 90
        1
176
     1
 90
        2
176
     1
 40
0.6
176
     1
 40
30.0
176
     1
 62
     7
420
 16777215
176
     1
 90
        1
176
     1
 90
        0
176
     1
 62
     7
176
     1
 62
   257
176
     1
 90
        1
176
     1
 90
        1
176
     1
 40
1.0
176
     1
 90
        0
176
     1
 62
   257
176
     1
 40
1.0
176
     1
 90
        1
176
     1
 90
        6
176
     1
 90
        2
176
     1
 62
     7
176
     1
 90
        5
176
     1
 90
        0
176
     1
 90
        0
176
     1
290
     0
176
     1
 90
       13
176
     1
 40
0.0
176
     1
 90
        0
176
     1
290
     0
176
     1
290
     1
176
     1
290
     1
176
     1
290
     0
176
     1
290
     0
176
     1
290
     0
176
     1
290
     0
176
     1
290
     0
176
     1
290
     0
176
     1
 90
       50
176
     1
 40
0.0
176
     1
 40
1.0
176
     1
 90
        0
176
     1
 62
    18
420
        0
176
     1
 90
       50
176
     1
 90
        3
176
     1
 62
     5
420
      255
176
     1
290
     0
176
     1
 90
       50
176
     1
 90
       50
176
     1
 90
       50
176
     1
290
     0
176
     1
 90
       50
176
     1
 62
   256
176
     0
 40
1.0
176
     0
 90
        2
176
     1
  1
strokes_ogs.tif
176
     1
290
     0
176
     1
 40
1.0
176
     1
 40
1.0
176
     1
  0
VISUALSTYLE
  5
2D
102
{ACAD_REACTORS
330
2A
102
}
330
2A
100
AcDbVisualStyle
  2
Gouraud
 70
     2
177
     3
291
     1
 70
    58
 90
        2
176
     1
 90
        2
176
     1
 90
        1
176
     1
 90
        2
176
     1
 40
0.6
176
     1
 40
30.0
176
     1
 62
     7
420
 16777215
176
     1
 90
        0
176
     1
 90
        0
176
     1
 62
     7
176
     1
 62
   257
176
     1
 90
        1
176
     1
 90
        1
176
     1
 40
1.0
176
     1
 90
        0
176
     1
 62
     7
176
     1
 40
1.0
176
     1
 90
        1
176
     1
 90
        6
176
     1
 90
        2
176
     1
 62
     7
176
     1
 90
        5
176
     1
 90
        0
176
     1
 90
        0
176
     1
290
     0
176
     1
 90
       13
176
     1
 40
0.0
176
     1
 90
        0
176
     1
290
     0
176
     1
290
     1
176
     1
290
     1
176
     1
290
     0
176
     1
290
     0
176
     1
290
     0
176
     1
290
     0
176
     1
290
     0
176
     1
290
     0
176
     1
 90
       50
176
     1
 40
0.0
176
     1
 40
1.0
176
     1
 90
        0
176
     1
 62
    18
420
        0
176
     1
 90
       50
176
     1
 90
        3
176
     1
 62
     5
420
      255
176
     1
290
     0
176
     1
 90
       50
176
     1
 90
       50
176
     1
 90
       50
176
     1
290
     0
176
     1
 90
       50
176
     1
 62
   256
176
     0
 40
1.0
176
     0
 90
        2
176
     1
  1
strokes_ogs.tif
176
     1
290
     0
176
     1
 40
1.0
176
     1
 40
1.0
176
     1
  0
VISUALSTYLE
  5
2E
102
{ACAD_REACTORS
330
2A
102
}
330
2A
100
AcDbVisualStyle
  2
GouraudWithEdges
 70
     3
177
     3
291
     1
 70
    58
 90
        2
176
     1
 90
        2
176
     1
 90
        1
176
     1
 90
        2
176
     1
 40
0.6
176
     1
 40
30.0
176
     1
 62
     7
420
 16777215
176
     1
 90
        1
176
     1
 90
        0
176
     1
 62
     7
176
     1
 62
   257
176
     1
 90
        1
176
     1
 90
        1
176
     1
 40
1.0
176
     1
 90
        0
176
     1
 62
   257
176
     1
 40
1.0
176
     1
 90
        1
176
     1
 90
        6
176
     1
 90
        2
176
     1
 62
     7
176
     1
 90
        5
176
     1
 90
        0
176
     1
 90
        0
176
     1
290
     0
176
     1
 90
       13
176
     1
 40
0.0
176
     1
 90
        0
176
     1
290
     0
176
     1
290
     1
176
     1
290
     1
176
     1
290
     0
176
     1
290
     0
176
     1
290
     0
176
     1
290
     0
176
     1
290
     0
176
     1
290
     0
176
     1
 90
       50
176
     1
 40
0.0
176
     1
 40
1.0
176
     1
 90
        0
176
     1
 62
    18
420
        0
176
     1
 90
       50
176
     1
 90
        3
176
     1
 62
     5
420
      255
176
     1
290
     0
176
     1
 90
       50
176
     1
 90
       50
176
     1
 90
       50
176
     1
290
     0
176
     1
 90
       50
176
     1
 62
   256
176
     0
 40
1.0
176
     0
 90
        2
176
     1
  1
strokes_ogs.tif
176
     1
290
     0
176
     1
 40
1.0
176
     1
 40
1.0
176
     1
  0
VISUALSTYLE
  5
31
102
{ACAD_REACTORS
330
2A
102
}
330
2A
100
AcDbVisualStyle
  2
Hidden
 70
     6
177
     3
291
     0
 70
    58
 90
        1
176
     1
 90
        2
176
     1
 90
        2
176
     1
 90
        0
176
     1
 40
0.6
176
     1
 40
30.0
176
     1
 62
     7
420
 16777215
176
     1
 90
        2
176
     1
 90
        2
176
     1
 62
     7
176
     1
 62
   257
176
     1
 90
        2
176
     1
 90
        1
176
     1
 40
40.0
176
     1
 90
        0
176
     1
 62
   257
176
     1
 40
1.0
176
     1
 90
        1
176
     1
 90
        6
176
     1
 90
        2
176
     1
 62
     7
176
     1
 90
        3
176
     1
 90
        0
176
     1
 90
        0
176
     1
290
     0
176
     1
 90
        1
176
     1
 40
0.0
176
     1
 90
        0
176
     1
290
     0
176
     1
290
     1
176
     1
290
     1
176
     1
290
     0
176
     1
290
     0
176
     1
290
     0
176
     1
290
     0
176
     1
290
     0
176
     1
290
     0
176
     1
 90
       50
176
     1
 40
0.0
176
     1
 40
1.0
176
     1
 90
        0
176
     1
 62
    18
420
        0
176
     1
 90
       50
176
     1
 90
        3
176
     1
 62
     5
420
      255
176
     1
290
     0
176
     1
 90
       50
176
     1
 90
       50
176
     1
 90
       50
176
     1
290
     0
176
     1
 90
       50
176
     1
 62
   256
176
     0
 40
1.0
176
     0
 90
        2
176
     1
  1
strokes_ogs.tif
176
     1
290
     0
176
     1
 40
1.0
176
     1
 40
1.0
176
     1
  0
VISUALSTYLE
  5
3B
102
{ACAD_REACTORS
330
2A
102
}
330
2A
100
AcDbVisualStyle
  2
JitterOff
 70
    20
177
     3
291
     1
 70
    58
 90
        2
176
     0
 90
        2
176
     0
 90
        0
176
     0
 90
        0
176
     0
 40
0.6
176
     0
 40
30.0
176
     0
 62
     7
420
 16777215
176
     0
 90
        1
176
     0
 90
        4
176
     0
 62
     7
176
     0
 62
   257
176
     0
 90
        1
176
     0
 90
        1
176
     0
 40
1.0
176
     0
 90
       10
176
     2
 62
     7
176
     0
 40
1.0
176
     0
 90
        1
176
     0
 90
        6
176
     0
 90
        2
176
     0
 62
     7
176
     0
 90
        5
176
     0
 90
        0
176
     0
 90
        0
176
     0
290
     0
176
     0
 90
        1
176
     0
 40
0.0
176
     0
 90
        0
176
     0
290
     0
176
     0
290
     1
176
     0
290
     1
176
     0
290
     0
176
     0
290
     0
176
     0
290
     0
176
     0
290
     0
176
     0
290
     0
176
     0
290
     0
176
     0
 90
       50
176
     0
 40
0.0
176
     0
 40
1.0
176
     0
 90
        0
176
     0
 62
    18
420
        0
176
     0
 90
       50
176
     0
 90
        3
176
     0
 62
     5
420
      255
176
     0
290
     0
176
     0
 90
       50
176
     0
 90
       50
176
     0
 90
       50
176
     0
290
     0
176
     0
 90
       50
176
     0
 62
   256
176
     0
 40
1.0
176
     0
 90
        2
176
     0
  1
strokes_ogs.tif
176
     0
290
     0
176
     0
 40
1.0
176
     0
 40
1.0
176
     0
  0
VISUALSTYLE
  5
38
102
{ACAD_REACTORS
330
2A
102
}
330
2A
100
AcDbVisualStyle
  2
Linepattern
 70
    14
177
     3
291
     1
 70
    58
 90
        2
176
     1
 90
        2
176
     1
 90
        0
176
     1
 90
        0
176
     1
 40
0.6
176
     1
 40
30.0
176
     1
 62
     7
420
 16777215
176
     1
 90
        1
176
     1
 90
        4
176
     1
 62
     7
176
     1
 62
   257
176
     1
 90
        7
176
     1
 90
        7
176
     1
 40
1.0
176
     1
 90
        8
176
     1
 62
     7
176
     1
 40
1.0
176
     1
 90
        1
176
     1
 90
        6
176
     1
 90
        2
176
     1
 62
     7
176
     1
 90
        5
176
     1
 90
        0
176
     1
 90
        0
176
     1
290
     0
176
     1
 90
        1
176
     1
 40
0.0
176
     1
 90
        0
176
     1
290
     0
176
     1
290
     1
176
     1
290
     1
176
     1
290
     0
176
     1
290
     0
176
     1
290
     0
176
     1
290
     0
176
     1
290
     0
176
     1
290
     0
176
     1
 90
       50
176
     1
 40
0.0
176
     1
 40
1.0
176
     1
 90
        0
176
     1
 62
    18
420
        0
176
     1
 90
       50
176
     1
 90
        3
176
     1
 62
     5
420
      255
176
     1
290
     0
176
     1
 90
       50
176
     1
 90
       50
176
     1
 90
       50
176
     1
290
     0
176
     1
 90
       50
176
     1
 62
   256
176
     0
 40
1.0
176
     0
 90
        2
176
     1
  1
strokes_ogs.tif
176
     1
290
     0
176
     1
 40
1.0
176
     1
 40
1.0
176
     1
  0
VISUALSTYLE
  5
3C
102
{ACAD_REACTORS
330
2A
102
}
330
2A
100
AcDbVisualStyle
  2
OverhangOff
 70
    21
177
     3
291
     1
 70
    58
 90
        2
176
     0
 90
        2
176
     0
 90
        0
176
     0
 90
        0
176
     0
 40
0.6
176
     0
 40
30.0
176
     0
 62
     7
420
 16777215
176
     0
 90
        1
176
     0
 90
        4
176
     0
 62
     7
176
     0
 62
   257
176
     0
 90
        1
176
     0
 90
        1
176
     0
 40
1.0
176
     0
 90
        9
176
     2
 62
     7
176
     0
 40
1.0
176
     0
 90
        1
176
     0
 90
        6
176
     0
 90
        2
176
     0
 62
     7
176
     0
 90
        5
176
     0
 90
        0
176
     0
 90
        0
176
     0
290
     0
176
     0
 90
        1
176
     0
 40
0.0
176
     0
 90
        0
176
     0
290
     0
176
     0
290
     1
176
     0
290
     1
176
     0
290
     0
176
     0
290
     0
176
     0
290
     0
176
     0
290
     0
176
     0
290
     0
176
     0
290
     0
176
     0
 90
       50
176
     0
 40
0.0
176
     0
 40
1.0
176
     0
 90
        0
176
     0
 62
    18
420
        0
176
     0
 90
       50
176
     0
 90
        3
176
     0
 62
     5
420
      255
176
     0
290
     0
176
     0
 90
       50
176
     0
 90
       50
176
     0
 90
       50
176
     0
290
     0
176
     0
 90
       50
176
     0
 62
   256
176
     0
 40
1.0
176
     0
 90
        2
176
     0
  1
strokes_ogs.tif
176
     0
290
     0
176
     0
 40
1.0
176
     0
 40
1.0
176
     0
  0
VISUALSTYLE
  5
33
102
{ACAD_REACTORS
330
2A
102
}
330
2A
100
AcDbVisualStyle
  2
Realistic
 70
     8
177
     3
291
     0
 70
    58
 90
        2
176
     1
 90
        3
176
     1
 90
        0
176
     1
 90
        2
176
     1
 40
0.6
176
     1
 40
30.0
176
     1
 62
     7
420
 16777215
176
     1
 90
        0
176
     1
 90
        0
176
     1
 62
     7
176
     1
 62
   257
176
     1
 90
        1
176
     1
 90
        1
176
     1
 40
1.0
176
     1
 90
        8
176
     1
 62
   257
176
     1
 40
1.0
176
     1
 90
        1
176
     1
 90
        6
176
     1
 90
        2
176
     1
 62
     7
176
     1
 90
        3
176
     1
 90
        0
176
     1
 90
        0
176
     1
290
     0
176
     1
 90
       13
176
     1
 40
0.0
176
     1
 90
        0
176
     1
290
     0
176
     1
290
     1
176
     1
290
     1
176
     1
290
     0
176
     1
290
     0
176
     1
290
     0
176
     1
290
     0
176
     1
290
     0
176
     1
290
     0
176
     1
 90
       50
176
     1
 40
0.0
176
     1
 40
1.0
176
     1
 90
        0
176
     1
 62
    18
420
        0
176
     1
 90
       50
176
     1
 90
        3
176
     1
 62
     5
420
      255
176
     1
290
     0
176
     1
 90
       50
176
     1
 90
       50
176
     1
 90
       50
176
     1
290
     0
176
     1
 90
       50
176
     1
 62
   256
176
     0
 40
1.0
176
     0
 90
        2
176
     1
  1
strokes_ogs.tif
176
     1
290
     0
176
     1
 40
1.0
176
     1
 40
1.0
176
     1
  0
VISUALSTYLE
  5
42
102
{ACAD_REACTORS
330
2A
102
}
330
2A
100
AcDbVisualStyle
  2
Shaded
 70
    27
177
     3
291
     0
 70
    58
 90
        2
176
     1
 90
        2
176
     1
 90
        1
176
     1
 90
        2
176
     1
 40
0.6
176
     1
 40
30.0
176
     1
 62
     7
420
 16777215
176
     1
 90
        0
176
     1
 90
        4
176
     1
 62
     7
176
     1
 62
   257
176
     1
 90
        1
176
     1
 90
        1
176
     1
 40
1.0
176
     1
 90
        8
176
     1
 62
   257
176
     1
 40
1.0
176
     1
 90
        1
176
     1
 90
        6
176
     1
 90
        2
176
     1
 62
     8
420
  7895160
176
     1
 90
        3
176
     1
 90
        0
176
     1
 90
        0
176
     1
290
     0
176
     1
 90
        5
176
     1
 40
0.0
176
     1
 90
        0
176
     1
290
     0
176
     1
290
     1
176
     1
290
     1
176
     1
290
     0
176
     1
290
     0
176
     1
290
     0
176
     1
290
     0
176
     1
290
     0
176
     1
290
     0
176
     1
 90
       50
176
     1
 40
0.0
176
     1
 40
1.0
176
     1
 90
        0
176
     1
 62
    18
420
        0
176
     1
 90
       50
176
     1
 90
        3
176
     1
 62
     5
420
      255
176
     1
290
     0
176
     1
 90
       50
176
     1
 90
       50
176
     1
 90
       50
176
     1
290
     0
176
     1
 90
       50
176
     1
 62
   256
176
     0
 40
1.0
176
     0
 90
        2
176
     1
  1
strokes_ogs.tif
176
     1
290
     0
176
     1
 40
1.0
176
     1
 40
1.0
176
     1
  0
VISUALSTYLE
  5
41
102
{ACAD_REACTORS
330
2A
102
}
330
2A
100
AcDbVisualStyle
  2
Shaded with edges
 70
    26
177
     3
291
     0
 70
    58
 90
        2
176
     1
 90
        2
176
     1
 90
        1
176
     1
 90
        2
176
     1
 40
0.6
176
     1
 40
30.0
176
     1
 62
     7
420
 16777215
176
     1
 90
        1
176
     1
 90
       10
176
     1
 62
     7
176
     1
 62
   257
176
     1
 90
        2
176
     1
 90
        1
176
     1
 40
1.0
176
     1
 90
        8
176
     1
 62
   257
176
     1
 40
1.0
176
     1
 90
        1
176
     1
 90
        6
176
     1
 90
        2
176
     1
 62
     7
176
     1
 90
        3
176
     1
 90
        0
176
     1
 90
        0
176
     1
290
     0
176
     1
 90
        5
176
     1
 40
0.0
176
     1
 90
        0
176
     1
290
     0
176
     1
290
     1
176
     1
290
     1
176
     1
290
     0
176
     1
290
     0
176
     1
290
     0
176
     1
290
     0
176
     1
290
     0
176
     1
290
     0
176
     1
 90
       50
176
     1
 40
0.0
176
     1
 40
1.0
176
     1
 90
        0
176
     1
 62
    18
420
        0
176
     1
 90
       50
176
     1
 90
        3
176
     1
 62
     5
420
      255
176
     1
290
     0
176
     1
 90
       50
176
     1
 90
       50
176
     1
 90
       50
176
     1
290
     0
176
     1
 90
       50
176
     1
 62
   256
176
     0
 40
1.0
176
     0
 90
        2
176
     1
  1
strokes_ogs.tif
176
     1
290
     0
176
     1
 40
1.0
176
     1
 40
1.0
176
     1
  0
VISUALSTYLE
  5
3E
102
{ACAD_REACTORS
330
2A
102
}
330
2A
100
AcDbVisualStyle
  2
Shades of Gray
 70
    23
177
     3
291
     0
 70
    58
 90
        2
176
     1
 90
        2
176
     1
 90
        3
176
     1
 90
        0
176
     1
 40
0.6
176
     1
 40
30.0
176
     1
 62
     7
420
 16777215
176
     1
 90
        2
176
     1
 90
        2
176
     1
 62
     7
176
     1
 62
     7
176
     1
 90
        1
176
     1
 90
        1
176
     1
 40
40.0
176
     1
 90
        8
176
     1
 62
     7
176
     1
 40
1.0
176
     1
 90
        1
176
     1
 90
        6
176
     1
 90
        2
176
     1
 62
     7
176
     1
 90
        3
176
     1
 90
        0
176
     1
 90
        0
176
     1
290
     0
176
     1
 90
        1
176
     1
 40
0.0
176
     1
 90
        0
176
     1
290
     0
176
     1
290
     1
176
     1
290
     1
176
     1
290
     0
176
     1
290
     0
176
     1
290
     0
176
     1
290
     0
176
     1
290
     0
176
     1
290
     0
176
     1
 90
       50
176
     1
 40
0.0
176
     1
 40
1.0
176
     1
 90
        0
176
     1
 62
    18
420
        0
176
     1
 90
       50
176
     1
 90
        3
176
     1
 62
     5
420
      255
176
     1
290
     0
176
     1
 90
       50
176
     1
 90
       50
176
     1
 90
       50
176
     1
290
     0
176
     1
 90
       50
176
     1
 62
   256
176
     0
 40
1.0
176
     0
 90
        2
176
     1
  1
strokes_ogs.tif
176
     1
290
     0
176
     1
 40
1.0
176
     1
 40
1.0
176
     1
  0
VISUALSTYLE
  5
3F
102
{ACAD_REACTORS
330
2A
102
}
330
2A
100
AcDbVisualStyle
  2
Sketchy
 70
    24
177
     3
291
     0
 70
    58
 90
        1
176
     1
 90
        2
176
     1
 90
        2
176
     1
 90
        0
176
     1
 40
0.6
176
     1
 40
30.0
176
     1
 62
     7
420
 16777215
176
     1
 90
        2
176
     1
 90
        2
176
     1
 62
     7
176
     1
 62
     7
176
     1
 90
        1
176
     1
 90
        1
176
     1
 40
40.0
176
     1
 90
       11
176
     1
 62
     7
176
     1
 40
1.0
176
     1
 90
        1
176
     1
 90
        6
176
     1
 90
        2
176
     1
 62
     7
176
     1
 90
        6
176
     1
 90
        0
176
     1
 90
        0
176
     1
290
     0
176
     1
 90
        1
176
     1
 40
0.0
176
     1
 90
        0
176
     1
290
     0
176
     1
290
     1
176
     1
290
     1
176
     1
290
     0
176
     1
290
     0
176
     1
290
     0
176
     1
290
     0
176
     1
290
     0
176
     1
290
     0
176
     1
 90
       50
176
     1
 40
0.0
176
     1
 40
1.0
176
     1
 90
        0
176
     1
 62
    18
420
        0
176
     1
 90
       50
176
     1
 90
        3
176
     1
 62
     5
420
      255
176
     1
290
     0
176
     1
 90
       50
176
     1
 90
       50
176
     1
 90
       50
176
     1
290
     0
176
     1
 90
       50
176
     1
 62
   256
176
     0
 40
1.0
176
     0
 90
        2
176
     1
  1
strokes_ogs.tif
176
     1
290
     0
176
     1
 40
1.0
176
     1
 40
1.0
176
     1
  0
VISUALSTYLE
  5
37
102
{ACAD_REACTORS
330
2A
102
}
330
2A
100
AcDbVisualStyle
  2
Thicken
 70
    13
177
     3
291
     1
 70
    58
 90
        2
176
     1
 90
        2
176
     1
 90
        0
176
     1
 90
        0
176
     1
 40
0.6
176
     1
 40
30.0
176
     1
 62
     7
420
 16777215
176
     1
 90
        1
176
     1
 90
        4
176
     1
 62
     7
176
     1
 62
   257
176
     1
 90
        1
176
     1
 90
        1
176
     1
 40
1.0
176
     1
 90
       12
176
     1
 62
     7
176
     1
 40
1.0
176
     1
 90
        1
176
     1
 90
        6
176
     1
 90
        2
176
     1
 62
     7
176
     1
 90
        5
176
     1
 90
        0
176
     1
 90
        0
176
     1
290
     0
176
     1
 90
        1
176
     1
 40
0.0
176
     1
 90
        0
176
     1
290
     0
176
     1
290
     1
176
     1
290
     1
176
     1
290
     0
176
     1
290
     0
176
     1
290
     0
176
     1
290
     0
176
     1
290
     0
176
     1
290
     0
176
     1
 90
       50
176
     1
 40
0.0
176
     1
 40
1.0
176
     1
 90
        0
176
     1
 62
    18
420
        0
176
     1
 90
       50
176
     1
 90
        3
176
     1
 62
     5
420
      255
176
     1
290
     0
176
     1
 90
       50
176
     1
 90
       50
176
     1
 90
       50
176
     1
290
     0
176
     1
 90
       50
176
     1
 62
   256
176
     0
 40
1.0
176
     0
 90
        2
176
     1
  1
strokes_ogs.tif
176
     1
290
     0
176
     1
 40
1.0
176
     1
 40
1.0
176
     1
  0
VISUALSTYLE
  5
30
102
{ACAD_REACTORS
330
2A
102
}
330
2A
100
AcDbVisualStyle
  2
Wireframe
 70
     5
177
     3
291
     0
 70
    58
 90
        0
176
     1
 90
        2
176
     1
 90
        0
176
     1
 90
        0
176
     1
 40
0.6
176
     1
 40
30.0
176
     1
 62
     7
420
 16777215
176
     1
 90
        1
176
     1
 90
        4
176
     1
 62
     7
176
     1
 62
   257
176
     1
 90
        1
176
     1
 90
        1
176
     1
 40
1.0
176
     1
 90
        0
176
     1
 62
   257
176
     1
 40
1.0
176
     1
 90
        1
176
     1
 90
        6
176
     1
 90
        2
176
     1
 62
     7
176
     1
 90
        3
176
     1
 90
        0
176
     1
 90
        0
176
     1
290
     0
176
     1
 90
        1
176
     1
 40
0.0
176
     1
 90
        0
176
     1
290
     0
176
     1
290
     1
176
     1
290
     1
176
     1
290
     0
176
     1
290
     0
176
     1
290
     0
176
     1
290
     0
176
     1
290
     0
176
     1
290
     0
176
     1
 90
       50
176
     1
 40
0.0
176
     1
 40
1.0
176
     1
 90
        0
176
     1
 62
    18
420
        0
176
     1
 90
       50
176
     1
 90
        3
176
     1
 62
     5
420
      255
176
     1
290
     0
176
     1
 90
       50
176
     1
 90
       50
176
     1
 90
       50
176
     1
290
     0
176
     1
 90
       50
176
     1
 62
   256
176
     0
 40
1.0
176
     0
 90
        2
176
     1
  1
strokes_ogs.tif
176
     1
290
     0
176
     1
 40
1.0
176
     1
 40
1.0
176
     1
  0
VISUALSTYLE
  5
40
102
{ACAD_REACTORS
330
2A
102
}
330
2A
100
AcDbVisualStyle
  2
X-Ray
 70
    25
177
     3
291
     0
 70
    58
 90
        2
176
     1
 90
        2
176
     1
 90
        1
176
     1
 90
        1
176
     1
 40
0.5
176
     1
 40
30.0
176
     1
 62
     7
420
 16777215
176
     1
 90
        1
176
     1
 90
        0
176
     1
 62
     7
176
     1
 62
   257
176
     1
 90
        1
176
     1
 90
        1
176
     1
 40
1.0
176
     1
 90
        8
176
     1
 62
     7
176
     1
 40
1.0
176
     1
 90
        1
176
     1
 90
        6
176
     1
 90
        2
176
     1
 62
     7
176
     1
 90
        3
176
     1
 90
        0
176
     1
 90
        0
176
     1
290
     0
176
     1
 90
       13
176
     1
 40
0.0
176
     1
 90
        0
176
     1
290
     0
176
     1
290
     1
176
     1
290
     1
176
     1
290
     0
176
     1
290
     0
176
     1
290
     0
176
     1
290
     0
176
     1
290
     0
176
     1
290
     0
176
     1
 90
       50
176
     1
 40
0.0
176
     1
 40
1.0
176
     1
 90
        0
176
     1
 62
    18
420
        0
176
     1
 90
       50
176
     1
 90
        3
176
     1
 62
     5
420
      255
176
     1
290
     0
176
     1
 90
       50
176
     1
 90
       50
176
     1
 90
       50
176
     1
290
     0
176
     1
 90
       50
176
     1
 62
   256
176
     0
 40
1.0
176
     0
 90
        2
176
     1
  1
strokes_ogs.tif
176
     1
290
     0
176
     1
 40
1.0
176
     1
 40
1.0
176
     1
  0
DICTIONARYVAR
  5
479
102
{ACAD_REACTORS
330
478
102
}
330
478
100
DictionaryVariables
280
     0
  1
1:1
  0
DICTIONARYVAR
  5
47E
102
{ACAD_REACTORS
330
478
102
}
330
478
100
DictionaryVariables
280
     0
  1
Standard
  0
DICTIONARYVAR
  5
47D
102
{ACAD_REACTORS
330
478
102
}
330
478
100
DictionaryVariables
280
     0
  1
Standard
  0
DICTIONARYVAR
  5
481
102
{ACAD_REACTORS
330
478
102
}
330
478
100
DictionaryVariables
280
     0
  1
6.000000
  0
DICTIONARY
  5
47A
330
6A
100
AcDbDictionary
280
     1
281
     1
  3
ACAD_ROUNDTRIP_2008_TABLESTYLE_CELLSTYLEMAP
360
47B
  0
CELLSTYLEMAP
  5
47B
102
{ACAD_REACTORS
330
47A
102
}
330
47A
100
AcDbCellStyleMap
 90
        3
300
CELLSTYLE
  1
TABLEFORMAT_BEGIN
 90
        5
170
     1
 91
        0
 92
    32768
 62
   257
 93
        1
300
CONTENTFORMAT
  1
CONTENTFORMAT_BEGIN
 90
        0
 91
        0
 92
        4
 93
        0
300

 40
0.0
140
1.0
 94
        5
 62
     0
340
11
144
6.0
309
CONTENTFORMAT_END
171
     1
301
MARGIN
  1
CELLMARGIN_BEGIN
 40
1.5
 40
1.5
 40
1.5
 40
1.5
 40
1.5
 40
1.5
309
CELLMARGIN_END
 94
        6
 95
        1
302
GRIDFORMAT
  1
GRIDFORMAT_BEGIN
 90
        0
 91
        1
 62
     0
 92
       -2
340
14
 93
        0
 40
0.045
309
GRIDFORMAT_END
 95
        2
302
GRIDFORMAT
  1
GRIDFORMAT_BEGIN
 90
        0
 91
        1
 62
     0
 92
       -2
340
14
 93
        0
 40
0.045
309
GRIDFORMAT_END
 95
        4
302
GRIDFORMAT
  1
GRIDFORMAT_BEGIN
 90
        0
 91
        1
 62
     0
 92
       -2
340
14
 93
        0
 40
0.045
309
GRIDFORMAT_END
 95
        8
302
GRIDFORMAT
  1
GRIDFORMAT_BEGIN
 90
        0
 91
        1
 62
     0
 92
       -2
340
14
 93
        0
 40
0.045
309
GRIDFORMAT_END
 95
       16
302
GRIDFORMAT
  1
GRIDFORMAT_BEGIN
 90
        0
 91
        1
 62
     0
 92
       -2
340
14
 93
        0
 40
0.045
309
GRIDFORMAT_END
 95
       32
302
GRIDFORMAT
  1
GRIDFORMAT_BEGIN
 90
        0
 91
        1
 62
     0
 92
       -2
340
14
 93
        0
 40
0.045
309
GRIDFORMAT_END
309
TABLEFORMAT_END
  1
CELLSTYLE_BEGIN
 90
        1
 91
        1
300
_TITLE
309
CELLSTYLE_END
300
CELLSTYLE
  1
TABLEFORMAT_BEGIN
 90
        5
170
     1
 91
        0
 92
        0
 62
   257
 93
        1
300
CONTENTFORMAT
  1
CONTENTFORMAT_BEGIN
 90
        0
 91
        0
 92
        4
 93
        0
300

 40
0.0
140
1.0
 94
        5
 62
     0
340
11
144
4.5
309
CONTENTFORMAT_END
171
     1
301
MARGIN
  1
CELLMARGIN_BEGIN
 40
1.5
 40
1.5
 40
1.5
 40
1.5
 40
1.5
 40
1.5
309
CELLMARGIN_END
 94
        6
 95
        1
302
GRIDFORMAT
  1
GRIDFORMAT_BEGIN
 90
        0
 91
        1
 62
     0
 92
       -2
340
14
 93
        0
 40
0.045
309
GRIDFORMAT_END
 95
        2
302
GRIDFORMAT
  1
GRIDFORMAT_BEGIN
 90
        0
 91
        1
 62
     0
 92
       -2
340
14
 93
        0
 40
0.045
309
GRIDFORMAT_END
 95
        4
302
GRIDFORMAT
  1
GRIDFORMAT_BEGIN
 90
        0
 91
        1
 62
     0
 92
       -2
340
14
 93
        0
 40
0.045
309
GRIDFORMAT_END
 95
        8
302
GRIDFORMAT
  1
GRIDFORMAT_BEGIN
 90
        0
 91
        1
 62
     0
 92
       -2
340
14
 93
        0
 40
0.045
309
GRIDFORMAT_END
 95
       16
302
GRIDFORMAT
  1
GRIDFORMAT_BEGIN
 90
        0
 91
        1
 62
     0
 92
       -2
340
14
 93
        0
 40
0.045
309
GRIDFORMAT_END
 95
       32
302
GRIDFORMAT
  1
GRIDFORMAT_BEGIN
 90
        0
 91
        1
 62
     0
 92
       -2
340
14
 93
        0
 40
0.045
309
GRIDFORMAT_END
309
TABLEFORMAT_END
  1
CELLSTYLE_BEGIN
 90
        2
 91
        1
300
_HEADER
309
CELLSTYLE_END
300
CELLSTYLE
  1
TABLEFORMAT_BEGIN
 90
        5
170
     1
 91
        0
 92
        0
 62
   257
 93
        1
300
CONTENTFORMAT
  1
CONTENTFORMAT_BEGIN
 90
        0
 91
        0
 92
        4
 93
        0
300

 40
0.0
140
1.0
 94
        2
 62
     0
340
11
144
4.5
309
CONTENTFORMAT_END
171
     1
301
MARGIN
  1
CELLMARGIN_BEGIN
 40
1.5
 40
1.5
 40
1.5
 40
1.5
 40
1.5
 40
1.5
309
CELLMARGIN_END
 94
        6
 95
        1
302
GRIDFORMAT
  1
GRIDFORMAT_BEGIN
 90
        0
 91
        1
 62
     0
 92
       -2
340
14
 93
        0
 40
0.045
309
GRIDFORMAT_END
 95
        2
302
GRIDFORMAT
  1
GRIDFORMAT_BEGIN
 90
        0
 91
        1
 62
     0
 92
       -2
340
14
 93
        0
 40
0.045
309
GRIDFORMAT_END
 95
        4
302
GRIDFORMAT
  1
GRIDFORMAT_BEGIN
 90
        0
 91
        1
 62
     0
 92
       -2
340
14
 93
        0
 40
0.045
309
GRIDFORMAT_END
 95
        8
302
GRIDFORMAT
  1
GRIDFORMAT_BEGIN
 90
        0
 91
        1
 62
     0
 92
       -2
340
14
 93
        0
 40
0.045
309
GRIDFORMAT_END
 95
       16
302
GRIDFORMAT
  1
GRIDFORMAT_BEGIN
 90
        0
 91
        1
 62
     0
 92
       -2
340
14
 93
        0
 40
0.045
309
GRIDFORMAT_END
 95
       32
302
GRIDFORMAT
  1
GRIDFORMAT_BEGIN
 90
        0
 91
        1
 62
     0
 92
       -2
340
14
 93
        0
 40
0.045
309
GRIDFORMAT_END
309
TABLEFORMAT_END
  1
CELLSTYLE_BEGIN
 90
        3
 91
        2
300
_DATA
309
CELLSTYLE_END
  0
ENDSEC
  0
EOF
