  0
SECTION
  2
HEADER
  9
$ACADVER
  1
AC1027
  9
$ACADMAINTVER
 70
   105
  9
$DWGCODEPAGE
  3
DOS932
  9
$REQUIREDVERSIONS
160
                 0
  9
$INSBASE
 10
0.0
 20
0.0
 30
0.0
  9
$EXTMIN
 10
0.0
 20
0.0
 30
0.0
  9
$EXTMAX
 10
420.0
 20
297.0
 30
0.0
  9
$LIMMIN
 10
0.0
 20
0.0
  9
$LIMMAX
 10
420.0
 20
297.0
  9
$ORTHOMODE
 70
     0
  9
$REGENMODE
 70
     1
  9
$FILLMODE
 70
     1
  9
$QTEXTMODE
 70
     0
  9
$MIRRTEXT
 70
     1
  9
$LTSCALE
 40
1.0
  9
$ATTMODE
 70
     1
  9
$TEXTSIZE
 40
3.5
  9
$TRACEWID
 40
1.0
  9
$TEXTSTYLE
  7
Standard
  9
$CLAYER
  8
0
  9
$CELTYPE
  6
ByLayer
  9
$CECOLOR
 62
   256
  9
$CELTSCALE
 40
1.0
  9
$DISPSILH
 70
     0
  9
$DIMSCALE
 40
1.0
  9
$DIMASZ
 40
3.302
  9
$DIMEXO
 40
1.0
  9
$DIMDLI
 40
3.75
  9
$DIMRND
 40
0.0
  9
$DIMDLE
 40
0.0
  9
$DIMEXE
 40
1.0
  9
$DIMTP
 40
0.0
  9
$DIMTM
 40
0.0
  9
$DIMTXT
 40
3.5
  9
$DIMCEN
 40
2.5
  9
$DIMTSZ
 40
0.0
  9
$DIMTOL
 70
     0
  9
$DIMLIM
 70
     0
  9
$DIMTIH
 70
     1
  9
$DIMTOH
 70
     1
  9
$DIMSE1
 70
     0
  9
$DIMSE2
 70
     0
  9
$DIMTAD
 70
     1
  9
$DIMZIN
 70
     1
  9
$DIMBLK
  1

  9
$DIMASO
 70
     1
  9
$DIMSHO
 70
     1
  9
$DIMPOST
  1

  9
$DIMAPOST
  1

  9
$DIMALT
 70
     0
  9
$DIMALTD
 70
     3
  9
$DIMALTF
 40
0.0393700787
  9
$DIMLFAC
 40
1.0
  9
$DIMTOFL
 70
     1
  9
$DIMTVP
 40
0.0
  9
$DIMTIX
 70
     0
  9
$DIMSOXD
 70
     0
  9
$DIMSAH
 70
     0
  9
$DIMBLK1
  1

  9
$DIMBLK2
  1

  9
$DIMSTYLE
  2
ISO-25
  9
$DIMCLRD
 70
     0
  9
$DIMCLRE
 70
     0
  9
$DIMCLRT
 70
     0
  9
$DIMTFAC
 40
1.0
  9
$DIMGAP
 40
1.524
  9
$DIMJUST
 70
     0
  9
$DIMSD1
 70
     0
  9
$DIMSD2
 70
     0
  9
$DIMTOLJ
 70
     0
  9
$DIMTZIN
 70
     1
  9
$DIMALTZ
 70
     0
  9
$DIMALTTZ
 70
     0
  9
$DIMUPT
 70
     0
  9
$DIMDEC
 70
     2
  9
$DIMTDEC
 70
     2
  9
$DIMALTU
 70
     2
  9
$DIMALTTD
 70
     3
  9
$DIMTXSTY
  7
Standard
  9
$DIMAUNIT
 70
     0
  9
$DIMADEC
 70
     2
  9
$DIMALTRND
 40
0.0
  9
$DIMAZIN
 70
     0
  9
$DIMDSEP
 70
    44
  9
$DIMATFIT
 70
     3
  9
$DIMFRAC
 70
     0
  9
$DIMLDRBLK
  1

  9
$DIMLUNIT
 70
     2
  9
$DIMLWD
 70
    -2
  9
$DIMLWE
 70
    -2
  9
$DIMTMOVE
 70
     0
  9
$DIMFXL
 40
1.0
  9
$DIMFXLON
 70
     0
  9
$DIMJOGANG
 40
0.7853981634
  9
$DIMTFILL
 70
     0
  9
$DIMTFILLCLR
 70
     0
  9
$DIMARCSYM
 70
     0
  9
$DIMLTYPE
  6

  9
$DIMLTEX1
  6

  9
$DIMLTEX2
  6

  9
$DIMTXTDIRECTION
 70
     0
  9
$LUNITS
 70
     2
  9
$LUPREC
 70
     2
  9
$SKETCHINC
 40
1.0
  9
$FILLETRAD
 40
10.0
  9
$AUNITS
 70
     0
  9
$AUPREC
 70
     2
  9
$MENU
  1
.
  9
$ELEVATION
 40
0.0
  9
$PELEVATION
 40
0.0
  9
$THICKNESS
 40
0.0
  9
$LIMCHECK
 70
     0
  9
$CHAMFERA
 40
0.0
  9
$CHAMFERB
 40
0.0
  9
$CHAMFERC
 40
0.0
  9
$CHAMFERD
 40
0.0
  9
$SKPOLY
 70
     0
  9
$TDCREATE
 40
2459408.727275926
  9
$TDUCREATE
 40
2459408.352275926
  9
$TDUPDATE
 40
2459408.72727809
  9
$TDUUPDATE
 40
2459408.35227809
  9
$TDINDWG
 40
0.0000000116
  9
$TDUSRTIMER
 40
0.0000000116
  9
$USRTIMER
 70
     1
  9
$ANGBASE
 50
0.0
  9
$ANGDIR
 70
     0
  9
$PDMODE
 70
     0
  9
$PDSIZE
 40
-1.0
  9
$PLINEWID
 40
0.0
  9
$SPLFRAME
 70
     0
  9
$SPLINETYPE
 70
     6
  9
$SPLINESEGS
 70
     8
  9
$HANDSEED
  5
2B5
  9
$SURFTAB1
 70
     6
  9
$SURFTAB2
 70
     6
  9
$SURFTYPE
 70
     6
  9
$SURFU
 70
     6
  9
$SURFV
 70
     6
  9
$UCSBASE
  2

  9
$UCSNAME
  2

  9
$UCSORG
 10
0.0
 20
0.0
 30
0.0
  9
$UCSXDIR
 10
1.0
 20
0.0
 30
0.0
  9
$UCSYDIR
 10
0.0
 20
1.0
 30
0.0
  9
$UCSORTHOREF
  2

  9
$UCSORTHOVIEW
 70
     0
  9
$UCSORGTOP
 10
0.0
 20
0.0
 30
0.0
  9
$UCSORGBOTTOM
 10
0.0
 20
0.0
 30
0.0
  9
$UCSORGLEFT
 10
0.0
 20
0.0
 30
0.0
  9
$UCSORGRIGHT
 10
0.0
 20
0.0
 30
0.0
  9
$UCSORGFRONT
 10
0.0
 20
0.0
 30
0.0
  9
$UCSORGBACK
 10
0.0
 20
0.0
 30
0.0
  9
$PUCSBASE
  2

  9
$PUCSNAME
  2

  9
$PUCSORG
 10
0.0
 20
0.0
 30
0.0
  9
$PUCSXDIR
 10
1.0
 20
0.0
 30
0.0
  9
$PUCSYDIR
 10
0.0
 20
1.0
 30
0.0
  9
$PUCSORTHOREF
  2

  9
$PUCSORTHOVIEW
 70
     0
  9
$PUCSORGTOP
 10
0.0
 20
0.0
 30
0.0
  9
$PUCSORGBOTTOM
 10
0.0
 20
0.0
 30
0.0
  9
$PUCSORGLEFT
 10
0.0
 20
0.0
 30
0.0
  9
$PUCSORGRIGHT
 10
0.0
 20
0.0
 30
0.0
  9
$PUCSORGFRONT
 10
0.0
 20
0.0
 30
0.0
  9
$PUCSORGBACK
 10
0.0
 20
0.0
 30
0.0
  9
$USERI1
 70
     0
  9
$USERI2
 70
     0
  9
$USERI3
 70
     0
  9
$USERI4
 70
     0
  9
$USERI5
 70
     0
  9
$USERR1
 40
0.0
  9
$USERR2
 40
0.0
  9
$USERR3
 40
0.0
  9
$USERR4
 40
0.0
  9
$USERR5
 40
0.0
  9
$WORLDVIEW
 70
     1
  9
$SHADEDGE
 70
     3
  9
$SHADEDIF
 70
    70
  9
$TILEMODE
 70
     1
  9
$MAXACTVP
 70
    64
  9
$PINSBASE
 10
0.0
 20
0.0
 30
0.0
  9
$PLIMCHECK
 70
     0
  9
$PEXTMIN
 10
1.0000000000E+20
 20
1.0000000000E+20
 30
1.0000000000E+20
  9
$PEXTMAX
 10
-1.0000000000E+20
 20
-1.0000000000E+20
 30
-1.0000000000E+20
  9
$PLIMMIN
 10
0.0
 20
0.0
  9
$PLIMMAX
 10
420.0
 20
297.0
  9
$UNITMODE
 70
     0
  9
$VISRETAIN
 70
     1
  9
$PLINEGEN
 70
     0
  9
$PSLTSCALE
 70
     1
  9
$TREEDEPTH
 70
  3020
  9
$CMLSTYLE
  2
Standard
  9
$CMLJUST
 70
     0
  9
$CMLSCALE
 40
20.0
  9
$PROXYGRAPHICS
 70
     1
  9
$MEASUREMENT
 70
     1
  9
$CELWEIGHT
370
    -1
  9
$ENDCAPS
280
     0
  9
$JOINSTYLE
280
     0
  9
$LWDISPLAY
290
     1
  9
$INSUNITS
 70
     4
  9
$HYPERLINKBASE
  1

  9
$STYLESHEET
  1

  9
$XEDIT
290
     1
  9
$CEPSNTYPE
380
     0
  9
$PSTYLEMODE
290
     1
  9
$FINGERPRINTGUID
  2
{98A1FE1D-8618-4BD5-B852-56FD8F2F9F0E}
  9
$VERSIONGUID
  2
{FAEB1C32-E019-11D5-929B-00C0DF256EC4}
  9
$EXTNAMES
290
     1
  9
$PSVPSCALE
 40
0.0
  9
$OLESTARTUP
290
     0
  9
$SORTENTS
280
   127
  9
$INDEXCTL
280
     0
  9
$HIDETEXT
280
     1
  9
$XCLIPFRAME
280
     2
  9
$HALOGAP
280
     0
  9
$OBSCOLOR
 70
   257
  9
$OBSLTYPE
280
     0
  9
$INTERSECTIONDISPLAY
280
     0
  9
$INTERSECTIONCOLOR
 70
   257
  9
$DIMASSOC
280
     2
  9
$PROJECTNAME
  1

  9
$CAMERADISPLAY
290
     0
  9
$LENSLENGTH
 40
50.0
  9
$CAMERAHEIGHT
 40
0.0
  9
$STEPSPERSEC
 40
2.0
  9
$STEPSIZE
 40
6.0
  9
$3DDWFPREC
 40
2.0
  9
$PSOLWIDTH
 40
5.0
  9
$PSOLHEIGHT
 40
80.0
  9
$LOFTANG1
 40
1.5707963268
  9
$LOFTANG2
 40
1.5707963268
  9
$LOFTMAG1
 40
0.0
  9
$LOFTMAG2
 40
0.0
  9
$LOFTPARAM
 70
     7
  9
$LOFTNORMALS
280
     1
  9
$LATITUDE
 40
37.795
  9
$LONGITUDE
 40
-122.394
  9
$NORTHDIRECTION
 40
0.0
  9
$TIMEZONE
 70
 -8000
  9
$LIGHTGLYPHDISPLAY
280
     1
  9
$TILEMODELIGHTSYNCH
280
     1
  9
$CMATERIAL
347
44
  9
$SOLIDHIST
280
     0
  9
$SHOWHIST
280
     1
  9
$DWFFRAME
280
     2
  9
$DGNFRAME
280
     2
  9
$REALWORLDSCALE
290
     1
  9
$INTERFERECOLOR
 62
   256
  9
$CSHADOW
280
     0
  9
$SHADOWPLANELOCATION
 40
0.0
  0
ENDSEC
  0
SECTION
  2
CLASSES
  0
CLASS
  1
ACDBDICTIONARYWDFLT
  2
AcDbDictionaryWithDefault
  3
ObjectDBX Classes
 90
        0
 91
        4
280
     0
281
     0
  0
CLASS
  1
VISUALSTYLE
  2
AcDbVisualStyle
  3
ObjectDBX Classes
 90
     4095
 91
        4
280
     0
281
     0
  0
CLASS
  1
MATERIAL
  2
AcDbMaterial
  3
ObjectDBX Classes
 90
     1153
 91
        4
280
     0
281
     0
  0
CLASS
  1
SCALE
  2
AcDbScale
  3
ObjectDBX Classes
 90
     1153
 91
        4
280
     0
281
     0
  0
CLASS
  1
TABLESTYLE
  2
AcDbTableStyle
  3
ObjectDBX Classes
 90
     4095
 91
        4
280
     0
281
     0
  0
CLASS
  1
MLEADERSTYLE
  2
AcDbMLeaderStyle
  3
ACDB_MLEADERSTYLE_CLASS
 90
     4095
 91
        4
280
     0
281
     0
  0
CLASS
  1
SUN
  2
AcDbSun
  3
SCENEOE
 90
     1153
 91
        4
280
     0
281
     0
  0
CLASS
  1
DICTIONARYVAR
  2
AcDbDictionaryVar
  3
ObjectDBX Classes
 90
        0
 91
        4
280
     0
281
     0
  0
CLASS
  1
CELLSTYLEMAP
  2
AcDbCellStyleMap
  3
ObjectDBX Classes
 90
     1152
 91
        4
280
     0
281
     0
  0
ENDSEC
  0
SECTION
  2
TABLES
  0
TABLE
  2
VPORT
  5
8
330
0
100
AcDbSymbolTable
 70
     1
  0
VPORT
  5
29
330
8
100
AcDbSymbolTableRecord
100
AcDbViewportTableRecord
  2
*Active
 70
     0
 10
0.0
 20
0.0
 11
1.0
 21
1.0
 12
210.0
 22
148.5
 13
0.0
 23
0.0
 14
10.0
 24
10.0
 15
10.0
 25
10.0
 16
0.0
 26
0.0
 36
1.0
 17
0.0
 27
0.0
 37
0.0
 40
297.0
 41
1.4141414141
 42
50.0
 43
0.0
 44
0.0
 50
0.0
 51
0.0
 71
     0
 72
  2000
 73
     1
 74
     3
 75
     0
 76
     0
 77
     0
 78
     0
281
     0
 65
     1
110
0.0
120
0.0
130
0.0
111
1.0
121
0.0
131
0.0
112
0.0
122
1.0
132
0.0
 79
     0
146
0.0
348
2F
 60
     3
 61
     5
292
     1
282
     1
141
0.0
142
0.0
 63
   250
361
6D
  0
ENDTAB
  0
TABLE
  2
LTYPE
  5
5
330
0
100
AcDbSymbolTable
 70
     6
  0
LTYPE
  5
14
330
5
100
AcDbSymbolTableRecord
100
AcDbLinetypeTableRecord
  2
ByBlock
 70
     0
  3

 72
    65
 73
     0
 40
0.0
  0
LTYPE
  5
15
330
5
100
AcDbSymbolTableRecord
100
AcDbLinetypeTableRecord
  2
ByLayer
 70
     0
  3

 72
    65
 73
     0
 40
0.0
  0
LTYPE
  5
16
330
5
100
AcDbSymbolTableRecord
100
AcDbLinetypeTableRecord
  2
Continuous
 70
     0
  3
Solid line
 72
    65
 73
     0
 40
0.0
  0
LTYPE
  5
6E
330
5
100
AcDbSymbolTableRecord
100
AcDbLinetypeTableRecord
  2
HIDDEN
 70
     0
  3
Hidden __ __ __ __ __ __ __ __ __ __ __ __ __ __
 72
    65
 73
     2
 40
1.905
 49
1.27
 74
     0
 49
-0.635
 74
     0
  0
LTYPE
  5
6F
330
5
100
AcDbSymbolTableRecord
100
AcDbLinetypeTableRecord
  2
PHANTOM
 70
     0
  3
Phantom ______  __  __  ______  __  __  ______
 72
    65
 73
     6
 40
12.7
 49
6.35
 74
     0
 49
-1.27
 74
     0
 49
1.27
 74
     0
 49
-1.27
 74
     0
 49
1.27
 74
     0
 49
-1.27
 74
     0
  0
LTYPE
  5
70
330
5
100
AcDbSymbolTableRecord
100
AcDbLinetypeTableRecord
  2
CENTER
 70
     0
  3
Center ____ _ ____ _ ____ _ ____ _ ____ _ ____
 72
    65
 73
     4
 40
10.16
 49
6.35
 74
     0
 49
-1.27
 74
     0
 49
1.27
 74
     0
 49
-1.27
 74
     0
  0
LTYPE
  5
71
330
5
100
AcDbSymbolTableRecord
100
AcDbLinetypeTableRecord
  2
CENTERX2
 70
     0
  3
Center (2x) ________  __  ________  __  _____
 72
    65
 73
     4
 40
20.32
 49
12.7
 74
     0
 49
-2.54
 74
     0
 49
2.54
 74
     0
 49
-2.54
 74
     0
  0
LTYPE
  5
72
330
5
100
AcDbSymbolTableRecord
100
AcDbLinetypeTableRecord
  2
DOT2
 70
     0
  3
Dot (.5x) ........................................
 72
    65
 73
     2
 40
0.635
 49
0.0
 74
     0
 49
-0.635
 74
     0
  0
ENDTAB
  0
TABLE
  2
LAYER
  5
2
330
0
100
AcDbSymbolTable
 70
     6
  0
LAYER
  5
10
330
2
100
AcDbSymbolTableRecord
100
AcDbLayerTableRecord
  2
0
 70
     0
 62
     7
  6
Continuous
370
    -3
390
F
347
46
348
0
  0
LAYER
  5
73
330
2
100
AcDbSymbolTableRecord
100
AcDbLayerTableRecord
  2
FORMAT
 70
     0
 62
     7
  6
Continuous
370
    -3
390
F
347
46
348
0
  0
LAYER
  5
74
330
2
100
AcDbSymbolTableRecord
100
AcDbLayerTableRecord
  2
太線
 70
     0
 62
     7
  6
Continuous
370
    35
390
F
347
46
348
0
  0
LAYER
  5
75
330
2
100
AcDbSymbolTableRecord
100
AcDbLayerTableRecord
  2
非表示
 70
     0
 62
    -3
  6
Continuous
290
     0
370
    -3
390
F
347
46
348
0
  0
LAYER
  5
76
330
2
100
AcDbSymbolTableRecord
100
AcDbLayerTableRecord
  2
設変0
 70
     0
 62
     7
  6
Continuous
370
    -3
390
F
347
46
348
0
  0
LAYER
  5
77
330
2
100
AcDbSymbolTableRecord
100
AcDbLayerTableRecord
  2
作図用
 70
     0
 62
     7
  6
Continuous
370
    -3
390
F
347
46
348
0
  0
ENDTAB
  0
TABLE
  2
STYLE
  5
3
330
0
100
AcDbSymbolTable
 70
    12
  0
STYLE
  5
11
330
3
100
AcDbSymbolTableRecord
100
AcDbTextStyleTableRecord
  2
Standard
 70
     0
 40
0.0
 41
1.0
 50
0.0
 71
     0
 42
3.5
  3
txt
  4
bigfont
  0
STYLE
  5
DF
330
3
100
AcDbSymbolTableRecord
100
AcDbTextStyleTableRecord
  2
SLDTEXTSTYLE0
 70
     0
 40
0.0
 41
0.8368171345
 50
0.0
 71
     0
 42
3.5
  3
TXT
  4
bigfont
  0
STYLE
  5
E1
330
3
100
AcDbSymbolTableRecord
100
AcDbTextStyleTableRecord
  2
SLDTEXTSTYLE1
 70
     0
 40
0.0
 41
0.7
 50
0.0
 71
     0
 42
3.5
  3
TXT
  4
bigfont
  0
STYLE
  5
E8
330
3
100
AcDbSymbolTableRecord
100
AcDbTextStyleTableRecord
  2
SLDTEXTSTYLE2
 70
     0
 40
0.0
 41
0.466666669
 50
0.0
 71
     0
 42
3.5
  3
TXT
  4
bigfont
  0
STYLE
  5
EC
330
3
100
AcDbSymbolTableRecord
100
AcDbTextStyleTableRecord
  2
SLDTEXTSTYLE3
 70
     0
 40
0.0
 41
0.8088321234
 50
0.0
 71
     0
 42
3.5
  3
TXT
  4
bigfont
  0
STYLE
  5
EE
330
3
100
AcDbSymbolTableRecord
100
AcDbTextStyleTableRecord
  2
SLDTEXTSTYLE4
 70
     0
 40
0.0
 41
0.780339084
 50
0.0
 71
     0
 42
3.5
  3
TXT
  4
bigfont
  0
STYLE
  5
F0
330
3
100
AcDbSymbolTableRecord
100
AcDbTextStyleTableRecord
  2
SLDTEXTSTYLE5
 70
     0
 40
0.0
 41
0.7973422044
 50
0.0
 71
     0
 42
3.5
  3
TXT
  4
bigfont
  0
STYLE
  5
F2
330
3
100
AcDbSymbolTableRecord
100
AcDbTextStyleTableRecord
  2
SLDTEXTSTYLE6
 70
     0
 40
0.0
 41
0.858372984
 50
0.0
 71
     0
 42
3.5
  3
TXT
  4
bigfont
  0
STYLE
  5
F4
330
3
100
AcDbSymbolTableRecord
100
AcDbTextStyleTableRecord
  2
SLDTEXTSTYLE7
 70
     0
 40
0.0
 41
0.7910772324
 50
0.0
 71
     0
 42
3.5
  3
TXT
  4
bigfont
  0
STYLE
  5
F6
330
3
100
AcDbSymbolTableRecord
100
AcDbTextStyleTableRecord
  2
SLDTEXTSTYLE8
 70
     0
 40
0.0
 41
0.860070624
 50
0.0
 71
     0
 42
3.5
  3
TXT
  4
bigfont
  0
STYLE
  5
F8
330
3
100
AcDbSymbolTableRecord
100
AcDbTextStyleTableRecord
  2
SLDTEXTSTYLE9
 70
     0
 40
0.0
 41
0.84
 50
0.0
 71
     0
 42
3.5
  3
TXT
  4
bigfont
  0
STYLE
  5
14F
330
3
100
AcDbSymbolTableRecord
100
AcDbTextStyleTableRecord
  2
SLDTEXTSTYLE10
 70
     0
 40
0.0
 41
0.75
 50
0.0
 71
     0
 42
3.5
  3
TXT
  4
bigfont
  0
ENDTAB
  0
TABLE
  2
VIEW
  5
6
330
0
100
AcDbSymbolTable
 70
     0
  0
ENDTAB
  0
TABLE
  2
UCS
  5
7
330
0
100
AcDbSymbolTable
 70
     0
  0
ENDTAB
  0
TABLE
  2
APPID
  5
9
330
0
100
AcDbSymbolTable
 70
     1
  0
APPID
  5
12
330
9
100
AcDbSymbolTableRecord
100
AcDbRegAppTableRecord
  2
ACAD
 70
     0
  0
ENDTAB
  0
TABLE
  2
DIMSTYLE
  5
A
330
0
100
AcDbSymbolTable
 70
     4
100
AcDbDimStyleTable
  0
DIMSTYLE
105
27
330
A
100
AcDbSymbolTableRecord
100
AcDbDimStyleTableRecord
  2
ISO-25
 70
     0
 41
2.5
 42
0.625
 43
3.75
 44
1.25
 73
     0
 74
     0
 77
     1
 78
     8
140
2.5
141
2.5
143
0.0393700787
147
0.625
171
     3
172
     1
178
     0
271
     2
272
     2
274
     3
278
    44
283
     0
284
     8
340
11
  0
DIMSTYLE
105
150
102
{ACAD_REACTORS
330
14E
330
16D
102
}
330
A
100
AcDbSymbolTableRecord
100
AcDbDimStyleTableRecord
  2
SLDDIMSTYLE0
 70
     0
 41
3.302
 44
0.0
 45
0.000000001
 73
     0
 74
     0
 77
     3
 78
     4
 79
     1
140
3.5
147
0.875
173
     1
178
     0
271
     2
272
     2
276
     2
284
    12
340
14F
341
151
343
151
344
151
  0
DIMSTYLE
105
161
102
{ACAD_REACTORS
330
160
330
1D5
102
}
330
A
100
AcDbSymbolTableRecord
100
AcDbDimStyleTableRecord
  2
SLDDIMSTYLE1
 70
     0
 41
3.302
 44
0.0
 45
0.000000001
 73
     0
 74
     0
 77
     3
 78
     4
 79
     1
140
3.5
147
0.875
172
     1
173
     1
178
     0
271
     2
272
     2
276
     2
284
    12
289
     0
340
14F
341
151
343
151
344
151
  0
DIMSTYLE
105
178
102
{ACAD_REACTORS
330
177
102
}
330
A
100
AcDbSymbolTableRecord
100
AcDbDimStyleTableRecord
  2
SLDDIMSTYLE2
 70
     0
 41
3.302
 44
0.0
 45
0.000000001
 78
     4
 79
     1
140
3.5
141
0.0
147
0.875
172
     1
173
     1
178
     0
271
     2
272
     2
276
     2
284
    12
340
14F
341
179
343
179
344
151
  0
ENDTAB
  0
TABLE
  2
BLOCK_RECORD
  5
1
330
0
100
AcDbSymbolTable
 70
     9
  0
BLOCK_RECORD
  5
1F
330
1
100
AcDbSymbolTableRecord
100
AcDbBlockTableRecord
  2
*Model_Space
340
22
 70
     0
280
     1
281
     0
  0
BLOCK_RECORD
  5
1B
330
1
100
AcDbSymbolTableRecord
100
AcDbBlockTableRecord
  2
*Paper_Space
340
1E
 70
     0
280
     1
281
     0
  0
BLOCK_RECORD
  5
23
330
1
100
AcDbSymbolTableRecord
100
AcDbBlockTableRecord
  2
*Paper_Space0
340
26
 70
     0
280
     1
281
     0
  0
BLOCK_RECORD
  5
151
330
1
100
AcDbSymbolTableRecord
100
AcDbBlockTableRecord
  2
_OPEN30
340
0
102
{BLKREFS
331
15A
331
15B
331
165
331
166
331
171
331
172
331
17F
331
1D9
331
1DA
102
}
 70
     0
280
     1
281
     0
  0
BLOCK_RECORD
  5
157
330
1
100
AcDbSymbolTableRecord
100
AcDbBlockTableRecord
  2
_D
340
0
 70
     0
280
     1
281
     0
  0
BLOCK_RECORD
  5
162
330
1
100
AcDbSymbolTableRecord
100
AcDbBlockTableRecord
  2
_D_1
340
0
 70
     0
280
     1
281
     0
  0
BLOCK_RECORD
  5
16E
330
1
100
AcDbSymbolTableRecord
100
AcDbBlockTableRecord
  2
_D_2
340
0
 70
     0
280
     1
281
     0
  0
BLOCK_RECORD
  5
179
330
1
100
AcDbSymbolTableRecord
100
AcDbBlockTableRecord
  2
_NONE
340
0
 70
     0
280
     1
281
     0
  0
BLOCK_RECORD
  5
17C
330
1
100
AcDbSymbolTableRecord
100
AcDbBlockTableRecord
  2
_D_3
340
0
 70
     0
280
     1
281
     0
  0
BLOCK_RECORD
  5
185
330
1
100
AcDbSymbolTableRecord
100
AcDbBlockTableRecord
  2
SW_CENTERMARKSYMBOL_0
340
0
102
{BLKREFS
331
190
102
}
 70
     0
280
     1
281
     0
  0
BLOCK_RECORD
  5
1D6
330
1
100
AcDbSymbolTableRecord
100
AcDbBlockTableRecord
  2
_D_4
340
0
 70
     0
280
     1
281
     0
  0
ENDTAB
  0
ENDSEC
  0
SECTION
  2
BLOCKS
  0
BLOCK
  5
20
330
1F
100
AcDbEntity
  8
0
100
AcDbBlockBegin
  2
*Model_Space
 70
     0
 10
0.0
 20
0.0
 30
0.0
  3
*Model_Space
  1

  0
ENDBLK
  5
21
330
1F
100
AcDbEntity
  8
0
100
AcDbBlockEnd
  0
BLOCK
  5
1C
330
1B
100
AcDbEntity
 67
     1
  8
0
100
AcDbBlockBegin
  2
*Paper_Space
 70
     0
 10
0.0
 20
0.0
 30
0.0
  3
*Paper_Space
  1

  0
ENDBLK
  5
1D
330
1B
100
AcDbEntity
 67
     1
  8
0
100
AcDbBlockEnd
  0
BLOCK
  5
24
330
23
100
AcDbEntity
  8
0
100
AcDbBlockBegin
  2
*Paper_Space0
 70
     0
 10
0.0
 20
0.0
 30
0.0
  3
*Paper_Space0
  1

  0
ENDBLK
  5
25
330
23
100
AcDbEntity
  8
0
100
AcDbBlockEnd
  0
BLOCK
  5
152
330
151
100
AcDbEntity
  8
0
100
AcDbBlockBegin
  2
_OPEN30
 70
     0
 10
0.0
 20
0.0
 30
0.0
  3
_OPEN30
  1

  0
LINE
  5
154
330
151
100
AcDbEntity
  8
0
  6
ByBlock
 62
     0
370
    -2
100
AcDbLine
 10
-1.0
 20
0.267949
 30
0.0
 11
0.0
 21
0.0
 31
0.0
  0
LINE
  5
155
330
151
100
AcDbEntity
  8
0
  6
ByBlock
 62
     0
370
    -2
100
AcDbLine
 10
0.0
 20
0.0
 30
0.0
 11
-1.0
 21
-0.267949
 31
0.0
  0
LINE
  5
156
330
151
100
AcDbEntity
  8
0
  6
ByBlock
 62
     0
370
    -2
100
AcDbLine
 10
0.0
 20
0.0
 30
0.0
 11
-1.0
 21
0.0
 31
0.0
  0
ENDBLK
  5
153
330
151
100
AcDbEntity
  8
0
100
AcDbBlockEnd
  0
BLOCK
  5
158
330
157
100
AcDbEntity
  8
0
100
AcDbBlockBegin
  2
_D
 70
     0
 10
0.0
 20
0.0
 30
0.0
  3
_D
  1

  0
INSERT
  5
15A
330
157
100
AcDbEntity
  8
FORMAT
100
AcDbBlockReference
  2
_OPEN30
 10
89.5473489817
 20
169.0998326681
 30
0.0
 41
3.302
 42
3.302
 50
90.0
  0
INSERT
  5
15B
330
157
100
AcDbEntity
  8
FORMAT
100
AcDbBlockReference
  2
_OPEN30
 10
89.5473489817
 20
132.0998326681
 30
0.0
 41
3.302
 42
3.302
 50
270.0
  0
LINE
  5
15C
330
157
100
AcDbEntity
  8
FORMAT
100
AcDbLine
 10
151.1076895596
 20
169.0998326681
 30
0.0
 11
88.5473489817
 21
169.0998326681
 31
0.0
  0
LINE
  5
15D
330
157
100
AcDbEntity
  8
FORMAT
100
AcDbLine
 10
121.1076895596
 20
132.0998326681
 30
0.0
 11
88.5473489817
 21
132.0998326681
 31
0.0
  0
LINE
  5
15E
330
157
100
AcDbEntity
  8
FORMAT
100
AcDbLine
 10
89.5473489817
 20
169.0998326681
 30
0.0
 11
89.5473489817
 21
132.0998326681
 31
0.0
  0
MTEXT
  5
15F
330
157
100
AcDbEntity
  8
FORMAT
100
AcDbMText
 10
85.0356120671
 20
145.2038005141
 30
0.0
 40
3.5
 41
0.0
 46
0.0
 71
     1
 72
     1
  1
37.00
  7
SLDTEXTSTYLE10
 11
-7.044195017643634E-15
 21
1.0
 31
0.0
 73
     1
 44
1.0
  0
ENDBLK
  5
159
330
157
100
AcDbEntity
  8
0
100
AcDbBlockEnd
  0
BLOCK
  5
163
330
162
100
AcDbEntity
  8
0
100
AcDbBlockBegin
  2
_D_1
 70
     0
 10
0.0
 20
0.0
 30
0.0
  3
_D_1
  1

  0
INSERT
  5
165
330
162
100
AcDbEntity
  8
FORMAT
100
AcDbBlockReference
  2
_OPEN30
 10
97.8343853167
 20
150.0998326681
 30
-12.3788355086
 41
3.302
 42
3.302
 50
270.0
  0
INSERT
  5
166
330
162
100
AcDbEntity
  8
FORMAT
100
AcDbBlockReference
  2
_OPEN30
 10
97.8343853167
 20
132.0998326681
 30
-12.3788355086
 41
3.302
 42
3.302
 50
90.0
  0
LINE
  5
167
330
162
100
AcDbEntity
  8
FORMAT
100
AcDbLine
 10
121.1076895596
 20
150.0998326681
 30
0.0
 11
96.8343853167
 21
150.0998326681
 31
0.0
  0
LINE
  5
168
330
162
100
AcDbEntity
  8
FORMAT
100
AcDbLine
 10
121.1076895596
 20
132.0998326681
 30
0.0
 11
96.8343853167
 21
132.0998326681
 31
0.0
  0
LINE
  5
169
330
162
100
AcDbEntity
  8
FORMAT
100
AcDbLine
 10
97.8343853167
 20
150.0998326681
 30
0.0
 11
97.8343853167
 21
156.4498326681
 31
0.0
  0
LINE
  5
16A
330
162
100
AcDbEntity
  8
FORMAT
100
AcDbLine
 10
97.8343853167
 20
150.0998326681
 30
0.0
 11
97.8343853167
 21
132.0998326681
 31
0.0
  0
LINE
  5
16B
330
162
100
AcDbEntity
  8
FORMAT
100
AcDbLine
 10
97.8343853167
 20
132.0998326681
 30
0.0
 11
97.8343853167
 21
106.2810824245
 31
0.0
  0
MTEXT
  5
16C
330
162
100
AcDbEntity
  8
FORMAT
100
AcDbMText
 10
93.3226484021
 20
106.2810824245
 30
0.0
 40
3.5
 41
0.0
 46
0.0
 71
     1
 72
     1
  1
18.00
  7
SLDTEXTSTYLE10
 11
-7.044195017643634E-15
 21
1.0
 31
0.0
 73
     1
 44
1.0
  0
ENDBLK
  5
164
330
162
100
AcDbEntity
  8
0
100
AcDbBlockEnd
  0
BLOCK
  5
16F
330
16E
100
AcDbEntity
  8
0
100
AcDbBlockBegin
  2
_D_2
 70
     0
 10
0.0
 20
0.0
 30
0.0
  3
_D_2
  1

  0
INSERT
  5
171
330
16E
100
AcDbEntity
  8
FORMAT
100
AcDbBlockReference
  2
_OPEN30
 10
102.1076895596
 20
124.0477071301
 30
-12.3788355086
 41
3.302
 42
3.302
 50
180.0
  0
INSERT
  5
172
330
16E
100
AcDbEntity
  8
FORMAT
100
AcDbBlockReference
  2
_OPEN30
 10
202.1076895596
 20
124.0477071301
 30
-12.3788355086
 41
3.302
 42
3.302
 50
0.0
  0
LINE
  5
173
330
16E
100
AcDbEntity
  8
FORMAT
100
AcDbLine
 10
102.1076895596
 20
141.4755006578
 30
0.0
 11
102.1076895596
 21
123.0477071301
 31
0.0
  0
LINE
  5
174
330
16E
100
AcDbEntity
  8
FORMAT
100
AcDbLine
 10
202.1076895596
 20
141.4755006578
 30
0.0
 11
202.1076895596
 21
123.0477071301
 31
0.0
  0
LINE
  5
175
330
16E
100
AcDbEntity
  8
FORMAT
100
AcDbLine
 10
102.1076895596
 20
124.0477071301
 30
0.0
 11
202.1076895596
 21
124.0477071301
 31
0.0
  0
MTEXT
  5
176
330
16E
100
AcDbEntity
  8
FORMAT
100
AcDbMText
 10
146.6661752241
 20
128.5594440446
 30
0.0
 40
3.5
 41
0.0
 46
0.0
 71
     1
 72
     1
  1
100.00
  7
SLDTEXTSTYLE10
 73
     1
 44
1.0
  0
ENDBLK
  5
170
330
16E
100
AcDbEntity
  8
0
100
AcDbBlockEnd
  0
BLOCK
  5
17A
330
179
100
AcDbEntity
  8
0
100
AcDbBlockBegin
  2
_NONE
 70
     0
 10
0.0
 20
0.0
 30
0.0
  3
_NONE
  1

  0
ENDBLK
  5
17B
330
179
100
AcDbEntity
  8
0
100
AcDbBlockEnd
  0
BLOCK
  5
17D
330
17C
100
AcDbEntity
  8
0
100
AcDbBlockBegin
  2
_D_3
 70
     0
 10
0.0
 20
0.0
 30
0.0
  3
_D_3
  1

  0
INSERT
  5
17F
330
17C
100
AcDbEntity
  8
FORMAT
100
AcDbBlockReference
  2
_OPEN30
 10
155.9021271341
 20
161.0189737333
 30
-12.3788355086
 41
3.302
 42
3.302
 50
212.5195195004
  0
LINE
  5
180
330
17C
100
AcDbEntity
  8
FORMAT
100
AcDbLine
 10
155.9021271341
 20
161.0189737333
 30
0.0
 11
189.4562440423
 21
182.4113778844
 31
0.0
  0
LINE
  5
181
330
17C
100
AcDbEntity
  8
FORMAT
100
AcDbLine
 10
148.3132519851
 20
156.1806916029
 30
0.0
 11
155.9021271341
 21
161.0189737333
 31
0.0
  0
LINE
  5
182
330
17C
100
AcDbEntity
  8
FORMAT
100
AcDbLine
 10
189.4562440423
 20
182.4113778844
 30
0.0
 11
205.3735714329
 21
182.4113778844
 31
0.0
  0
MTEXT
  5
183
330
17C
100
AcDbEntity
  8
FORMAT
100
AcDbMText
 10
191.0437440423
 20
186.9231149736
 30
0.0
 40
3.5
 41
0.0
 46
0.0
 71
     1
 72
     1
  1
%%c
  7
SLDTEXTSTYLE10
 73
     1
 44
1.0
  0
MTEXT
  5
184
330
17C
100
AcDbEntity
  8
FORMAT
100
AcDbMText
 10
196.3221814407
 20
186.9765871502
 30
0.0
 40
3.5
 41
0.0
 46
0.0
 71
     1
 72
     1
  1
9.00
  7
SLDTEXTSTYLE10
 73
     1
 44
1.0
  0
ENDBLK
  5
17E
330
17C
100
AcDbEntity
  8
0
100
AcDbBlockEnd
  0
BLOCK
  5
186
330
185
100
AcDbEntity
  8
0
100
AcDbBlockBegin
  2
SW_CENTERMARKSYMBOL_0
 70
     0
 10
0.0
 20
0.0
 30
0.0
  3
SW_CENTERMARKSYMBOL_0
  1

  0
LINE
  5
188
330
185
100
AcDbEntity
  8
FORMAT
 62
     0
100
AcDbLine
 10
0.0
 20
0.0
 30
0.0
 11
0.0
 21
2.5
 31
0.0
  0
LINE
  5
189
330
185
100
AcDbEntity
  8
FORMAT
 62
     0
100
AcDbLine
 10
0.0
 20
0.0
 30
0.0
 11
-2.5
 21
0.0
 31
0.0
  0
LINE
  5
18A
330
185
100
AcDbEntity
  8
FORMAT
 62
     0
100
AcDbLine
 10
0.0
 20
0.0
 30
0.0
 11
0.0
 21
-2.5
 31
0.0
  0
LINE
  5
18B
330
185
100
AcDbEntity
  8
FORMAT
 62
     0
100
AcDbLine
 10
0.0
 20
0.0
 30
0.0
 11
2.5
 21
0.0
 31
0.0
  0
LINE
  5
18C
330
185
100
AcDbEntity
  8
FORMAT
 62
     0
100
AcDbLine
 10
0.0
 20
5.0
 30
0.0
 11
0.0
 21
7.0
 31
0.0
  0
LINE
  5
18D
330
185
100
AcDbEntity
  8
FORMAT
 62
     0
100
AcDbLine
 10
-5.0
 20
0.0
 30
0.0
 11
-7.0
 21
0.0
 31
0.0
  0
LINE
  5
18E
330
185
100
AcDbEntity
  8
FORMAT
 62
     0
100
AcDbLine
 10
0.0
 20
-5.0
 30
0.0
 11
0.0
 21
-7.0
 31
0.0
  0
LINE
  5
18F
330
185
100
AcDbEntity
  8
FORMAT
 62
     0
100
AcDbLine
 10
5.0
 20
0.0
 30
0.0
 11
7.0
 21
0.0
 31
0.0
  0
ENDBLK
  5
187
330
185
100
AcDbEntity
  8
0
100
AcDbBlockEnd
  0
BLOCK
  5
1D7
330
1D6
100
AcDbEntity
  8
0
100
AcDbBlockBegin
  2
_D_4
 70
     0
 10
0.0
 20
0.0
 30
0.0
  3
_D_4
  1

  0
INSERT
  5
1D9
330
1D6
100
AcDbEntity
  8
FORMAT
100
AcDbBlockReference
  2
_OPEN30
 10
295.6920481904
 20
124.1459117768
 30
0.0
 41
3.302
 42
3.302
 50
180.0
  0
INSERT
  5
1DA
330
1D6
100
AcDbEntity
  8
FORMAT
100
AcDbBlockReference
  2
_OPEN30
 10
270.6920481904
 20
124.1459117768
 30
0.0
 41
3.302
 42
3.302
 50
0.0
  0
LINE
  5
1DB
330
1D6
100
AcDbEntity
  8
FORMAT
100
AcDbLine
 10
295.6920481904
 20
144.1743948768
 30
0.0
 11
295.6920481904
 21
123.1459117768
 31
0.0
  0
LINE
  5
1DC
330
1D6
100
AcDbEntity
  8
FORMAT
100
AcDbLine
 10
270.6920481904
 20
144.1743948768
 30
0.0
 11
270.6920481904
 21
123.1459117768
 31
0.0
  0
LINE
  5
1DD
330
1D6
100
AcDbEntity
  8
FORMAT
100
AcDbLine
 10
295.6920481904
 20
124.1459117768
 30
0.0
 11
322.006798434
 21
124.1459117768
 31
0.0
  0
LINE
  5
1DE
330
1D6
100
AcDbEntity
  8
FORMAT
100
AcDbLine
 10
295.6920481904
 20
124.1459117768
 30
0.0
 11
270.6920481904
 21
124.1459117768
 31
0.0
  0
LINE
  5
1DF
330
1D6
100
AcDbEntity
  8
FORMAT
100
AcDbLine
 10
270.6920481904
 20
124.1459117768
 30
0.0
 11
264.3420481904
 21
124.1459117768
 31
0.0
  0
MTEXT
  5
1E0
330
1D6
100
AcDbEntity
  8
FORMAT
100
AcDbMText
 10
310.3692979467
 20
128.6576486914
 30
0.0
 40
3.5
 41
0.0
 46
0.0
 71
     1
 72
     1
  1
25.00
  7
SLDTEXTSTYLE10
 73
     1
 44
1.0
  0
ENDBLK
  5
1D8
330
1D6
100
AcDbEntity
  8
0
100
AcDbBlockEnd
  0
ENDSEC
  0
SECTION
  2
ENTITIES
  0
LINE
  5
78
330
1F
100
AcDbEntity
  8
太線
100
AcDbLine
 10
404.8999
 20
39.9593928705
 30
0.0
 11
360.7628548659
 21
39.9593928705
 31
0.0
  0
LINE
  5
79
330
1F
100
AcDbEntity
  8
0
  6
Continuous
 62
     7
370
    18
100
AcDbLine
 10
248.0
 20
5.0
 30
0.0
 11
248.0
 21
10.0
 31
0.0
  0
LINE
  5
7A
330
1F
100
AcDbEntity
  8
0
  6
Continuous
 62
     7
370
    18
100
AcDbLine
 10
313.0
 20
5.0
 30
0.0
 11
313.0
 21
10.0
 31
0.0
  0
LINE
  5
7B
330
1F
100
AcDbEntity
  8
0
  6
Continuous
 62
     7
370
    18
100
AcDbLine
 10
312.0
 20
5.0
 30
0.0
 11
312.0
 21
10.0
 31
0.0
  0
LINE
  5
7C
330
1F
100
AcDbEntity
  8
0
  6
Continuous
 62
     7
370
    18
100
AcDbLine
 10
311.0
 20
5.0
 30
0.0
 11
311.0
 21
10.0
 31
0.0
  0
LINE
  5
7D
330
1F
100
AcDbEntity
  8
0
  6
Continuous
 62
     7
370
    18
100
AcDbLine
 10
310.0
 20
5.0
 30
0.0
 11
310.0
 21
10.0
 31
0.0
  0
LINE
  5
7E
330
1F
100
AcDbEntity
  8
0
  6
Continuous
 62
     7
370
    18
100
AcDbLine
 10
309.0
 20
5.0
 30
0.0
 11
309.0
 21
10.0
 31
0.0
  0
LINE
  5
7F
330
1F
100
AcDbEntity
  8
0
  6
Continuous
 62
     7
370
    18
100
AcDbLine
 10
308.0
 20
5.0
 30
0.0
 11
308.0
 21
10.0
 31
0.0
  0
LINE
  5
80
330
1F
100
AcDbEntity
  8
0
  6
Continuous
 62
     7
370
    18
100
AcDbLine
 10
304.0
 20
5.0
 30
0.0
 11
304.0
 21
10.0
 31
0.0
  0
LINE
  5
81
330
1F
100
AcDbEntity
  8
0
  6
Continuous
 62
     7
370
    18
100
AcDbLine
 10
303.0
 20
5.0
 30
0.0
 11
303.0
 21
10.0
 31
0.0
  0
LINE
  5
82
330
1F
100
AcDbEntity
  8
0
  6
Continuous
 62
     7
370
    18
100
AcDbLine
 10
302.0
 20
5.0
 30
0.0
 11
302.0
 21
10.0
 31
0.0
  0
LINE
  5
83
330
1F
100
AcDbEntity
  8
0
  6
Continuous
 62
     7
370
    18
100
AcDbLine
 10
301.0
 20
5.0
 30
0.0
 11
301.0
 21
10.0
 31
0.0
  0
LINE
  5
84
330
1F
100
AcDbEntity
  8
0
  6
Continuous
 62
     7
370
    18
100
AcDbLine
 10
300.0
 20
5.0
 30
0.0
 11
300.0
 21
10.0
 31
0.0
  0
LINE
  5
85
330
1F
100
AcDbEntity
  8
0
  6
Continuous
 62
     7
370
    18
100
AcDbLine
 10
299.0
 20
5.0
 30
0.0
 11
299.0
 21
10.0
 31
0.0
  0
LINE
  5
86
330
1F
100
AcDbEntity
  8
0
  6
Continuous
 62
     7
370
    18
100
AcDbLine
 10
298.0
 20
5.0
 30
0.0
 11
298.0
 21
10.0
 31
0.0
  0
LINE
  5
87
330
1F
100
AcDbEntity
  8
0
  6
Continuous
 62
     7
370
    18
100
AcDbLine
 10
294.0
 20
5.0
 30
0.0
 11
294.0
 21
10.0
 31
0.0
  0
LINE
  5
88
330
1F
100
AcDbEntity
  8
0
  6
Continuous
 62
     7
370
    18
100
AcDbLine
 10
293.0
 20
5.0
 30
0.0
 11
293.0
 21
10.0
 31
0.0
  0
LINE
  5
89
330
1F
100
AcDbEntity
  8
0
  6
Continuous
 62
     7
370
    18
100
AcDbLine
 10
292.0
 20
5.0
 30
0.0
 11
292.0
 21
10.0
 31
0.0
  0
LINE
  5
8A
330
1F
100
AcDbEntity
  8
0
  6
Continuous
 62
     7
370
    18
100
AcDbLine
 10
291.0
 20
5.0
 30
0.0
 11
291.0
 21
10.0
 31
0.0
  0
LINE
  5
8B
330
1F
100
AcDbEntity
  8
0
  6
Continuous
 62
     7
370
    18
100
AcDbLine
 10
290.0
 20
5.0
 30
0.0
 11
290.0
 21
10.0
 31
0.0
  0
LINE
  5
8C
330
1F
100
AcDbEntity
  8
0
  6
Continuous
 62
     7
370
    18
100
AcDbLine
 10
289.0
 20
5.0
 30
0.0
 11
289.0
 21
10.0
 31
0.0
  0
LINE
  5
8D
330
1F
100
AcDbEntity
  8
0
  6
Continuous
 62
     7
370
    18
100
AcDbLine
 10
288.0
 20
5.0
 30
0.0
 11
288.0
 21
10.0
 31
0.0
  0
LINE
  5
8E
330
1F
100
AcDbEntity
  8
0
  6
Continuous
 62
     7
370
    18
100
AcDbLine
 10
284.0
 20
5.0
 30
0.0
 11
284.0
 21
10.0
 31
0.0
  0
LINE
  5
8F
330
1F
100
AcDbEntity
  8
0
  6
Continuous
 62
     7
370
    18
100
AcDbLine
 10
283.0
 20
5.0
 30
0.0
 11
283.0
 21
10.0
 31
0.0
  0
LINE
  5
90
330
1F
100
AcDbEntity
  8
0
  6
Continuous
 62
     7
370
    18
100
AcDbLine
 10
282.0
 20
5.0
 30
0.0
 11
282.0
 21
10.0
 31
0.0
  0
LINE
  5
91
330
1F
100
AcDbEntity
  8
0
  6
Continuous
 62
     7
370
    18
100
AcDbLine
 10
281.0
 20
5.0
 30
0.0
 11
281.0
 21
10.0
 31
0.0
  0
LINE
  5
92
330
1F
100
AcDbEntity
  8
0
  6
Continuous
 62
     7
370
    18
100
AcDbLine
 10
280.0
 20
5.0
 30
0.0
 11
280.0
 21
10.0
 31
0.0
  0
LINE
  5
93
330
1F
100
AcDbEntity
  8
0
  6
Continuous
 62
     7
370
    18
100
AcDbLine
 10
279.0
 20
5.0
 30
0.0
 11
279.0
 21
10.0
 31
0.0
  0
LINE
  5
94
330
1F
100
AcDbEntity
  8
0
  6
Continuous
 62
     7
370
    18
100
AcDbLine
 10
278.0
 20
5.0
 30
0.0
 11
278.0
 21
10.0
 31
0.0
  0
LINE
  5
95
330
1F
100
AcDbEntity
  8
0
  6
Continuous
 62
     7
370
    18
100
AcDbLine
 10
274.0
 20
5.0
 30
0.0
 11
274.0
 21
10.0
 31
0.0
  0
LINE
  5
96
330
1F
100
AcDbEntity
  8
0
  6
Continuous
 62
     7
370
    18
100
AcDbLine
 10
273.0
 20
5.0
 30
0.0
 11
273.0
 21
10.0
 31
0.0
  0
LINE
  5
97
330
1F
100
AcDbEntity
  8
0
  6
Continuous
 62
     7
370
    18
100
AcDbLine
 10
272.0
 20
5.0
 30
0.0
 11
272.0
 21
10.0
 31
0.0
  0
LINE
  5
98
330
1F
100
AcDbEntity
  8
0
  6
Continuous
 62
     7
370
    18
100
AcDbLine
 10
271.0
 20
5.0
 30
0.0
 11
271.0
 21
10.0
 31
0.0
  0
LINE
  5
99
330
1F
100
AcDbEntity
  8
0
  6
Continuous
 62
     7
370
    18
100
AcDbLine
 10
270.0
 20
5.0
 30
0.0
 11
270.0
 21
10.0
 31
0.0
  0
LINE
  5
9A
330
1F
100
AcDbEntity
  8
0
  6
Continuous
 62
     7
370
    18
100
AcDbLine
 10
269.0
 20
5.0
 30
0.0
 11
269.0
 21
10.0
 31
0.0
  0
LINE
  5
9B
330
1F
100
AcDbEntity
  8
0
  6
Continuous
 62
     7
370
    18
100
AcDbLine
 10
268.0
 20
5.0
 30
0.0
 11
268.0
 21
10.0
 31
0.0
  0
LINE
  5
9C
330
1F
100
AcDbEntity
  8
0
  6
Continuous
 62
     7
370
    18
100
AcDbLine
 10
264.0
 20
5.0
 30
0.0
 11
264.0
 21
10.0
 31
0.0
  0
LINE
  5
9D
330
1F
100
AcDbEntity
  8
0
  6
Continuous
 62
     7
370
    18
100
AcDbLine
 10
263.0
 20
5.0
 30
0.0
 11
263.0
 21
10.0
 31
0.0
  0
LINE
  5
9E
330
1F
100
AcDbEntity
  8
0
  6
Continuous
 62
     7
370
    18
100
AcDbLine
 10
262.0
 20
5.0
 30
0.0
 11
262.0
 21
10.0
 31
0.0
  0
LINE
  5
9F
330
1F
100
AcDbEntity
  8
0
  6
Continuous
 62
     7
370
    18
100
AcDbLine
 10
261.0
 20
5.0
 30
0.0
 11
261.0
 21
10.0
 31
0.0
  0
LINE
  5
A0
330
1F
100
AcDbEntity
  8
0
  6
Continuous
 62
     7
370
    18
100
AcDbLine
 10
260.0
 20
5.0
 30
0.0
 11
260.0
 21
10.0
 31
0.0
  0
LINE
  5
A1
330
1F
100
AcDbEntity
  8
0
  6
Continuous
 62
     7
370
    18
100
AcDbLine
 10
259.0
 20
5.0
 30
0.0
 11
259.0
 21
10.0
 31
0.0
  0
LINE
  5
A2
330
1F
100
AcDbEntity
  8
0
  6
Continuous
 62
     7
370
    18
100
AcDbLine
 10
258.0
 20
5.0
 30
0.0
 11
258.0
 21
10.0
 31
0.0
  0
LINE
  5
A3
330
1F
100
AcDbEntity
  8
0
  6
Continuous
 62
     7
370
    18
100
AcDbLine
 10
254.0
 20
5.0
 30
0.0
 11
254.0
 21
10.0
 31
0.0
  0
LINE
  5
A4
330
1F
100
AcDbEntity
  8
0
  6
Continuous
 62
     7
370
    18
100
AcDbLine
 10
253.0
 20
5.0
 30
0.0
 11
253.0
 21
10.0
 31
0.0
  0
LINE
  5
A5
330
1F
100
AcDbEntity
  8
0
  6
Continuous
 62
     7
370
    18
100
AcDbLine
 10
252.0
 20
5.0
 30
0.0
 11
252.0
 21
10.0
 31
0.0
  0
LINE
  5
A6
330
1F
100
AcDbEntity
  8
0
  6
Continuous
 62
     7
370
    18
100
AcDbLine
 10
251.0
 20
5.0
 30
0.0
 11
251.0
 21
10.0
 31
0.0
  0
LINE
  5
A7
330
1F
100
AcDbEntity
  8
0
  6
Continuous
 62
     7
370
    18
100
AcDbLine
 10
250.0
 20
5.0
 30
0.0
 11
250.0
 21
10.0
 31
0.0
  0
LINE
  5
A8
330
1F
100
AcDbEntity
  8
0
  6
Continuous
 62
     7
370
    18
100
AcDbLine
 10
249.0
 20
5.0
 30
0.0
 11
249.0
 21
10.0
 31
0.0
  0
LINE
  5
A9
330
1F
100
AcDbEntity
  8
0
  6
Continuous
 62
     7
370
    18
100
AcDbLine
 10
240.0
 20
5.0
 30
0.0
 11
240.0
 21
10.0
 31
0.0
  0
LINE
  5
AA
330
1F
100
AcDbEntity
  8
0
  6
Continuous
 62
     7
370
    18
100
AcDbLine
 10
239.0
 20
5.0
 30
0.0
 11
239.0
 21
10.0
 31
0.0
  0
LINE
  5
AB
330
1F
100
AcDbEntity
  8
0
  6
Continuous
 62
     7
370
    18
100
AcDbLine
 10
243.0
 20
5.0
 30
0.0
 11
243.0
 21
10.0
 31
0.0
  0
LINE
  5
AC
330
1F
100
AcDbEntity
  8
0
  6
Continuous
 62
     7
370
    18
100
AcDbLine
 10
242.0
 20
5.0
 30
0.0
 11
242.0
 21
10.0
 31
0.0
  0
LINE
  5
AD
330
1F
100
AcDbEntity
  8
0
  6
Continuous
 62
     7
370
    18
100
AcDbLine
 10
241.0
 20
5.0
 30
0.0
 11
241.0
 21
10.0
 31
0.0
  0
LINE
  5
AE
330
1F
100
AcDbEntity
  8
0
  6
Continuous
 62
     7
370
    18
100
AcDbLine
 10
314.0
 20
5.0
 30
0.0
 11
314.0
 21
10.0
 31
0.0
  0
LINE
  5
AF
330
1F
100
AcDbEntity
  8
0
  6
Continuous
 62
     7
370
    18
100
AcDbLine
 10
244.0
 20
5.0
 30
0.0
 11
244.0
 21
10.0
 31
0.0
  0
LINE
  5
B0
330
1F
100
AcDbEntity
  8
0
  6
Continuous
 62
     7
370
    18
100
AcDbLine
 10
307.0
 20
5.0
 30
0.0
 11
307.0
 21
10.0
 31
0.0
  0
LINE
  5
B1
330
1F
100
AcDbEntity
  8
0
  6
Continuous
 62
     7
370
    18
100
AcDbLine
 10
297.0
 20
5.0
 30
0.0
 11
297.0
 21
10.0
 31
0.0
  0
LINE
  5
B2
330
1F
100
AcDbEntity
  8
0
  6
Continuous
 62
     7
370
    18
100
AcDbLine
 10
287.0
 20
5.0
 30
0.0
 11
287.0
 21
10.0
 31
0.0
  0
LINE
  5
B3
330
1F
100
AcDbEntity
  8
0
  6
Continuous
 62
     7
370
    18
100
AcDbLine
 10
277.0
 20
5.0
 30
0.0
 11
277.0
 21
10.0
 31
0.0
  0
LINE
  5
B4
330
1F
100
AcDbEntity
  8
0
  6
Continuous
 62
     7
370
    18
100
AcDbLine
 10
267.0
 20
5.0
 30
0.0
 11
267.0
 21
10.0
 31
0.0
  0
LINE
  5
B5
330
1F
100
AcDbEntity
  8
0
  6
Continuous
 62
     7
370
    18
100
AcDbLine
 10
257.0
 20
5.0
 30
0.0
 11
257.0
 21
10.0
 31
0.0
  0
LINE
  5
B6
330
1F
100
AcDbEntity
  8
0
  6
Continuous
 62
     7
370
    18
100
AcDbLine
 10
247.0
 20
5.0
 30
0.0
 11
247.0
 21
10.0
 31
0.0
  0
LINE
  5
B7
330
1F
100
AcDbEntity
  8
0
  6
Continuous
 62
     7
370
    18
100
AcDbLine
 10
238.0
 20
5.0
 30
0.0
 11
238.0
 21
10.0
 31
0.0
  0
LINE
  5
B8
330
1F
100
AcDbEntity
  8
0
  6
Continuous
 62
     7
370
    18
100
AcDbLine
 10
237.0
 20
5.0
 30
0.0
 11
237.0
 21
10.0
 31
0.0
  0
LINE
  5
B9
330
1F
100
AcDbEntity
  8
0
  6
Continuous
 62
     7
370
    18
100
AcDbLine
 10
266.0
 20
5.0
 30
0.0
 11
266.0
 21
10.0
 31
0.0
  0
LINE
  5
BA
330
1F
100
AcDbEntity
  8
0
  6
Continuous
 62
     7
370
    18
100
AcDbLine
 10
256.0
 20
5.0
 30
0.0
 11
256.0
 21
10.0
 31
0.0
  0
LINE
  5
BB
330
1F
100
AcDbEntity
  8
0
  6
Continuous
 62
     7
370
    18
100
AcDbLine
 10
306.0
 20
5.0
 30
0.0
 11
306.0
 21
10.0
 31
0.0
  0
LINE
  5
BC
330
1F
100
AcDbEntity
  8
0
  6
Continuous
 62
     7
370
    18
100
AcDbLine
 10
296.0
 20
5.0
 30
0.0
 11
296.0
 21
10.0
 31
0.0
  0
LINE
  5
BD
330
1F
100
AcDbEntity
  8
0
  6
Continuous
 62
     7
370
    18
100
AcDbLine
 10
286.0
 20
5.0
 30
0.0
 11
286.0
 21
10.0
 31
0.0
  0
LINE
  5
BE
330
1F
100
AcDbEntity
  8
0
  6
Continuous
 62
     7
370
    18
100
AcDbLine
 10
276.0
 20
5.0
 30
0.0
 11
276.0
 21
10.0
 31
0.0
  0
LINE
  5
BF
330
1F
100
AcDbEntity
  8
0
  6
Continuous
 62
     7
370
    18
100
AcDbLine
 10
246.0
 20
5.0
 30
0.0
 11
246.0
 21
10.0
 31
0.0
  0
LINE
  5
C0
330
1F
100
AcDbEntity
  8
0
  6
Continuous
 62
     7
370
    18
100
AcDbLine
 10
236.0
 20
5.0
 30
0.0
 11
236.0
 21
10.0
 31
0.0
  0
LINE
  5
C1
330
1F
100
AcDbEntity
  8
0
  6
Continuous
 62
     7
370
    18
100
AcDbLine
 10
295.0
 20
5.0
 30
0.0
 11
295.0
 21
15.0
 31
0.0
  0
LINE
  5
C2
330
1F
100
AcDbEntity
  8
0
  6
Continuous
 62
     7
370
    18
100
AcDbLine
 10
265.0
 20
5.0
 30
0.0
 11
265.0
 21
15.0
 31
0.0
  0
LINE
  5
C3
330
1F
100
AcDbEntity
  8
0
  6
Continuous
 62
     7
370
    18
100
AcDbLine
 10
305.0
 20
5.0
 30
0.0
 11
305.0
 21
15.0
 31
0.0
  0
LINE
  5
C4
330
1F
100
AcDbEntity
  8
0
  6
Continuous
 62
     7
370
    18
100
AcDbLine
 10
285.0
 20
5.0
 30
0.0
 11
285.0
 21
15.0
 31
0.0
  0
LINE
  5
C5
330
1F
100
AcDbEntity
  8
0
  6
Continuous
 62
     7
370
    18
100
AcDbLine
 10
255.0
 20
5.0
 30
0.0
 11
255.0
 21
15.0
 31
0.0
  0
LINE
  5
C6
330
1F
100
AcDbEntity
  8
0
  6
Continuous
 62
     7
370
    18
100
AcDbLine
 10
245.0
 20
5.0
 30
0.0
 11
245.0
 21
15.0
 31
0.0
  0
LINE
  5
C7
330
1F
100
AcDbEntity
  8
0
  6
Continuous
 62
     7
370
    18
100
AcDbLine
 10
235.0
 20
5.0
 30
0.0
 11
235.0
 21
15.0
 31
0.0
  0
LINE
  5
C8
330
1F
100
AcDbEntity
  8
0
  6
Continuous
 62
     7
370
    18
100
AcDbLine
 10
315.0
 20
5.0
 30
0.0
 11
315.0
 21
15.0
 31
0.0
  0
LINE
  5
C9
330
1F
100
AcDbEntity
  8
0
  6
Continuous
 62
     7
370
    18
100
AcDbLine
 10
275.0
 20
5.0
 30
0.0
 11
275.0
 21
15.0
 31
0.0
  0
LINE
  5
CA
330
1F
100
AcDbEntity
  8
0
  6
Continuous
 62
     7
370
    18
100
AcDbLine
 10
0.099999964
 20
50.0
 30
0.0
 11
0.099999964
 21
0.099999964
 31
0.0
  0
LINE
  5
CB
330
1F
100
AcDbEntity
  8
0
  6
Continuous
 62
     7
370
    18
100
AcDbLine
 10
0.099999964
 20
0.099999964
 30
0.0
 11
50.0
 21
0.099999964
 31
0.0
  0
LINE
  5
CC
330
1F
100
AcDbEntity
  8
0
  6
Continuous
 62
     7
370
    18
100
AcDbLine
 10
0.099999964
 20
296.8999
 30
0.0
 11
0.099999964
 21
247.0
 31
0.0
  0
LINE
  5
CD
330
1F
100
AcDbEntity
  8
0
  6
Continuous
 62
     7
370
    18
100
AcDbLine
 10
0.099999964
 20
296.8999
 30
0.0
 11
50.0
 21
296.8999
 31
0.0
  0
LINE
  5
CE
330
1F
100
AcDbEntity
  8
0
  6
Continuous
 62
     7
370
    18
100
AcDbLine
 10
370.0
 20
296.8999
 30
0.0
 11
419.8999
 21
296.8999
 31
0.0
  0
LINE
  5
CF
330
1F
100
AcDbEntity
  8
0
  6
Continuous
 62
     7
370
    18
100
AcDbLine
 10
419.8999
 20
296.8999
 30
0.0
 11
419.8999
 21
247.0
 31
0.0
  0
LINE
  5
D0
330
1F
100
AcDbEntity
  8
0
  6
Continuous
 62
     7
370
    18
100
AcDbLine
 10
370.0
 20
0.099999964
 30
0.0
 11
419.8999
 21
0.099999964
 31
0.0
  0
LINE
  5
D1
330
1F
100
AcDbEntity
  8
0
  6
Continuous
 62
     7
370
    18
100
AcDbLine
 10
419.8999
 20
50.0
 30
0.0
 11
419.8999
 21
0.099999964
 31
0.0
  0
LINE
  5
D2
330
1F
100
AcDbEntity
  8
太線
100
AcDbLine
 10
360.7628548659
 20
45.0
 30
0.0
 11
360.7628548659
 21
35.0
 31
0.0
  0
LINE
  5
D3
330
1F
100
AcDbEntity
  8
太線
100
AcDbLine
 10
392.8097166694
 20
45.0
 30
0.0
 11
392.8097166694
 21
35.0
 31
0.0
  0
LINE
  5
D4
330
1F
100
AcDbEntity
  8
太線
100
AcDbLine
 10
383.8999
 20
45.0
 30
0.0
 11
383.8999
 21
35.0
 31
0.0
  0
LINE
  5
D5
330
1F
100
AcDbEntity
  8
0
  6
Continuous
 62
     7
370
    50
100
AcDbLine
 10
15.0
 20
282.0
 30
0.0
 11
15.0
 21
15.0
 31
0.0
  0
LINE
  5
D6
330
1F
100
AcDbEntity
  8
0
  6
HIDDEN
 62
     7
370
    35
100
AcDbLine
 10
290.46899
 20
55.0
 30
0.0
 11
404.8999
 21
55.0
 31
0.0
  0
LINE
  5
D7
330
1F
100
AcDbEntity
  8
0
  6
Continuous
 62
     7
370
    35
100
AcDbLine
 10
275.0
 20
45.0
 30
0.0
 11
404.8999
 21
45.0
 31
0.0
  0
LINE
  5
D8
330
1F
100
AcDbEntity
  8
0
  6
Continuous
 62
     7
370
    35
100
AcDbLine
 10
275.0
 20
25.0
 30
0.0
 11
404.8999
 21
25.0
 31
0.0
  0
LINE
  5
D9
330
1F
100
AcDbEntity
  8
0
  6
Continuous
 62
     7
370
    35
100
AcDbLine
 10
275.0
 20
65.0
 30
0.0
 11
404.8999
 21
65.0
 31
0.0
  0
LINE
  5
DA
330
1F
100
AcDbEntity
  8
0
  6
Continuous
 62
     7
370
    35
100
AcDbLine
 10
275.0
 20
35.0
 30
0.0
 11
404.8999
 21
35.0
 31
0.0
  0
LINE
  5
DB
330
1F
100
AcDbEntity
  8
0
  6
Continuous
 62
     7
370
    35
100
AcDbLine
 10
275.0
 20
15.0
 30
0.0
 11
275.0
 21
65.0
 31
0.0
  0
LINE
  5
DC
330
1F
100
AcDbEntity
  8
0
  6
Continuous
 62
     7
370
    50
100
AcDbLine
 10
15.0
 20
282.0
 30
0.0
 11
404.8999
 21
282.0
 31
0.0
  0
LINE
  5
DD
330
1F
100
AcDbEntity
  8
0
  6
Continuous
 62
     7
370
    50
100
AcDbLine
 10
404.8999
 20
282.0
 30
0.0
 11
404.8999
 21
15.0
 31
0.0
  0
LINE
  5
DE
330
1F
100
AcDbEntity
  8
0
  6
Continuous
 62
     7
370
    50
100
AcDbLine
 10
15.0
 20
15.0
 30
0.0
 11
404.8999
 21
15.0
 31
0.0
  0
MTEXT
  5
E0
330
1F
100
AcDbEntity
  8
0
  6
Continuous
 62
     7
370
     0
100
AcDbMText
 10
276.38037
 20
44.1004537399
 30
0.0
 40
2.7999992
 41
0.0
 46
0.0
 71
     1
 72
     1
  1
PART NO.
  7
SLDTEXTSTYLE0
 73
     1
 44
1.0
  0
MTEXT
  5
E2
330
1F
100
AcDbEntity
  8
0
  6
Continuous
 62
     7
370
     0
100
AcDbMText
 10
318.04688
 20
14.4453388795
 30
0.0
 40
5.0
 41
0.0
 46
0.0
 71
     1
 72
     1
  1
3
  7
SLDTEXTSTYLE1
 73
     1
 44
1.0
  0
MTEXT
  5
E3
330
1F
100
AcDbEntity
  8
0
  6
Continuous
 62
     7
370
     0
100
AcDbMText
 10
218.04688
 20
14.4453388795
 30
0.0
 40
5.0
 41
0.0
 46
0.0
 71
     1
 72
     1
  1
2
  7
SLDTEXTSTYLE1
 73
     1
 44
1.0
  0
MTEXT
  5
E4
330
1F
100
AcDbEntity
  8
0
  6
Continuous
 62
     7
370
     0
100
AcDbMText
 10
405.44678
 20
112.9453388795
 30
0.0
 40
5.0
 41
0.0
 46
0.0
 71
     1
 72
     1
  1
A
  7
SLDTEXTSTYLE1
 73
     1
 44
1.0
  0
MTEXT
  5
E5
330
1F
100
AcDbEntity
  8
0
  6
Continuous
 62
     7
370
     0
100
AcDbMText
 10
405.44678
 20
212.9453388795
 30
0.0
 40
5.0
 41
0.0
 46
0.0
 71
     1
 72
     1
  1
B
  7
SLDTEXTSTYLE1
 73
     1
 44
1.0
  0
MTEXT
  5
E6
330
1F
100
AcDbEntity
  8
0
  6
Continuous
 62
     7
370
     0
100
AcDbMText
 10
318.04688
 20
288.4453388795
 30
0.0
 40
5.0
 41
0.0
 46
0.0
 71
     1
 72
     1
  1
3
  7
SLDTEXTSTYLE1
 73
     1
 44
1.0
  0
MTEXT
  5
E7
330
1F
100
AcDbEntity
  8
0
  6
Continuous
 62
     7
370
     0
100
AcDbMText
 10
218.04688
 20
288.4453388795
 30
0.0
 40
5.0
 41
0.0
 46
0.0
 71
     1
 72
     1
  1
2
  7
SLDTEXTSTYLE1
 73
     1
 44
1.0
  0
MTEXT
  5
E9
330
1F
100
AcDbEntity
  8
0
  6
Continuous
 62
     7
370
     0
100
AcDbMText
 10
118.04688
 20
288.4453388795
 30
0.0
 40
5.0
 41
0.0
 46
0.0
 71
     1
 72
     1
  1
1
  7
SLDTEXTSTYLE2
 73
     1
 44
1.0
  0
MTEXT
  5
EA
330
1F
100
AcDbEntity
  8
0
  6
Continuous
 62
     7
370
     0
100
AcDbMText
 10
10.546875
 20
212.9453388795
 30
0.0
 40
5.0
 41
0.0
 46
0.0
 71
     1
 72
     1
  1
B
  7
SLDTEXTSTYLE1
 73
     1
 44
1.0
  0
MTEXT
  5
EB
330
1F
100
AcDbEntity
  8
0
  6
Continuous
 62
     7
370
     0
100
AcDbMText
 10
10.546875
 20
112.9453388795
 30
0.0
 40
5.0
 41
0.0
 46
0.0
 71
     1
 72
     1
  1
A
  7
SLDTEXTSTYLE1
 73
     1
 44
1.0
  0
MTEXT
  5
ED
330
1F
100
AcDbEntity
  8
0
  6
Continuous
 62
     7
370
     0
100
AcDbMText
 10
276.22412
 20
34.3027534143
 30
0.0
 40
3.199995
 41
0.0
 46
0.0
 71
     1
 72
     1
  1
DWG NO.
  7
SLDTEXTSTYLE3
 73
     1
 44
1.0
  0
MTEXT
  5
EF
330
1F
100
AcDbEntity
  8
0
  6
Continuous
 62
     7
370
     0
100
AcDbMText
 10
276.22412
 20
63.0649764143
 30
0.0
 40
3.199995
 41
0.0
 46
0.0
 71
     1
 72
     1
  1
NAME
  7
SLDTEXTSTYLE4
 73
     1
 44
1.0
  0
MTEXT
  5
F1
330
1F
100
AcDbEntity
  8
0
  6
Continuous
 62
     7
370
     0
100
AcDbMText
 10
384.7885377118
 20
44.550520557
 30
0.0
 40
3.199995
 41
0.0
 46
0.0
 71
     1
 72
     1
  1
SCL
  7
SLDTEXTSTYLE5
 73
     1
 44
1.0
  0
MTEXT
  5
F3
330
1F
100
AcDbEntity
  8
0
  6
Continuous
 62
     7
370
     0
100
AcDbMText
 10
394.6824034847
 20
44.550520557
 30
0.0
 40
3.199995
 41
0.0
 46
0.0
 71
     1
 72
     1
  1
UNIT
  7
SLDTEXTSTYLE6
 73
     1
 44
1.0
  0
MTEXT
  5
F5
330
1F
100
AcDbEntity
  8
0
  6
Continuous
 62
     7
370
     0
100
AcDbMText
 10
361.7371312641
 20
44.550520557
 30
0.0
 40
3.199995
 41
0.0
 46
0.0
 71
     1
 72
     1
  1
ISSUE DATE
  7
SLDTEXTSTYLE7
 73
     1
 44
1.0
  0
MTEXT
  5
F7
330
1F
100
AcDbEntity
  8
0
  6
Continuous
 62
     7
370
     0
100
AcDbMText
 10
284.98438
 20
22.9453388795
 30
0.0
 40
5.0
 41
0.0
 46
0.0
 71
     1
 72
     1
  1
YAZAKI Energy System Corporation
  7
SLDTEXTSTYLE8
 73
     1
 44
1.0
  0
MTEXT
  5
F9
330
1F
100
AcDbEntity
  8
0
  6
Continuous
 62
     7
370
     0
100
AcDbMText
 10
384.7885377118
 20
39.5269654684
 30
0.0
 40
3.175
 41
0.0
 46
0.0
 71
     1
 72
     1
  1
1:1
  7
SLDTEXTSTYLE9
 73
     1
 44
1.0
  0
MTEXT
  5
FA
330
1F
100
AcDbEntity
  8
0
  6
Continuous
 62
     7
370
     0
100
AcDbMText
 10
394.9834255673
 20
39.526965352
 30
0.0
 40
3.175
 41
0.0
 46
0.0
 71
     1
 72
     1
  1
ｍｍ
  7
SLDTEXTSTYLE1
 73
     1
 44
1.0
  0
MTEXT
  5
FB
330
1F
100
AcDbEntity
  8
0
  6
Continuous
 62
     7
370
     0
100
AcDbMText
 10
363.7035052591
 20
39.526965352
 30
0.0
 40
3.175
 41
0.0
 46
0.0
 71
     1
 72
     1
  1
2021/7/12
  7
SLDTEXTSTYLE1
 73
     1
 44
1.0
  0
MTEXT
  5
FC
330
1F
100
AcDbEntity
  8
0
  6
Continuous
 62
     7
370
     0
100
AcDbMText
 10
299.1532015809
 20
62.8931291987
 30
0.0
 40
4.7625
 41
0.0
 46
0.0
 71
     1
 72
     1
  1
EGカンタッチ制御_モールド部
  7
SLDTEXTSTYLE1
 73
     1
 44
1.0
  0
MTEXT
  5
FD
330
1F
100
AcDbEntity
  8
FORMAT
100
AcDbMText
 10
404.8999
 20
15.1562711291
 30
0.0
 40
4.0
 41
0.0
 46
0.0
 71
     1
 72
     1
  1
A3
  7
SLDTEXTSTYLE1
 73
     1
 44
1.0
  0
ARC
  5
FE
330
1F
100
AcDbEntity
  8
0
  6
Continuous
 62
     7
370
    25
100
AcDbCircle
 10
152.1076895596
 20
154.0998326681
 30
0.0
 40
10.07456220874503
100
AcDbArc
 50
17.4335937897
 51
162.5664062103
  0
SPLINE
  5
FF
330
1F
100
AcDbEntity
  8
0
  6
Continuous
 62
     7
370
    25
100
AcDbSpline
210
0.0
220
0.0
230
1.0
 70
     8
 71
     3
 72
    24
 73
    20
 74
     0
 42
0.000000001
 43
0.00000001
 40
0.0
 40
0.0
 40
0.0
 40
0.0
 40
0.1249999999999999
 40
0.1249999999999999
 40
0.2499999999999997
 40
0.2499999999999997
 40
0.3749999999999996
 40
0.3749999999999996
 40
0.4999999999999994
 40
0.4999999999999994
 40
0.6249999999999993
 40
0.6249999999999993
 40
0.7499999999999991
 40
0.7499999999999991
 40
0.874999999999999
 40
0.874999999999999
 40
0.9374999999999996
 40
0.9374999999999996
 40
1.0
 40
1.0
 40
1.0
 40
1.0
 10
138.2100795968626
 20
158.4695678175459
 30
0.0
 10
138.2244195079744
 20
158.4650421295573
 30
0.0
 10
138.2646177854076
 20
158.4527938878213
 30
0.0
 10
138.3941030377442
 20
158.4119398165176
 30
0.0
 10
138.484692568159
 20
158.3833579998063
 30
0.0
 10
138.7127355144613
 20
158.3114102666379
 30
0.0
 10
138.8487127293356
 20
158.2685100884223
 30
0.0
 10
139.1637927542009
 20
158.1691073246725
 30
0.0
 10
139.3450695939927
 20
158.1119189241491
 30
0.0
 10
139.7383328706268
 20
157.9878596493298
 30
0.0
 10
139.9509292059353
 20
157.9207963091501
 30
0.0
 10
140.4082406555075
 20
157.7765458035231
 30
0.0
 10
140.6533701695249
 20
157.6992280531022
 30
0.0
 10
141.1555490091095
 20
157.5408432823893
 30
0.0
 10
141.4150341432649
 20
157.4590078836829
 30
0.0
 10
141.8172384333111
 20
157.3321720484165
 30
0.0
 10
141.953140029216
 20
157.2893168354437
 30
0.0
 10
142.2255935198704
 20
157.2034048495204
 30
0.0
 10
142.3607739658713
 20
157.1607816871914
 30
0.0
 10
142.4959040762011
 20
157.1181738546971
 30
0.0
  0
ARC
  5
100
330
1F
100
AcDbEntity
  8
0
  6
Continuous
 62
     7
370
    25
100
AcDbCircle
 10
152.1076895596
 20
154.0998326681
 30
0.0
 40
14.56839591757168
100
AcDbArc
 50
17.4576031237
 51
162.54562707
  0
SPLINE
  5
101
330
1F
100
AcDbEntity
  8
0
  6
Continuous
 62
     7
370
    25
100
AcDbSpline
210
0.0
220
0.0
230
1.0
 70
     8
 71
     3
 72
    24
 73
    20
 74
     0
 42
0.000000001
 43
0.00000001
 40
0.0
 40
0.0
 40
0.0
 40
0.0
 40
0.1250000000000001
 40
0.1250000000000001
 40
0.2500000000000002
 40
0.2500000000000002
 40
0.3750000000000002
 40
0.3750000000000002
 40
0.5000000000000003
 40
0.5000000000000003
 40
0.6250000000000004
 40
0.6250000000000004
 40
0.7500000000000004
 40
0.7500000000000004
 40
0.8750000000000006
 40
0.8750000000000006
 40
0.9375000000000003
 40
0.9375000000000003
 40
1.0
 40
1.0
 40
1.0
 40
1.0
 10
166.0050523891547
 20
158.4703510846973
 30
0.0
 10
165.9907117790612
 20
158.465827613551
 30
0.0
 10
165.9507613333166
 20
158.4527938876637
 30
0.0
 10
165.821276080949
 20
158.4119398163504
 30
0.0
 10
165.7306865504548
 20
158.3833579996151
 30
0.0
 10
165.5026436041769
 20
158.3114102664547
 30
0.0
 10
165.3666663892876
 20
158.2685100882338
 30
0.0
 10
165.0515863641863
 20
158.16910732441
 30
0.0
 10
164.8703095243195
 20
158.1119189238632
 30
0.0
 10
164.477046248012
 20
157.9878596491475
 30
0.0
 10
164.2644499127549
 20
157.9207963089849
 30
0.0
 10
163.807138462914
 20
157.7765458032738
 30
0.0
 10
163.5620089492216
 20
157.6992280529568
 30
0.0
 10
163.0598301099781
 20
157.5408432823537
 30
0.0
 10
162.8003449758216
 20
157.4590078836452
 30
0.0
 10
162.3981406854465
 20
157.3321720482789
 30
0.0
 10
162.2622390897026
 20
157.2893168353571
 30
0.0
 10
161.9897855991817
 20
157.2034048494845
 30
0.0
 10
161.8546051532641
 20
157.1607816871647
 30
0.0
 10
161.7194750430205
 20
157.1181738546968
 30
0.0
  0
LINE
  5
102
330
1F
100
AcDbEntity
  8
0
  6
Continuous
 62
     7
370
    25
100
AcDbLine
 10
141.9153102042
 20
155.284206099
 30
0.0
 11
142.4959041478
 21
157.1181730322
 31
0.0
  0
LWPOLYLINE
  5
103
330
1F
100
AcDbEntity
  8
0
  6
Continuous
 62
     7
370
    25
100
AcDbPolyline
 90
       12
 70
   128
 43
0.0
 10
137.6310400964
 20
156.6405116535
 10
137.7026895361
 20
156.6178292922
 10
137.8544830085
 20
156.56977491
 10
138.0835315512
 20
156.4972630657
 10
138.3854793684
 20
156.4016730479
 10
138.7545811312
 20
156.2848237298
 10
139.1838146673
 20
156.1489381782
 10
139.6650141405
 20
155.9966008133
 10
140.1890246497
 20
155.8307108424
 10
140.7458773182
 20
155.6544226549
 10
141.3249783517
 20
155.4710927374
 10
141.9153102042
 20
155.284206099
  0
LINE
  5
104
330
1F
100
AcDbEntity
  8
0
  6
Continuous
 62
     7
370
    25
100
AcDbLine
 10
138.2100796627
 20
158.4695686541
 30
0.0
 11
137.6310400964
 21
156.6405116535
 31
0.0
  0
LINE
  5
105
330
1F
100
AcDbEntity
  8
0
  6
Continuous
 62
     7
370
    25
100
AcDbLine
 10
161.7194749714
 20
157.1181730322
 30
0.0
 11
162.300068915
 21
155.284206099
 31
0.0
  0
LINE
  5
106
330
1F
100
AcDbEntity
  8
0
  6
Continuous
 62
     7
370
    25
100
AcDbLine
 10
166.5843390228
 20
156.6405116535
 30
0.0
 11
166.0050526561
 21
158.470350965
 31
0.0
  0
LWPOLYLINE
  5
107
330
1F
100
AcDbEntity
  8
0
  6
Continuous
 62
     7
370
    25
100
AcDbPolyline
 90
       12
 70
   128
 43
0.0
 10
166.5843390228
 20
156.6405116535
 10
166.5126895832
 20
156.6178292922
 10
166.3608961107
 20
156.56977491
 10
166.131847568
 20
156.4972630657
 10
165.8298997508
 20
156.4016730479
 10
165.460797988
 20
156.2848237298
 10
165.0315644519
 20
156.1489381782
 10
164.5503649788
 20
155.9966008133
 10
164.0263544695
 20
155.8307108424
 10
163.469501801
 20
155.6544226549
 10
162.8904007675
 20
155.4710927374
 10
162.300068915
 20
155.284206099
  0
ELLIPSE
  5
108
330
1F
100
AcDbEntity
  8
0
  6
Continuous
 62
     7
370
    25
100
AcDbEllipse
 10
176.134064526
 20
159.6942938938
 30
0.0
 11
8.585244763549866
 21
11.72308599973368
 31
0.0
210
0.0
220
0.0
230
1.0
 40
0.9978968485
 41
2.510495574844349
 42
3.772689732335246
  0
ELLIPSE
  5
109
330
1F
100
AcDbEntity
  8
0
  6
Continuous
 62
     7
370
    25
100
AcDbEllipse
 10
176.134064526
 20
159.6942938938
 30
0.0
 11
5.932053888428754
 21
8.100174171428989
 31
0.0
210
0.0
220
0.0
230
1.0
 40
0.9960135404
 41
2.510495574844365
 42
3.772689732335262
  0
LINE
  5
10A
330
1F
100
AcDbEntity
  8
0
  6
Continuous
 62
     7
370
    25
100
AcDbLine
 10
176.1049386413
 20
149.6682275973
 30
0.0
 11
176.1049386413
 21
145.1743950091
 31
0.0
  0
LINE
  5
10B
330
1F
100
AcDbEntity
  8
0
  6
Continuous
 62
     7
370
    25
100
AcDbLine
 10
182.1109149905
 20
145.2524775594
 30
0.0
 11
202.1076903047
 21
142.4755006518
 31
0.0
  0
SPLINE
  5
10C
330
1F
100
AcDbEntity
  8
0
  6
Continuous
 62
     7
370
    25
100
AcDbSpline
210
0.0
220
0.0
230
1.0
 70
     8
 71
     3
 72
    22
 73
    18
 74
     0
 42
0.000000001
 43
0.00000001
 40
0.0
 40
0.0
 40
0.0
 40
0.0
 40
0.1250000000000001
 40
0.1250000000000001
 40
0.2500000000000003
 40
0.2500000000000003
 40
0.3750000000000004
 40
0.3750000000000004
 40
0.5000000000000003
 40
0.5000000000000003
 40
0.6250000000000002
 40
0.6250000000000002
 40
0.7500000000000001
 40
0.7500000000000001
 40
0.8750000000000001
 40
0.8750000000000001
 40
1.0
 40
1.0
 40
1.0
 40
1.0
 10
182.0770446802156
 20
149.6654379176606
 30
0.0
 10
182.0961419364186
 20
149.6476822222525
 30
0.0
 10
182.1149903750655
 20
149.6040724937515
 30
0.0
 10
182.1497925005027
 20
149.4672087237418
 30
0.0
 10
182.1659282500245
 20
149.3728757023501
 30
0.0
 10
182.1935479216892
 20
149.1364024206083
 30
0.0
 10
182.2049299106305
 20
148.9960496111015
 30
0.0
 10
182.2223345263641
 20
148.6720089848498
 30
0.0
 10
182.2283731801338
 20
148.4859791421765
 30
0.0
 10
182.2341116084353
 20
148.0818435765645
 30
0.0
 10
182.2339116743774
 20
147.8637676058161
 30
0.0
 10
182.2270534550079
 20
147.3956925141877
 30
0.0
 10
182.2202782234618
 20
147.144025881041
 30
0.0
 10
182.2003662227335
 20
146.6287627242866
 30
0.0
 10
182.1872368653081
 20
146.3629429465251
 30
0.0
 10
182.1541088083666
 20
145.8146997017323
 30
0.0
 10
182.1341559721345
 20
145.5337024553975
 30
0.0
 10
182.110915671521
 20
145.2524774774969
 30
0.0
  0
LINE
  5
10D
330
1F
100
AcDbEntity
  8
0
  6
Continuous
 62
     7
370
    25
100
AcDbLine
 10
202.1076903047
 20
146.883757501
 30
0.0
 11
182.0770446511
 21
149.6654382861
 31
0.0
  0
LINE
  5
10E
330
1F
100
AcDbEntity
  8
0
  6
Continuous
 62
     7
370
    25
100
AcDbLine
 10
202.1076903047
 20
142.4755006518
 30
0.0
 11
202.1076903047
 21
146.883757501
 31
0.0
  0
LINE
  5
10F
330
1F
100
AcDbEntity
  8
0
  6
Continuous
 62
     7
370
    25
100
AcDbLine
 10
176.1049386413
 20
145.1743950091
 30
0.0
 11
182.1076888891
 21
145.1743950091
 31
0.0
  0
LINE
  5
110
330
1F
100
AcDbEntity
  8
0
  6
Continuous
 62
     7
370
    25
100
AcDbLine
 10
182.0754986556
 20
149.6682275973
 30
0.0
 11
176.1049386413
 21
149.6682275973
 31
0.0
  0
ELLIPSE
  5
111
330
1F
100
AcDbEntity
  8
0
  6
Continuous
 62
     7
370
    25
100
AcDbEllipse
 10
212.1175901859
 20
145.1743948768
 30
0.0
 11
30.04207585847169
 21
-4.493967614155849
 31
0.0
210
0.0
220
0.0
230
1.0
 40
0.0077533659
 41
3.142167788257702
 42
3.152912522693517
  0
ELLIPSE
  5
112
330
1F
100
AcDbEntity
  8
0
  6
Continuous
 62
     7
370
    25
100
AcDbEllipse
 10
203.5362609882
 20
145.1743948768
 30
0.0
 11
21.42857142857144
 21
0.0
 31
0.0
210
0.0
220
0.0
230
1.0
 40
0.21
 41
3.124240093724118
 42
3.141592653589793
  0
ELLIPSE
  5
113
330
1F
100
AcDbEntity
  8
0
  6
Continuous
 62
     7
370
    25
100
AcDbEllipse
 10
203.5362609882
 20
137.0252704593
 30
0.0
 11
21.42857142857144
 21
0.0
 31
0.0
210
0.0
220
0.0
230
1.0
 40
0.21
 41
3.141592653589786
 42
3.158945213455535
  0
SPLINE
  5
114
330
1F
100
AcDbEntity
  8
0
  6
Continuous
 62
     7
370
    25
100
AcDbSpline
210
0.0
220
0.0
230
1.0
 70
     8
 71
     3
 72
    22
 73
    18
 74
     0
 42
0.000000001
 43
0.00000001
 40
0.0
 40
0.0
 40
0.0
 40
0.0
 40
0.1249999999999999
 40
0.1249999999999999
 40
0.2499999999999997
 40
0.2499999999999997
 40
0.3749999999999996
 40
0.3749999999999996
 40
0.4999999999999997
 40
0.4999999999999997
 40
0.6249999999999998
 40
0.6249999999999998
 40
0.7499999999999998
 40
0.7499999999999998
 40
0.8749999999999999
 40
0.8749999999999999
 40
1.0
 40
1.0
 40
1.0
 40
1.0
 10
182.0770446802156
 20
132.5342274185127
 30
0.0
 10
182.0961419364186
 20
132.5519831139209
 30
0.0
 10
182.1149903750655
 20
132.5955928424218
 30
0.0
 10
182.1497925005027
 20
132.7324566124315
 30
0.0
 10
182.1659282500245
 20
132.8267896338233
 30
0.0
 10
182.1935479216892
 20
133.063262915565
 30
0.0
 10
182.2049299106305
 20
133.2036157250718
 30
0.0
 10
182.2223345263641
 20
133.5276563513235
 30
0.0
 10
182.2283731801338
 20
133.7136861939968
 30
0.0
 10
182.2341116084353
 20
134.1178217596089
 30
0.0
 10
182.2339116743774
 20
134.3358977303572
 30
0.0
 10
182.2270534550079
 20
134.8039728219856
 30
0.0
 10
182.2202782234618
 20
135.0556394551323
 30
0.0
 10
182.2003662227335
 20
135.5709026118867
 30
0.0
 10
182.1872368653081
 20
135.8367223896482
 30
0.0
 10
182.1541088083666
 20
136.384965634441
 30
0.0
 10
182.1341559721345
 20
136.6659628807758
 30
0.0
 10
182.110915671521
 20
136.9471878586764
 30
0.0
  0
ELLIPSE
  5
115
330
1F
100
AcDbEntity
  8
0
  6
Continuous
 62
     7
370
    25
100
AcDbEllipse
 10
212.1175901859
 20
137.0252704593
 30
0.0
 11
30.04207585847169
 21
4.493967614155878
 31
0.0
210
0.0
220
0.0
230
1.0
 40
0.0077533659
 41
3.130272784487755
 42
3.141017518923456
  0
LINE
  5
116
330
1F
100
AcDbEntity
  8
0
  6
Continuous
 62
     7
370
    25
100
AcDbLine
 10
122.1398804636
 20
132.5314377389
 30
0.0
 11
182.0754986556
 21
132.5314377389
 31
0.0
  0
ELLIPSE
  5
117
330
1F
100
AcDbEntity
  8
0
  6
Continuous
 62
     7
370
    25
100
AcDbEllipse
 10
92.0977889333
 20
137.0252704593
 30
0.0
 11
30.04207585847169
 21
-4.493967614155849
 31
0.0
210
0.0
220
0.0
230
1.0
 40
0.0077533659
 41
0.0005751346662362
 42
0.0113198691019432
  0
SPLINE
  5
118
330
1F
100
AcDbEntity
  8
0
  6
Continuous
 62
     7
370
    25
100
AcDbSpline
210
0.0
220
0.0
230
1.0
 70
     8
 71
     3
 72
    22
 73
    18
 74
     0
 42
0.000000001
 43
0.00000001
 40
0.0
 40
0.0
 40
0.0
 40
0.0
 40
0.1250000000000001
 40
0.1250000000000001
 40
0.2500000000000003
 40
0.2500000000000003
 40
0.3750000000000004
 40
0.3750000000000004
 40
0.5000000000000003
 40
0.5000000000000003
 40
0.6250000000000002
 40
0.6250000000000002
 40
0.7500000000000001
 40
0.7500000000000001
 40
0.8750000000000001
 40
0.8750000000000001
 40
1.0
 40
1.0
 40
1.0
 40
1.0
 10
122.1383344390058
 20
132.5342274185127
 30
0.0
 10
122.1192371828028
 20
132.5519831139209
 30
0.0
 10
122.1003887441559
 20
132.5955928424218
 30
0.0
 10
122.0655866187187
 20
132.7324566124315
 30
0.0
 10
122.049450869197
 20
132.8267896338233
 30
0.0
 10
122.0218311975322
 20
133.063262915565
 30
0.0
 10
122.0104492085909
 20
133.2036157250718
 30
0.0
 10
121.9930445928573
 20
133.5276563513235
 30
0.0
 10
121.9870059390876
 20
133.7136861939968
 30
0.0
 10
121.9812675107862
 20
134.1178217596088
 30
0.0
 10
121.981467444844
 20
134.3358977303572
 30
0.0
 10
121.9883256642135
 20
134.8039728219856
 30
0.0
 10
121.9951008957596
 20
135.0556394551323
 30
0.0
 10
122.0150128964879
 20
135.5709026118867
 30
0.0
 10
122.0281422539134
 20
135.8367223896482
 30
0.0
 10
122.0612703108548
 20
136.384965634441
 30
0.0
 10
122.0812231470869
 20
136.6659628807758
 30
0.0
 10
122.1044634477004
 20
136.9471878586764
 30
0.0
  0
ELLIPSE
  5
119
330
1F
100
AcDbEntity
  8
0
  6
Continuous
 62
     7
370
    25
100
AcDbEllipse
 10
100.679118131
 20
137.0252704593
 30
0.0
 11
21.42857142857142
 21
0.0
 31
0.0
210
0.0
220
0.0
230
1.0
 40
0.21
 41
6.265832747313978
 42
6.283185307179586
  0
LINE
  5
11A
330
1F
100
AcDbEntity
  8
0
  6
Continuous
 62
     7
370
    25
100
AcDbLine
 10
182.1076888891
 20
137.0252703271
 30
0.0
 11
122.1076902302
 21
137.0252703271
 31
0.0
  0
LINE
  5
11B
330
1F
100
AcDbEntity
  8
0
  6
Continuous
 62
     7
370
    25
100
AcDbLine
 10
202.1076903047
 20
139.7241646844
 30
0.0
 11
182.1109149905
 21
136.9471877768
 31
0.0
  0
LINE
  5
11C
330
1F
100
AcDbEntity
  8
0
  6
Continuous
 62
     7
370
    25
100
AcDbLine
 10
202.1076903047
 20
135.3159078351
 30
0.0
 11
202.1076903047
 21
139.7241646844
 31
0.0
  0
LINE
  5
11D
330
1F
100
AcDbEntity
  8
0
  6
Continuous
 62
     7
370
    25
100
AcDbLine
 10
182.0770446511
 20
132.53422705
 30
0.0
 11
202.1076903047
 21
135.3159078351
 31
0.0
  0
LINE
  5
11E
330
1F
100
AcDbEntity
  8
0
  6
Continuous
 62
     7
370
    25
100
AcDbLine
 10
122.1044641288
 20
136.9471877768
 30
0.0
 11
102.1076888146
 21
139.7241646844
 31
0.0
  0
LINE
  5
11F
330
1F
100
AcDbEntity
  8
0
  6
Continuous
 62
     7
370
    25
100
AcDbLine
 10
102.1076888146
 20
139.7241646844
 30
0.0
 11
102.1076888146
 21
142.4755006518
 31
0.0
  0
LINE
  5
120
330
1F
100
AcDbEntity
  8
0
  6
Continuous
 62
     7
370
    25
100
AcDbLine
 10
102.1076888146
 20
142.4755006518
 30
0.0
 11
122.1044641288
 21
145.2524775594
 31
0.0
  0
ELLIPSE
  5
121
330
1F
100
AcDbEntity
  8
0
  6
Continuous
 62
     7
370
    25
100
AcDbEllipse
 10
100.679118131
 20
145.1743948768
 30
0.0
 11
21.42857142857142
 21
0.0
 31
0.0
210
0.0
220
0.0
230
1.0
 40
0.21
 41
0.0
 42
0.0173525598656744
  0
LINE
  5
122
330
1F
100
AcDbEntity
  8
0
  6
Continuous
 62
     7
370
    25
100
AcDbLine
 10
122.1076902302
 20
137.0252703271
 30
0.0
 11
122.1076902302
 21
145.1743950091
 31
0.0
  0
LINE
  5
123
330
1F
100
AcDbEntity
  8
0
  6
Continuous
 62
     7
370
    25
100
AcDbLine
 10
102.1076888146
 20
135.3159078351
 30
0.0
 11
122.1383344682
 21
132.53422705
 31
0.0
  0
LINE
  5
124
330
1F
100
AcDbEntity
  8
0
  6
Continuous
 62
     7
370
    25
100
AcDbLine
 10
102.1076888146
 20
139.7241646844
 30
0.0
 11
102.1076888146
 21
135.3159078351
 31
0.0
  0
LINE
  5
125
330
1F
100
AcDbEntity
  8
0
  6
Continuous
 62
     7
370
    25
100
AcDbLine
 10
182.1076888891
 20
137.0252703271
 30
0.0
 11
182.1076888891
 21
145.1743950091
 31
0.0
  0
LINE
  5
126
330
1F
100
AcDbEntity
  8
0
  6
Continuous
 62
     7
370
    25
100
AcDbLine
 10
202.1076903047
 20
139.7241646844
 30
0.0
 11
202.1076903047
 21
142.4755006518
 31
0.0
  0
LINE
  5
127
330
1F
100
AcDbEntity
  8
0
  6
Continuous
 62
     7
370
    25
100
AcDbLine
 10
122.1076902302
 20
145.1743950091
 30
0.0
 11
128.1104404779
 21
145.1743950091
 31
0.0
  0
ELLIPSE
  5
128
330
1F
100
AcDbEntity
  8
0
  6
Continuous
 62
     7
370
    25
100
AcDbEllipse
 10
128.0813145932
 20
159.6942938938
 30
0.0
 11
-8.585244763549911
 21
11.72308599973368
 31
0.0
210
0.0
220
0.0
230
1.0
 40
0.9978968485
 41
2.510495574844349
 42
3.772689732335249
  0
CIRCLE
  5
129
330
1F
100
AcDbEntity
  8
0
  6
Continuous
 62
     7
370
    25
100
AcDbCircle
 10
152.1076895596
 20
158.5998326681
 30
0.0
 40
5.480399840127944
  0
LINE
  5
12A
330
1F
100
AcDbEntity
  8
0
  6
Continuous
 62
     7
370
    25
100
AcDbLine
 10
122.1383344682
 20
149.6654382861
 30
0.0
 11
102.1076888146
 21
146.883757501
 31
0.0
  0
SPLINE
  5
12B
330
1F
100
AcDbEntity
  8
0
  6
Continuous
 62
     7
370
    25
100
AcDbSpline
210
0.0
220
0.0
230
1.0
 70
     8
 71
     3
 72
    22
 73
    18
 74
     0
 42
0.000000001
 43
0.00000001
 40
0.0
 40
0.0
 40
0.0
 40
0.0
 40
0.1249999999999999
 40
0.1249999999999999
 40
0.2499999999999998
 40
0.2499999999999998
 40
0.3749999999999998
 40
0.3749999999999998
 40
0.4999999999999997
 40
0.4999999999999997
 40
0.6249999999999996
 40
0.6249999999999996
 40
0.7499999999999997
 40
0.7499999999999997
 40
0.8749999999999999
 40
0.8749999999999999
 40
1.0
 40
1.0
 40
1.0
 40
1.0
 10
122.1044634477004
 20
145.2524774774969
 30
0.0
 10
122.0812251659547
 20
145.5336780255906
 30
0.0
 10
122.0615875532778
 20
145.8102322304426
 30
0.0
 10
122.0286153924141
 20
146.3543488014926
 30
0.0
 10
122.0152081705169
 20
146.6242439218354
 30
0.0
 10
121.9951168805104
 20
147.14308353177
 30
0.0
 10
121.9884720341589
 20
147.3895363044629
 30
0.0
 10
121.9815118510238
 20
147.8570078249003
 30
0.0
 10
121.9812613298245
 20
148.0800028214723
 30
0.0
 10
121.9869608157747
 20
148.4841941793325
 30
0.0
 10
121.9928301154718
 20
148.6666808637916
 30
0.0
 10
122.0101887628444
 20
148.9924996473114
 30
0.0
 10
122.0217986225032
 20
149.135814473042
 30
0.0
 10
122.0491864354002
 20
149.3709173973017
 30
0.0
 10
122.065051266764
 20
149.4646147645654
 30
0.0
 10
122.1001030679478
 20
149.6034263515774
 30
0.0
 10
122.1192380985325
 20
149.6476830736532
 30
0.0
 10
122.1383344390059
 20
149.6654379176606
 30
0.0
  0
LINE
  5
12C
330
1F
100
AcDbEntity
  8
0
  6
Continuous
 62
     7
370
    25
100
AcDbLine
 10
102.1076888146
 20
146.883757501
 30
0.0
 11
102.1076888146
 21
142.4755006518
 31
0.0
  0
LINE
  5
12D
330
1F
100
AcDbEntity
  8
0
  6
Continuous
 62
     7
370
    25
100
AcDbLine
 10
128.1104404779
 20
149.6682275973
 30
0.0
 11
122.1398804636
 21
149.6682275973
 31
0.0
  0
LINE
  5
12E
330
1F
100
AcDbEntity
  8
0
  6
Continuous
 62
     7
370
    25
100
AcDbLine
 10
128.1104404779
 20
149.6682275973
 30
0.0
 11
128.1104404779
 21
145.1743950091
 31
0.0
  0
ELLIPSE
  5
12F
330
1F
100
AcDbEntity
  8
0
  6
Continuous
 62
     7
370
    25
100
AcDbEllipse
 10
92.0977889333
 20
145.1743948768
 30
0.0
 11
30.04207585847169
 21
4.493967614155849
 31
0.0
210
0.0
220
0.0
230
1.0
 40
0.0077533659
 41
6.271865438079423
 42
6.282610172515239
  0
CIRCLE
  5
130
330
1F
100
AcDbEntity
  8
0
  6
Continuous
 62
     7
370
    25
100
AcDbCircle
 10
152.1076895596
 20
158.5998326681
 30
0.0
 40
4.980799360767037
  0
ELLIPSE
  5
131
330
1F
100
AcDbEntity
  8
0
  6
Continuous
 62
     7
370
    25
100
AcDbEllipse
 10
128.0813145932
 20
159.6942938938
 30
0.0
 11
-5.932053888428783
 21
8.100174171428989
 31
0.0
210
0.0
220
0.0
230
1.0
 40
0.9960135404
 41
2.510495574844332
 42
3.772689732335232
  0
CIRCLE
  5
132
330
1F
100
AcDbEntity
  8
0
  6
Continuous
 62
     7
370
    25
100
AcDbCircle
 10
152.1076895596
 20
158.5998326681
 30
0.0
 40
4.500000000000227
  0
LINE
  5
133
330
1F
100
AcDbEntity
  8
0
  6
Continuous
 62
     7
370
    25
100
AcDbLine
 10
166.9004187287
 20
157.0721172682
 30
0.0
 11
166.5843390228
 21
156.6405116535
 31
0.0
  0
ELLIPSE
  5
134
330
1F
100
AcDbEntity
  8
0
  6
Continuous
 62
     7
370
    25
100
AcDbEllipse
 10
176.4411055987
 20
160.1135561281
 30
0.0
 11
5.920858457620627
 21
8.084886896368063
 31
0.0
210
0.0
220
0.0
230
1.0
 40
0.9978968485
 41
2.510495574844351
 42
3.77268973233525
  0
LINE
  5
135
330
1F
100
AcDbEntity
  8
0
  6
Continuous
 62
     7
370
    25
100
AcDbLine
 10
176.1049386413
 20
149.6682275973
 30
0.0
 11
176.4210183473
 21
150.0998322807
 31
0.0
  0
LINE
  5
136
330
1F
100
AcDbEntity
  8
0
  6
Continuous
 62
     7
370
    25
100
AcDbLine
 10
127.7943607719
 20
150.0998322807
 30
0.0
 11
128.1104404779
 21
149.6682275973
 31
0.0
  0
ELLIPSE
  5
137
330
1F
100
AcDbEntity
  8
0
  6
Continuous
 62
     7
370
    25
100
AcDbEllipse
 10
127.7742735205
 20
160.1135561281
 30
0.0
 11
-5.920858457620612
 21
8.084886896368065
 31
0.0
210
0.0
220
0.0
230
1.0
 40
0.9978968485
 41
2.510495574844352
 42
3.77268973233525
  0
LINE
  5
138
330
1F
100
AcDbEntity
  8
0
  6
Continuous
 62
     7
370
    25
100
AcDbLine
 10
137.6310400964
 20
156.6405116535
 30
0.0
 11
137.3149603905
 21
157.0721172682
 31
0.0
  0
LINE
  5
139
330
1F
100
AcDbEntity
  8
0
  6
Continuous
 62
     7
370
    25
100
AcDbLine
 10
102.1076888146
 20
147.0998327202
 30
0.0
 11
122.1076902302
 21
150.0998322807
 31
0.0
  0
LINE
  5
13A
330
1F
100
AcDbEntity
  8
0
  6
Continuous
 62
     7
370
    25
100
AcDbLine
 10
122.1076902302
 20
150.0998322807
 30
0.0
 11
122.1398804636
 21
149.6682275973
 31
0.0
  0
LINE
  5
13B
330
1F
100
AcDbEntity
  8
0
  6
Continuous
 62
     7
370
    25
100
AcDbLine
 10
102.1076888146
 20
147.0998327202
 30
0.0
 11
102.1076888146
 21
146.883757501
 31
0.0
  0
LINE
  5
13C
330
1F
100
AcDbEntity
  8
0
  6
Continuous
 62
     7
370
    25
100
AcDbLine
 10
182.1076888891
 20
150.0998322807
 30
0.0
 11
182.0754986556
 21
149.6682275973
 31
0.0
  0
LINE
  5
13D
330
1F
100
AcDbEntity
  8
0
  6
Continuous
 62
     7
370
    25
100
AcDbLine
 10
182.1076888891
 20
150.0998322807
 30
0.0
 11
202.1076903047
 21
147.0998327202
 31
0.0
  0
LINE
  5
13E
330
1F
100
AcDbEntity
  8
0
  6
Continuous
 62
     7
370
    25
100
AcDbLine
 10
202.1076903047
 20
147.0998327202
 30
0.0
 11
202.1076903047
 21
146.883757501
 31
0.0
  0
LINE
  5
13F
330
1F
100
AcDbEntity
  8
0
  6
Continuous
 62
     7
370
    25
100
AcDbLine
 10
202.1076903047
 20
135.0998326159
 30
0.0
 11
182.1076888891
 21
132.0998330555
 31
0.0
  0
LINE
  5
140
330
1F
100
AcDbEntity
  8
0
  6
Continuous
 62
     7
370
    25
100
AcDbLine
 10
182.1076888891
 20
132.0998330555
 30
0.0
 11
182.0754986556
 21
132.5314377389
 31
0.0
  0
LINE
  5
141
330
1F
100
AcDbEntity
  8
0
  6
Continuous
 62
     7
370
    25
100
AcDbLine
 10
202.1076903047
 20
135.0998326159
 30
0.0
 11
202.1076903047
 21
135.3159078351
 31
0.0
  0
LINE
  5
142
330
1F
100
AcDbEntity
  8
0
  6
Continuous
 62
     7
370
    25
100
AcDbLine
 10
122.1076902302
 20
132.0998330555
 30
0.0
 11
122.1398804636
 21
132.5314377389
 31
0.0
  0
LINE
  5
143
330
1F
100
AcDbEntity
  8
0
  6
Continuous
 62
     7
370
    25
100
AcDbLine
 10
122.1076902302
 20
132.0998330555
 30
0.0
 11
102.1076888146
 21
135.0998326159
 31
0.0
  0
LINE
  5
144
330
1F
100
AcDbEntity
  8
0
  6
Continuous
 62
     7
370
    25
100
AcDbLine
 10
102.1076888146
 20
135.0998326159
 30
0.0
 11
102.1076888146
 21
135.3159078351
 31
0.0
  0
LINE
  5
145
330
1F
100
AcDbEntity
  8
0
  6
Continuous
 62
     7
370
    25
100
AcDbLine
 10
137.3149603905
 20
157.0721172682
 30
0.0
 11
137.7986017914
 21
158.5998327426
 31
0.0
  0
LINE
  5
146
330
1F
100
AcDbEntity
  8
0
  6
Continuous
 62
     7
370
    25
100
AcDbLine
 10
137.7986017914
 20
158.5998327426
 30
0.0
 11
138.2100796627
 21
158.4695686541
 31
0.0
  0
ARC
  5
147
330
1F
100
AcDbEntity
  8
0
  6
Continuous
 62
     7
370
    25
100
AcDbCircle
 10
152.1076895596
 20
154.0998326681
 30
0.0
 40
15.00000000000002
100
AcDbArc
 50
17.4576031237
 51
162.5423968763
  0
LINE
  5
148
330
1F
100
AcDbEntity
  8
0
  6
Continuous
 62
     7
370
    25
100
AcDbLine
 10
166.4167773278
 20
158.5998327426
 30
0.0
 11
166.0050526561
 21
158.470350965
 31
0.0
  0
LINE
  5
149
330
1F
100
AcDbEntity
  8
0
  6
Continuous
 62
     7
370
    25
100
AcDbLine
 10
176.4210183473
 20
150.0998322807
 30
0.0
 11
182.1076888891
 21
150.0998322807
 31
0.0
  0
LINE
  5
14A
330
1F
100
AcDbEntity
  8
0
  6
Continuous
 62
     7
370
    25
100
AcDbLine
 10
182.1076888891
 20
132.0998330555
 30
0.0
 11
122.1076902302
 21
132.0998330555
 31
0.0
  0
LINE
  5
14B
330
1F
100
AcDbEntity
  8
0
  6
Continuous
 62
     7
370
    25
100
AcDbLine
 10
166.4167773278
 20
158.5998327426
 30
0.0
 11
166.9004187287
 21
157.0721172682
 31
0.0
  0
LINE
  5
14C
330
1F
100
AcDbEntity
  8
0
  6
Continuous
 62
     7
370
    25
100
AcDbLine
 10
122.1076902302
 20
150.0998322807
 30
0.0
 11
127.7943607719
 21
150.0998322807
 31
0.0
  0
POINT
  5
14D
330
1F
100
AcDbEntity
  8
FORMAT
100
AcDbPoint
 10
152.1076895596
 20
169.0998326681
 30
0.0
  0
DIMENSION
  5
14E
330
1F
100
AcDbEntity
  8
FORMAT
100
AcDbDimension
280
     0
  2
_D
 10
89.5473489817
 20
132.0998326681
 30
0.0
 11
89.5473489817
 21
151.0225507577
 31
0.0
 70
   160
  1
<>
 71
     2
 42
-1.0
 73
     0
 74
     0
 75
     0
  3
SLDDIMSTYLE0
100
AcDbAlignedDimension
 13
152.1076895596
 23
169.0998326681
 33
0.0
 14
122.1076895596
 24
132.0998326681
 34
0.0
 50
90.0
100
AcDbRotatedDimension
  0
DIMENSION
  5
160
330
1F
100
AcDbEntity
  8
FORMAT
100
AcDbDimension
280
     0
  2
_D_1
 10
97.8343853167
 20
132.0998326681
 30
0.0
 11
97.8343853167
 21
112.0998326681
 31
0.0
 70
   160
  1
<>
 71
     2
 42
-1.0
 73
     0
 74
     0
 75
     0
  3
SLDDIMSTYLE1
100
AcDbAlignedDimension
 13
122.1076895596
 23
150.0998326681
 33
0.0
 14
122.1076895596
 24
132.0998326681
 34
0.0
 50
90.0
100
AcDbRotatedDimension
  0
DIMENSION
  5
16D
330
1F
100
AcDbEntity
  8
FORMAT
100
AcDbDimension
280
     0
  2
_D_2
 10
202.1076895596
 20
124.0477071301
 30
0.0
 11
153.7779811809
 21
124.0477071301
 31
0.0
 70
   160
  1
<>
 71
     2
 42
-1.0
 73
     0
 74
     0
 75
     0
  3
SLDDIMSTYLE0
100
AcDbAlignedDimension
 13
102.1076895596
 23
142.4755006578
 33
0.0
 14
202.1076895596
 24
142.4755006578
 34
0.0
100
AcDbRotatedDimension
  0
DIMENSION
  5
177
330
1F
100
AcDbEntity
  8
FORMAT
100
AcDbDimension
280
     0
  2
_D_3
 10
148.3132519851
 20
156.1806916029
 30
0.0
 11
198.2086577376
 21
185.2162390556
 31
0.0
 70
   163
  1
<>
 71
     1
 42
-1.0
 73
     0
 74
     0
 75
     0
  3
SLDDIMSTYLE2
100
AcDbDiametricDimension
 15
155.9021271341
 25
161.0189737333
 35
0.0
 40
0.0
  0
INSERT
  5
190
330
1F
100
AcDbEntity
  8
FORMAT
100
AcDbBlockReference
  2
SW_CENTERMARKSYMBOL_0
 10
152.1076895596
 20
158.5998326681
 30
0.0
  0
LINE
  5
191
330
1F
100
AcDbEntity
  8
0
  6
Continuous
 62
     7
370
    25
100
AcDbLine
 10
291.4275598398
 20
168.6682269863
 30
0.0
 11
283.1920480041
 21
169.0998335324
 31
0.0
  0
LINE
  5
192
330
1F
100
AcDbEntity
  8
0
  6
Continuous
 62
     7
370
    25
100
AcDbLine
 10
283.1920480041
 20
169.0998335324
 30
0.0
 11
274.9565366341
 21
168.6682269863
 31
0.0
  0
ARC
  5
193
330
1F
100
AcDbEntity
  8
0
  6
Continuous
 62
     7
370
    25
100
AcDbCircle
 10
291.1920481904
 20
164.1743948768
 30
0.0
 40
4.5
100
AcDbArc
 50
0.0
 51
87.0
  0
ARC
  5
194
330
1F
100
AcDbEntity
  8
0
  6
Continuous
 62
     7
370
    25
100
AcDbCircle
 10
275.1920481904
 20
164.1743948768
 30
0.0
 40
4.5
100
AcDbArc
 50
93.0
 51
180.0
  0
LINE
  5
195
330
1F
100
AcDbEntity
  8
0
  6
Continuous
 62
     7
370
    25
100
AcDbLine
 10
296.1880481837
 20
142.7022086644
 30
0.0
 11
296.1880481837
 21
147.6998326323
 31
0.0
  0
LINE
  5
196
330
1F
100
AcDbEntity
  8
0
  6
Continuous
 62
     7
370
    25
100
AcDbLine
 10
296.1880481837
 20
142.7022086644
 30
0.0
 11
295.6920481904
 21
142.7022086644
 31
0.0
  0
LINE
  5
197
330
1F
100
AcDbEntity
  8
0
  6
Continuous
 62
     7
370
    25
100
AcDbLine
 10
296.1880481837
 20
147.6998326323
 30
0.0
 11
295.6920481904
 21
147.6998326323
 31
0.0
  0
LINE
  5
198
330
1F
100
AcDbEntity
  8
0
  6
Continuous
 62
     7
370
    25
100
AcDbLine
 10
295.6913707069
 20
145.2524775594
 30
0.0
 11
291.4920483401
 21
142.4755006518
 31
0.0
  0
ARC
  5
199
330
1F
100
AcDbEntity
  8
0
  6
Continuous
 62
     7
370
    25
100
AcDbCircle
 10
291.1920481904
 20
145.1743948768
 30
0.0
 40
4.5
100
AcDbArc
 50
0.0
 51
0.9942284441
  0
LINE
  5
19A
330
1F
100
AcDbEntity
  8
0
  6
Continuous
 62
     7
370
    25
100
AcDbLine
 10
295.6920481904
 20
137.0252703271
 30
0.0
 11
295.6920481904
 21
145.1743950091
 31
0.0
  0
ARC
  5
19B
330
1F
100
AcDbEntity
  8
0
  6
Continuous
 62
     7
370
    25
100
AcDbCircle
 10
291.1920481904
 20
137.0252704593
 30
0.0
 40
4.5
100
AcDbArc
 50
359.0057715559
 51
0.0
  0
LINE
  5
19C
330
1F
100
AcDbEntity
  8
0
  6
Continuous
 62
     7
370
    25
100
AcDbLine
 10
291.4920483401
 20
139.7241646844
 30
0.0
 11
295.6913707069
 21
136.9471877768
 31
0.0
  0
LINE
  5
19D
330
1F
100
AcDbEntity
  8
0
  6
Continuous
 62
     7
370
    25
100
AcDbLine
 10
291.4920483401
 20
139.7241646844
 30
0.0
 11
291.4920483401
 21
142.4755006518
 31
0.0
  0
LINE
  5
19E
330
1F
100
AcDbEntity
  8
0
  6
Continuous
 62
     7
370
    25
100
AcDbLine
 10
287.2693949996
 20
146.883757501
 30
0.0
 11
291.4758302888
 21
149.6654382861
 31
0.0
  0
SPLINE
  5
19F
330
1F
100
AcDbEntity
  8
0
  6
Continuous
 62
     7
370
    25
100
AcDbSpline
210
0.0
220
0.0
230
1.0
 70
     8
 71
     3
 72
    22
 73
    18
 74
     0
 42
0.000000001
 43
0.00000001
 40
0.0
 40
0.0
 40
0.0
 40
0.0
 40
0.1250000000000002
 40
0.1250000000000002
 40
0.2500000000000004
 40
0.2500000000000004
 40
0.3750000000000007
 40
0.3750000000000007
 40
0.5000000000000006
 40
0.5000000000000006
 40
0.6250000000000004
 40
0.6250000000000004
 40
0.7500000000000003
 40
0.7500000000000003
 40
0.8750000000000002
 40
0.8750000000000002
 40
1.0
 40
1.0
 40
1.0
 40
1.0
 10
291.4758305108697
 20
149.6654379176606
 30
0.0
 10
291.7568261421698
 20
149.6476822222525
 30
0.0
 10
292.0317399355849
 20
149.6040724937515
 30
0.0
 10
292.5700450309363
 20
149.4672087237418
 30
0.0
 10
292.835629833595
 20
149.3728757023501
 30
0.0
 10
293.3440468156621
 20
149.1364024206083
 30
0.0
 10
293.5842181464105
 20
148.9960496111015
 30
0.0
 10
294.0370820316366
 20
148.6720089848498
 30
0.0
 10
294.2517138204335
 20
148.4859791421765
 30
0.0
 10
294.6380438625527
 20
148.0818435765645
 30
0.0
 10
294.8107865583335
 20
147.8637676058161
 30
0.0
 10
295.1155453367255
 20
147.3956925141877
 30
0.0
 10
295.2476813542199
 20
147.144025881041
 30
0.0
 10
295.4596494858
 20
146.6287627242866
 30
0.0
 10
295.5412702622918
 20
146.3629429465251
 30
0.0
 10
295.6550504171311
 20
145.8146997017323
 30
0.0
 10
295.6864902437503
 20
145.5337024553975
 30
0.0
 10
295.6913707068791
 20
145.2524774774969
 30
0.0
  0
ELLIPSE
  5
1A0
330
1F
100
AcDbEntity
  8
0
  6
Continuous
 62
     7
370
    25
100
AcDbEllipse
 10
286.8938936693
 20
142.3470687069
 30
0.0
 11
-3.87064295250849
 21
-2.55962377607355
 31
0.0
210
0.0
220
0.0
230
1.0
 40
0.9697386154
 41
2.571371912082875
 42
4.060413691908453
  0
LINE
  5
1A1
330
1F
100
AcDbEntity
  8
0
  6
Continuous
 62
     7
370
    25
100
AcDbLine
 10
291.4758302888
 20
132.53422705
 30
0.0
 11
287.2693949996
 21
135.3159078351
 31
0.0
  0
ELLIPSE
  5
1A2
330
1F
100
AcDbEntity
  8
0
  6
Continuous
 62
     7
370
    25
100
AcDbEllipse
 10
286.8938936693
 20
139.8525966292
 30
0.0
 11
3.87064295250849
 21
-2.559623776073523
 31
0.0
210
0.0
220
0.0
230
1.0
 40
0.9697386154
 41
5.364364268860944
 42
6.853406048686497
  0
SPLINE
  5
1A3
330
1F
100
AcDbEntity
  8
0
  6
Continuous
 62
     7
370
    25
100
AcDbSpline
210
0.0
220
0.0
230
1.0
 70
     8
 71
     3
 72
    22
 73
    18
 74
     0
 42
0.000000001
 43
0.00000001
 40
0.0
 40
0.0
 40
0.0
 40
0.0
 40
0.1249999999999998
 40
0.1249999999999998
 40
0.2499999999999996
 40
0.2499999999999996
 40
0.3749999999999994
 40
0.3749999999999994
 40
0.4999999999999994
 40
0.4999999999999994
 40
0.6249999999999996
 40
0.6249999999999996
 40
0.7499999999999997
 40
0.7499999999999997
 40
0.8749999999999999
 40
0.8749999999999999
 40
1.0
 40
1.0
 40
1.0
 40
1.0
 10
291.4758305108697
 20
132.5342274185127
 30
0.0
 10
291.7568261421698
 20
132.5519831139209
 30
0.0
 10
292.0317399355849
 20
132.5955928424218
 30
0.0
 10
292.5700450309363
 20
132.7324566124315
 30
0.0
 10
292.835629833595
 20
132.8267896338233
 30
0.0
 10
293.3440468156621
 20
133.063262915565
 30
0.0
 10
293.5842181464105
 20
133.2036157250718
 30
0.0
 10
294.0370820316366
 20
133.5276563513235
 30
0.0
 10
294.2517138204335
 20
133.7136861939968
 30
0.0
 10
294.6380438625527
 20
134.1178217596089
 30
0.0
 10
294.8107865583335
 20
134.3358977303572
 30
0.0
 10
295.1155453367255
 20
134.8039728219856
 30
0.0
 10
295.2476813542199
 20
135.0556394551323
 30
0.0
 10
295.4596494858
 20
135.5709026118867
 30
0.0
 10
295.5412702622918
 20
135.8367223896482
 30
0.0
 10
295.6550504171311
 20
136.384965634441
 30
0.0
 10
295.6864902437503
 20
136.6659628807758
 30
0.0
 10
295.6913707068791
 20
136.9471878586764
 30
0.0
  0
LINE
  5
1A4
330
1F
100
AcDbEntity
  8
0
  6
Continuous
 62
     7
370
    25
100
AcDbLine
 10
283.1920480041
 20
135.0998326159
 30
0.0
 11
279.11470194
 21
135.3159078351
 31
0.0
  0
ELLIPSE
  5
1A5
330
1F
100
AcDbEntity
  8
0
  6
Continuous
 62
     7
370
    25
100
AcDbEllipse
 10
279.4902027115
 20
139.8525966292
 30
0.0
 11
-3.87064295250849
 21
-2.559623776073523
 31
0.0
210
0.0
220
0.0
230
1.0
 40
0.9697386154
 41
5.71296456567269
 42
7.202006345498241
  0
LINE
  5
1A6
330
1F
100
AcDbEntity
  8
0
  6
Continuous
 62
     7
370
    25
100
AcDbLine
 10
274.8920481338
 20
139.7241646844
 30
0.0
 11
274.8920481338
 21
142.4755006518
 31
0.0
  0
ELLIPSE
  5
1A7
330
1F
100
AcDbEntity
  8
0
  6
Continuous
 62
     7
370
    25
100
AcDbEllipse
 10
279.4902027115
 20
142.3470687069
 30
0.0
 11
3.87064295250849
 21
-2.55962377607355
 31
0.0
210
0.0
220
0.0
230
1.0
 40
0.9697386154
 41
2.222771615271147
 42
3.711813395096725
  0
LINE
  5
1A8
330
1F
100
AcDbEntity
  8
0
  6
Continuous
 62
     7
370
    25
100
AcDbLine
 10
283.1920480041
 20
147.0998327202
 30
0.0
 11
279.11470194
 21
146.883757501
 31
0.0
  0
LINE
  5
1A9
330
1F
100
AcDbEntity
  8
0
  6
Continuous
 62
     7
370
    25
100
AcDbLine
 10
283.1920480041
 20
147.0998327202
 30
0.0
 11
287.2693949996
 21
146.883757501
 31
0.0
  0
LINE
  5
1AA
330
1F
100
AcDbEntity
  8
0
  6
Continuous
 62
     7
370
    25
100
AcDbLine
 10
283.1920480041
 20
135.0998326159
 30
0.0
 11
287.2693949996
 21
135.3159078351
 31
0.0
  0
LINE
  5
1AB
330
1F
100
AcDbEntity
  8
0
  6
Continuous
 62
     7
370
    25
100
AcDbLine
 10
283.1920480041
 20
132.0998330555
 30
0.0
 11
291.4275598398
 21
132.5314377389
 31
0.0
  0
LINE
  5
1AC
330
1F
100
AcDbEntity
  8
0
  6
Continuous
 62
     7
370
    25
100
AcDbLine
 10
283.1920480041
 20
135.0998326159
 30
0.0
 11
283.1920480041
 21
132.0998330555
 31
0.0
  0
ARC
  5
1AD
330
1F
100
AcDbEntity
  8
0
  6
Continuous
 62
     7
370
    25
100
AcDbCircle
 10
291.1920481904
 20
137.0252704593
 30
0.0
 40
4.499999999999994
100
AcDbArc
 50
273.0
 51
273.6156279352
  0
LINE
  5
1AE
330
1F
100
AcDbEntity
  8
0
  6
Continuous
 62
     7
370
    25
100
AcDbLine
 10
283.1920480041
 20
150.0998322807
 30
0.0
 11
283.1920480041
 21
147.0998327202
 31
0.0
  0
LINE
  5
1AF
330
1F
100
AcDbEntity
  8
0
  6
Continuous
 62
     7
370
    25
100
AcDbLine
 10
283.1920480041
 20
150.0998322807
 30
0.0
 11
291.4275598398
 21
149.6682275973
 31
0.0
  0
ARC
  5
1B0
330
1F
100
AcDbEntity
  8
0
  6
Continuous
 62
     7
370
    25
100
AcDbCircle
 10
291.1920481904
 20
145.1743948768
 30
0.0
 40
4.500000000000013
100
AcDbArc
 50
86.3843720648
 51
87.0
  0
LINE
  5
1B1
330
1F
100
AcDbEntity
  8
0
  6
Continuous
 62
     7
370
    25
100
AcDbLine
 10
274.9082661851
 20
132.53422705
 30
0.0
 11
279.11470194
 21
135.3159078351
 31
0.0
  0
LINE
  5
1B2
330
1F
100
AcDbEntity
  8
0
  6
Continuous
 62
     7
370
    25
100
AcDbLine
 10
283.1920480041
 20
132.0998330555
 30
0.0
 11
274.9565366341
 21
132.5314377389
 31
0.0
  0
ARC
  5
1B3
330
1F
100
AcDbEntity
  8
0
  6
Continuous
 62
     7
370
    25
100
AcDbCircle
 10
275.1920481904
 20
137.0252704593
 30
0.0
 40
4.49999999999999
100
AcDbArc
 50
266.3843720648
 51
267.0
  0
ARC
  5
1B4
330
1F
100
AcDbEntity
  8
0
  6
Continuous
 62
     7
370
    25
100
AcDbCircle
 10
275.1920481904
 20
145.1743948768
 30
0.0
 40
4.500000000000011
100
AcDbArc
 50
93.0
 51
93.6156279352
  0
LINE
  5
1B5
330
1F
100
AcDbEntity
  8
0
  6
Continuous
 62
     7
370
    25
100
AcDbLine
 10
283.1920480041
 20
150.0998322807
 30
0.0
 11
274.9565366341
 21
149.6682275973
 31
0.0
  0
LINE
  5
1B6
330
1F
100
AcDbEntity
  8
0
  6
Continuous
 62
     7
370
    25
100
AcDbLine
 10
279.11470194
 20
146.883757501
 30
0.0
 11
274.9082661851
 21
149.6654382861
 31
0.0
  0
LINE
  5
1B7
330
1F
100
AcDbEntity
  8
0
  6
Continuous
 62
     7
370
    25
100
AcDbLine
 10
270.6927258207
 20
145.2524775594
 30
0.0
 11
274.8920481338
 21
142.4755006518
 31
0.0
  0
SPLINE
  5
1B8
330
1F
100
AcDbEntity
  8
0
  6
Continuous
 62
     7
370
    25
100
AcDbSpline
210
0.0
220
0.0
230
1.0
 70
     8
 71
     3
 72
    22
 73
    18
 74
     0
 42
0.000000001
 43
0.00000001
 40
0.0
 40
0.0
 40
0.0
 40
0.0
 40
0.1250000000000001
 40
0.1250000000000001
 40
0.2500000000000003
 40
0.2500000000000003
 40
0.3750000000000004
 40
0.3750000000000004
 40
0.5000000000000003
 40
0.5000000000000003
 40
0.6250000000000002
 40
0.6250000000000002
 40
0.7500000000000001
 40
0.7500000000000001
 40
0.8750000000000001
 40
0.8750000000000001
 40
1.0
 40
1.0
 40
1.0
 40
1.0
 10
274.9082658698908
 20
149.6654379176606
 30
0.0
 10
274.6272702385907
 20
149.6476822222525
 30
0.0
 10
274.3523564451756
 20
149.6040724937515
 30
0.0
 10
273.8140513498242
 20
149.4672087237418
 30
0.0
 10
273.5484665471654
 20
149.3728757023501
 30
0.0
 10
273.0400495650983
 20
149.1364024206083
 30
0.0
 10
272.7998782343499
 20
148.9960496111015
 30
0.0
 10
272.3470143491239
 20
148.6720089848498
 30
0.0
 10
272.132382560327
 20
148.4859791421765
 30
0.0
 10
271.7460525182078
 20
148.0818435765645
 30
0.0
 10
271.5733098224269
 20
147.8637676058161
 30
0.0
 10
271.268551044035
 20
147.3956925141877
 30
0.0
 10
271.1364150265406
 20
147.144025881041
 30
0.0
 10
270.9244468949605
 20
146.6287627242866
 30
0.0
 10
270.8428261184688
 20
146.3629429465251
 30
0.0
 10
270.7290459636294
 20
145.8146997017323
 30
0.0
 10
270.6976061370102
 20
145.5337024553975
 30
0.0
 10
270.6927256738814
 20
145.2524774774969
 30
0.0
  0
LINE
  5
1B9
330
1F
100
AcDbEntity
  8
0
  6
Continuous
 62
     7
370
    25
100
AcDbLine
 10
274.8920481338
 20
139.7241646844
 30
0.0
 11
270.6927258207
 21
136.9471877768
 31
0.0
  0
SPLINE
  5
1BA
330
1F
100
AcDbEntity
  8
0
  6
Continuous
 62
     7
370
    25
100
AcDbSpline
210
0.0
220
0.0
230
1.0
 70
     8
 71
     3
 72
    22
 73
    18
 74
     0
 42
0.000000001
 43
0.00000001
 40
0.0
 40
0.0
 40
0.0
 40
0.0
 40
0.1249999999999999
 40
0.1249999999999999
 40
0.2499999999999997
 40
0.2499999999999997
 40
0.3749999999999996
 40
0.3749999999999996
 40
0.4999999999999997
 40
0.4999999999999997
 40
0.6249999999999998
 40
0.6249999999999998
 40
0.7499999999999998
 40
0.7499999999999998
 40
0.8749999999999999
 40
0.8749999999999999
 40
1.0
 40
1.0
 40
1.0
 40
1.0
 10
274.9082658698908
 20
132.5342274185127
 30
0.0
 10
274.6272702385907
 20
132.5519831139209
 30
0.0
 10
274.3523564451756
 20
132.5955928424218
 30
0.0
 10
273.8140513498242
 20
132.7324566124315
 30
0.0
 10
273.5484665471654
 20
132.8267896338233
 30
0.0
 10
273.0400495650983
 20
133.063262915565
 30
0.0
 10
272.7998782343499
 20
133.2036157250718
 30
0.0
 10
272.3470143491239
 20
133.5276563513235
 30
0.0
 10
272.132382560327
 20
133.7136861939968
 30
0.0
 10
271.7460525182078
 20
134.1178217596089
 30
0.0
 10
271.5733098224269
 20
134.3358977303572
 30
0.0
 10
271.268551044035
 20
134.8039728219856
 30
0.0
 10
271.1364150265406
 20
135.0556394551323
 30
0.0
 10
270.9244468949605
 20
135.5709026118867
 30
0.0
 10
270.8428261184688
 20
135.8367223896482
 30
0.0
 10
270.7290459636294
 20
136.384965634441
 30
0.0
 10
270.6976061370102
 20
136.6659628807758
 30
0.0
 10
270.6927256738814
 20
136.9471878586764
 30
0.0
  0
ARC
  5
1BB
330
1F
100
AcDbEntity
  8
0
  6
Continuous
 62
     7
370
    25
100
AcDbCircle
 10
275.1920481904
 20
137.0252704593
 30
0.0
 40
4.5
100
AcDbArc
 50
180.0
 51
180.9942284441
  0
LINE
  5
1BC
330
1F
100
AcDbEntity
  8
0
  6
Continuous
 62
     7
370
    25
100
AcDbLine
 10
270.6920478179
 20
137.0252703271
 30
0.0
 11
270.6920478179
 21
145.1743950091
 31
0.0
  0
ARC
  5
1BD
330
1F
100
AcDbEntity
  8
0
  6
Continuous
 62
     7
370
    25
100
AcDbCircle
 10
275.1920481904
 20
145.1743948768
 30
0.0
 40
4.5
100
AcDbArc
 50
179.0057715559
 51
180.0
  0
LINE
  5
1BE
330
1F
100
AcDbEntity
  8
0
  6
Continuous
 62
     7
370
    25
100
AcDbLine
 10
283.1920480041
 20
150.0998322807
 30
0.0
 11
283.1920480041
 21
157.0721172682
 31
0.0
  0
LINE
  5
1BF
330
1F
100
AcDbEntity
  8
0
  6
Continuous
 62
     7
370
    25
100
AcDbLine
 10
283.1920480041
 20
157.0721172682
 30
0.0
 11
291.4275598398
 21
156.6405116535
 31
0.0
  0
ELLIPSE
  5
1C0
330
1F
100
AcDbEntity
  8
0
  6
Continuous
 62
     7
370
    25
100
AcDbEllipse
 10
291.1920481904
 20
159.6942938938
 30
0.0
 11
-0.2357357869607881
 21
10.02606935422435
 31
0.0
210
0.0
220
0.0
230
1.0
 40
0.017135754
 41
3.140290101759935
 42
4.402484259250969
  0
ELLIPSE
  5
1C1
330
1F
100
AcDbEntity
  8
0
  6
Continuous
 62
     7
370
    25
100
AcDbEllipse
 10
275.1920481904
 20
159.6942938938
 30
0.0
 11
0.235735786960845
 21
10.02606935422435
 31
0.0
210
0.0
220
0.0
230
1.0
 40
0.017135754
 41
1.880701047928825
 42
3.14289520542114
  0
LINE
  5
1C2
330
1F
100
AcDbEntity
  8
0
  6
Continuous
 62
     7
370
    25
100
AcDbLine
 10
283.1920480041
 20
157.0721172682
 30
0.0
 11
274.9565366341
 21
156.6405116535
 31
0.0
  0
LWPOLYLINE
  5
1C3
330
1F
100
AcDbEntity
  8
0
  6
Continuous
 62
     7
370
    25
100
AcDbPolyline
 90
       12
 70
   128
 43
0.0
 10
291.4275598398
 20
156.6405116535
 10
292.0436788502
 20
156.6178292922
 10
292.6435956417
 20
156.56977491
 10
293.2158970891
 20
156.4972630657
 10
293.7496954494
 20
156.4016730479
 10
294.2348352319
 20
156.2848237298
 10
294.6620869136
 20
156.1489381782
 10
295.0233221438
 20
155.9966008133
 10
295.3116684314
 20
155.8307108424
 10
295.5216401262
 20
155.6544226549
 10
295.6492425821
 20
155.4710927374
 10
295.6920481904
 20
155.284206099
  0
LINE
  5
1C4
330
1F
100
AcDbEntity
  8
0
  6
Continuous
 62
     7
370
    25
100
AcDbLine
 10
295.6920481904
 20
155.284206099
 30
0.0
 11
295.6920481904
 21
145.199419181
 31
0.0
  0
LWPOLYLINE
  5
1C5
330
1F
100
AcDbEntity
  8
0
  6
Continuous
 62
     7
370
    25
100
AcDbPolyline
 90
       12
 70
   128
 43
0.0
 10
274.9565366341
 20
156.6405116535
 10
274.3404183222
 20
156.6178292922
 10
273.7405012979
 20
156.56977491
 10
273.1681998505
 20
156.4972630657
 10
272.634401141
 20
156.4016730479
 10
272.1492603107
 20
156.2848237298
 10
271.722008629
 20
156.1489381782
 10
271.3607746793
 20
155.9966008133
 10
271.072427897
 20
155.8307108424
 10
270.8624556346
 20
155.6544226549
 10
270.734853266
 20
155.4710927374
 10
270.6920478179
 20
155.284206099
  0
LINE
  5
1C6
330
1F
100
AcDbEntity
  8
0
  6
Continuous
 62
     7
370
    25
100
AcDbLine
 10
270.6920478179
 20
155.284206099
 30
0.0
 11
270.6920478179
 21
145.199419181
 31
0.0
  0
LINE
  5
1C7
330
1F
100
AcDbEntity
  8
0
  6
Continuous
 62
     7
370
    25
100
AcDbLine
 10
283.1920480041
 20
158.5998327426
 30
0.0
 11
283.1920480041
 21
157.0721172682
 31
0.0
  0
LINE
  5
1C8
330
1F
100
AcDbEntity
  8
0
  6
Continuous
 62
     7
370
    25
100
AcDbLine
 10
283.1920480041
 20
158.5998327426
 30
0.0
 11
291.4275598398
 21
158.470350965
 31
0.0
  0
LINE
  5
1C9
330
1F
100
AcDbEntity
  8
0
  6
Continuous
 62
     7
370
    25
100
AcDbLine
 10
291.4275598398
 20
156.6405116535
 30
0.0
 11
291.4275598398
 21
158.470350965
 31
0.0
  0
LINE
  5
1CA
330
1F
100
AcDbEntity
  8
0
  6
Continuous
 62
     7
370
    25
100
AcDbLine
 10
274.9565366341
 20
156.6405116535
 30
0.0
 11
274.9565366341
 21
158.470350965
 31
0.0
  0
LINE
  5
1CB
330
1F
100
AcDbEntity
  8
0
  6
Continuous
 62
     7
370
    25
100
AcDbLine
 10
283.1920480041
 20
158.5998327426
 30
0.0
 11
274.9565366341
 21
158.470350965
 31
0.0
  0
SPLINE
  5
1CC
330
1F
100
AcDbEntity
  8
0
  6
Continuous
 62
     7
370
    25
100
AcDbSpline
210
0.0
220
0.0
230
1.0
 70
     8
 71
     3
 72
    24
 73
    20
 74
     0
 42
0.000000001
 43
0.00000001
 40
0.0
 40
0.0
 40
0.0
 40
0.0
 40
0.125
 40
0.125
 40
0.25
 40
0.25
 40
0.375
 40
0.375
 40
0.5
 40
0.5
 40
0.625
 40
0.625
 40
0.75
 40
0.75
 40
0.875
 40
0.875
 40
0.9375
 40
0.9375
 40
1.0
 40
1.0
 40
1.0
 40
1.0
 10
291.4275599934735
 20
158.4703510846973
 30
0.0
 10
291.7144851481464
 20
158.465827613551
 30
0.0
 10
291.9953465128819
 20
158.4527938876632
 30
0.0
 10
292.5454436107416
 20
158.4119398163499
 30
0.0
 10
292.8171730533072
 20
158.3833579996151
 30
0.0
 10
293.3357272634455
 20
158.3114102664547
 30
0.0
 10
293.5806213558062
 20
158.2685100882349
 30
0.0
 10
294.0421587747396
 20
158.169107324411
 30
0.0
 10
294.2605205423509
 20
158.1119189238632
 30
0.0
 10
294.651853766438
 20
157.9878596491474
 30
0.0
 10
294.8266077592331
 20
157.9207963089849
 30
0.0
 10
295.1340436631696
 20
157.7765458032738
 30
0.0
 10
295.2660901753666
 20
157.6992280529559
 30
0.0
 10
295.4763415990572
 20
157.5408432823524
 30
0.0
 10
295.556397064403
 20
157.4590078836438
 30
0.0
 10
295.6377331941966
 20
157.3321720482766
 30
0.0
 10
295.6582216471824
 20
157.2893168353573
 30
0.0
 10
295.685405024527
 20
157.2034048494844
 30
0.0
 10
295.6920481903803
 20
157.1607816871647
 30
0.0
 10
295.6920481903803
 20
157.1181738546968
 30
0.0
  0
LINE
  5
1CD
330
1F
100
AcDbEntity
  8
0
  6
Continuous
 62
     7
370
    25
100
AcDbLine
 10
295.6920481904
 20
157.1181730322
 30
0.0
 11
295.6920481904
 21
155.284206099
 31
0.0
  0
SPLINE
  5
1CE
330
1F
100
AcDbEntity
  8
0
  6
Continuous
 62
     7
370
    25
100
AcDbSpline
210
0.0
220
0.0
230
1.0
 70
     8
 71
     3
 72
    24
 73
    20
 74
     0
 42
0.000000001
 43
0.00000001
 40
0.0
 40
0.0
 40
0.0
 40
0.0
 40
0.1250000000000001
 40
0.1250000000000001
 40
0.2500000000000002
 40
0.2500000000000002
 40
0.3750000000000002
 40
0.3750000000000002
 40
0.5000000000000003
 40
0.5000000000000003
 40
0.6250000000000004
 40
0.6250000000000004
 40
0.7500000000000004
 40
0.7500000000000004
 40
0.8750000000000006
 40
0.8750000000000006
 40
0.9375000000000003
 40
0.9375000000000003
 40
1.0
 40
1.0
 40
1.0
 40
1.0
 10
274.956536387287
 20
158.4703510846973
 30
0.0
 10
274.6696112326141
 20
158.465827613551
 30
0.0
 10
274.3887498678786
 20
158.4527938876637
 30
0.0
 10
273.8386527700188
 20
158.4119398163504
 30
0.0
 10
273.5669233274533
 20
158.3833579996151
 30
0.0
 10
273.048369117315
 20
158.3114102664547
 30
0.0
 10
272.8034750249543
 20
158.2685100882338
 30
0.0
 10
272.3419376060209
 20
158.16910732441
 30
0.0
 10
272.1235758384096
 20
158.1119189238632
 30
0.0
 10
271.7322426143225
 20
157.9878596491475
 30
0.0
 10
271.5574886215274
 20
157.9207963089849
 30
0.0
 10
271.2500527175908
 20
157.7765458032738
 30
0.0
 10
271.1180062053938
 20
157.6992280529568
 30
0.0
 10
270.9077547817033
 20
157.5408432823537
 30
0.0
 10
270.8276993163576
 20
157.4590078836452
 30
0.0
 10
270.7463631865639
 20
157.3321720482789
 30
0.0
 10
270.7258747335781
 20
157.2893168353571
 30
0.0
 10
270.6986913562335
 20
157.2034048494845
 30
0.0
 10
270.6920481903802
 20
157.1607816871647
 30
0.0
 10
270.6920481903802
 20
157.1181738546968
 30
0.0
  0
LINE
  5
1CF
330
1F
100
AcDbEntity
  8
0
  6
Continuous
 62
     7
370
    25
100
AcDbLine
 10
270.6920478179
 20
157.1181730322
 30
0.0
 11
270.6920478179
 21
155.284206099
 31
0.0
  0
LINE
  5
1D0
330
1F
100
AcDbEntity
  8
0
  6
Continuous
 62
     7
370
    25
100
AcDbLine
 10
283.1920480041
 20
169.0998335324
 30
0.0
 11
283.1920480041
 21
158.5998327426
 31
0.0
  0
LINE
  5
1D1
330
1F
100
AcDbEntity
  8
0
  6
Continuous
 62
     7
370
    25
100
AcDbLine
 10
295.6920481904
 20
164.1743943981
 30
0.0
 11
295.6920481904
 21
157.1181730322
 31
0.0
  0
LINE
  5
1D2
330
1F
100
AcDbEntity
  8
0
  6
Continuous
 62
     7
370
    25
100
AcDbLine
 10
270.6920478179
 20
164.1743943981
 30
0.0
 11
270.6920478179
 21
157.1181730322
 31
0.0
  0
LINE
  5
1D3
330
1F
100
AcDbEntity
  8
0
  6
Continuous
 62
     8
370
    25
100
AcDbLine
 10
291.4275598398
 20
158.470350965
 30
0.0
 11
291.4275598398
 21
168.6682269863
 31
0.0
  0
LINE
  5
1D4
330
1F
100
AcDbEntity
  8
0
  6
Continuous
 62
     8
370
    25
100
AcDbLine
 10
274.9565366341
 20
158.470350965
 30
0.0
 11
274.9565366341
 21
168.6682269863
 31
0.0
  0
DIMENSION
  5
1D5
330
1F
100
AcDbEntity
  8
FORMAT
100
AcDbDimension
280
     0
  2
_D_4
 10
270.6920481904
 20
124.1459117768
 30
0.0
 11
316.1880481904
 21
124.1459117768
 31
0.0
 70
   160
  1
<>
 71
     2
 42
-1.0
 73
     0
 74
     0
 75
     0
  3
SLDDIMSTYLE1
100
AcDbAlignedDimension
 13
295.6920481904
 23
145.1743948768
 33
0.0
 14
270.6920481904
 24
145.1743948768
 34
0.0
 50
0.0
100
AcDbRotatedDimension
  0
LINE
  5
1E1
330
1F
100
AcDbEntity
  8
0
  6
Continuous
 62
     7
370
    25
100
AcDbLine
 10
147.1124417448
 20
229.9589829839
 30
0.0
 11
147.1124417448
 21
229.4629829906
 31
0.0
  0
LINE
  5
1E2
330
1F
100
AcDbEntity
  8
0
  6
Continuous
 62
     7
370
    25
100
AcDbLine
 10
157.1076894479
 20
229.9589829839
 30
0.0
 11
147.1124417448
 21
229.9589829839
 31
0.0
  0
LINE
  5
1E3
330
1F
100
AcDbEntity
  8
0
  6
Continuous
 62
     7
370
    25
100
AcDbLine
 10
157.1076894479
 20
229.9589829839
 30
0.0
 11
157.1076894479
 21
229.4629829906
 31
0.0
  0
LINE
  5
1E4
330
1F
100
AcDbEntity
  8
0
  6
Continuous
 62
     7
370
    25
100
AcDbLine
 10
137.7986017914
 20
216.9629828043
 30
0.0
 11
166.4167773278
 21
216.9629828043
 31
0.0
  0
LINE
  5
1E5
330
1F
100
AcDbEntity
  8
0
  6
Continuous
 62
     7
370
    25
100
AcDbLine
 10
137.7986017914
 20
216.9629828043
 30
0.0
 11
138.2100796627
 21
225.19849464
 31
0.0
  0
LINE
  5
1E6
330
1F
100
AcDbEntity
  8
0
  6
Continuous
 62
     7
370
    25
100
AcDbLine
 10
166.0050526561
 20
225.19849464
 30
0.0
 11
138.2100796627
 21
225.19849464
 31
0.0
  0
LINE
  5
1E7
330
1F
100
AcDbEntity
  8
0
  6
Continuous
 62
     7
370
    25
100
AcDbLine
 10
166.4167773278
 20
216.9629828043
 30
0.0
 11
166.0050526561
 21
225.19849464
 31
0.0
  0
LINE
  5
1E8
330
1F
100
AcDbEntity
  8
0
  6
Continuous
 62
     7
370
    25
100
AcDbLine
 10
166.0050526561
 20
208.7274714343
 30
0.0
 11
138.2100796627
 21
208.7274714343
 31
0.0
  0
LINE
  5
1E9
330
1F
100
AcDbEntity
  8
0
  6
Continuous
 62
     7
370
    25
100
AcDbLine
 10
137.7986017914
 20
216.9629828043
 30
0.0
 11
138.2100796627
 21
208.7274714343
 31
0.0
  0
LINE
  5
1EA
330
1F
100
AcDbEntity
  8
0
  6
Continuous
 62
     7
370
    25
100
AcDbLine
 10
166.4167773278
 20
216.9629828043
 30
0.0
 11
166.0050526561
 21
208.7274714343
 31
0.0
  0
SPLINE
  5
1EB
330
1F
100
AcDbEntity
  8
0
  6
Continuous
 62
     7
370
    25
100
AcDbSpline
210
0.0
220
0.0
230
1.0
 70
     8
 71
     3
 72
    24
 73
    20
 74
     0
 42
0.000000001
 43
0.00000001
 40
0.0
 40
0.0
 40
0.0
 40
0.0
 40
0.1249999999999999
 40
0.1249999999999999
 40
0.2499999999999999
 40
0.2499999999999999
 40
0.3749999999999998
 40
0.3749999999999998
 40
0.4999999999999999
 40
0.4999999999999999
 40
0.6249999999999999
 40
0.6249999999999999
 40
0.75
 40
0.75
 40
0.875
 40
0.875
 40
0.9375
 40
0.9375
 40
1.0
 40
1.0
 40
1.0
 40
1.0
 10
138.2100795968626
 20
225.1984947936591
 30
0.0
 10
138.2244195079744
 20
225.4854199490215
 30
0.0
 10
138.2646177854074
 20
225.7662813103644
 30
0.0
 10
138.3941030377441
 20
226.3163784092725
 30
0.0
 10
138.4846925681593
 20
226.5881078518857
 30
0.0
 10
138.7127355144617
 20
227.1066620625313
 30
0.0
 10
138.848712729336
 20
227.3515561549758
 30
0.0
 10
139.1637927542014
 20
227.8130935738431
 30
0.0
 10
139.345069593993
 20
228.0314553415381
 30
0.0
 10
139.7383328706273
 20
228.4227885661381
 30
0.0
 10
139.950929205936
 20
228.5975425589998
 30
0.0
 10
140.4082406555082
 20
228.9049784628803
 30
0.0
 10
140.6533701695257
 20
229.0370249753308
 30
0.0
 10
141.1555490091107
 20
229.2472763992108
 30
0.0
 10
141.4150341432661
 20
229.3273318645372
 30
0.0
 10
141.8172384333133
 20
229.408667994301
 30
0.0
 10
141.9531400292193
 20
229.4291564473302
 30
0.0
 10
142.2255935198768
 20
229.456339824704
 30
0.0
 10
142.3607739658713
 20
229.4629829905658
 30
0.0
 10
142.4959040762011
 20
229.4629829905658
 30
0.0
  0
LINE
  5
1EC
330
1F
100
AcDbEntity
  8
0
  6
Continuous
 62
     7
370
    25
100
AcDbLine
 10
142.4959041478
 20
229.4629829906
 30
0.0
 11
161.7194749714
 21
229.4629829906
 31
0.0
  0
SPLINE
  5
1ED
330
1F
100
AcDbEntity
  8
0
  6
Continuous
 62
     7
370
    25
100
AcDbSpline
210
0.0
220
0.0
230
1.0
 70
     8
 71
     3
 72
    24
 73
    20
 74
     0
 42
0.000000001
 43
0.00000001
 40
0.0
 40
0.0
 40
0.0
 40
0.0
 40
0.125
 40
0.125
 40
0.25
 40
0.25
 40
0.375
 40
0.375
 40
0.5
 40
0.5
 40
0.625
 40
0.625
 40
0.75
 40
0.75
 40
0.875
 40
0.875
 40
0.9375
 40
0.9375
 40
1.0
 40
1.0
 40
1.0
 40
1.0
 10
166.0050523891547
 20
225.1984947936591
 30
0.0
 10
165.9907117790612
 20
225.485419948332
 30
0.0
 10
165.9507613333167
 20
225.7662813130675
 30
0.0
 10
165.8212760809492
 20
226.3163784109272
 30
0.0
 10
165.7306865504548
 20
226.5881078534928
 30
0.0
 10
165.5026436041769
 20
227.1066620636311
 30
0.0
 10
165.3666663892873
 20
227.3515561559917
 30
0.0
 10
165.0515863641859
 20
227.8130935749251
 30
0.0
 10
164.8703095243195
 20
228.0314553425365
 30
0.0
 10
164.477046248012
 20
228.4227885666236
 30
0.0
 10
164.2644499127549
 20
228.5975425594187
 30
0.0
 10
163.807138462914
 20
228.9049784633552
 30
0.0
 10
163.5620089492219
 20
229.0370249755522
 30
0.0
 10
163.0598301099785
 20
229.2472763992428
 30
0.0
 10
162.800344975822
 20
229.3273318645885
 30
0.0
 10
162.3981406854472
 20
229.4086679943821
 30
0.0
 10
162.2622390897026
 20
229.429156447368
 30
0.0
 10
161.9897855991818
 20
229.4563398247126
 30
0.0
 10
161.8546051532642
 20
229.4629829905658
 30
0.0
 10
161.7194750430205
 20
229.4629829905658
 30
0.0
  0
LINE
  5
1EE
330
1F
100
AcDbEntity
  8
0
  6
Continuous
 62
     7
370
    25
100
AcDbLine
 10
142.4959041478
 20
204.462982618
 30
0.0
 11
161.7194749714
 21
204.462982618
 31
0.0
  0
SPLINE
  5
1EF
330
1F
100
AcDbEntity
  8
0
  6
Continuous
 62
     7
370
    25
100
AcDbSpline
210
0.0
220
0.0
230
1.0
 70
     8
 71
     3
 72
    24
 73
    20
 74
     0
 42
0.000000001
 43
0.00000001
 40
0.0
 40
0.0
 40
0.0
 40
0.0
 40
0.1249999999999999
 40
0.1249999999999999
 40
0.2499999999999997
 40
0.2499999999999997
 40
0.3749999999999996
 40
0.3749999999999996
 40
0.4999999999999994
 40
0.4999999999999994
 40
0.6249999999999993
 40
0.6249999999999993
 40
0.7499999999999991
 40
0.7499999999999991
 40
0.874999999999999
 40
0.874999999999999
 40
0.9374999999999996
 40
0.9374999999999996
 40
1.0
 40
1.0
 40
1.0
 40
1.0
 10
138.2100795968626
 20
208.7274711874726
 30
0.0
 10
138.2244195079744
 20
208.44054603211
 30
0.0
 10
138.2646177854076
 20
208.1596846707672
 30
0.0
 10
138.3941030377442
 20
207.609587571859
 30
0.0
 10
138.484692568159
 20
207.337858129246
 30
0.0
 10
138.7127355144613
 20
206.8193039186004
 30
0.0
 10
138.8487127293356
 20
206.5744098261558
 30
0.0
 10
139.1637927542009
 20
206.1128724072884
 30
0.0
 10
139.3450695939927
 20
205.8945106395935
 30
0.0
 10
139.7383328706268
 20
205.5031774149935
 30
0.0
 10
139.9509292059353
 20
205.3284234221318
 30
0.0
 10
140.4082406555075
 20
205.0209875182514
 30
0.0
 10
140.6533701695249
 20
204.8889410058009
 30
0.0
 10
141.1555490091095
 20
204.6786895819209
 30
0.0
 10
141.4150341432649
 20
204.5986341165945
 30
0.0
 10
141.8172384333111
 20
204.5172979868306
 30
0.0
 10
141.953140029216
 20
204.4968095338014
 30
0.0
 10
142.2255935198704
 20
204.4696261564276
 30
0.0
 10
142.3607739658713
 20
204.4629829905658
 30
0.0
 10
142.4959040762011
 20
204.4629829905658
 30
0.0
  0
SPLINE
  5
1F0
330
1F
100
AcDbEntity
  8
0
  6
Continuous
 62
     7
370
    25
100
AcDbSpline
210
0.0
220
0.0
230
1.0
 70
     8
 71
     3
 72
    24
 73
    20
 74
     0
 42
0.000000001
 43
0.00000001
 40
0.0
 40
0.0
 40
0.0
 40
0.0
 40
0.1250000000000001
 40
0.1250000000000001
 40
0.2500000000000002
 40
0.2500000000000002
 40
0.3750000000000002
 40
0.3750000000000002
 40
0.5000000000000003
 40
0.5000000000000003
 40
0.6250000000000004
 40
0.6250000000000004
 40
0.7500000000000004
 40
0.7500000000000004
 40
0.8750000000000006
 40
0.8750000000000006
 40
0.9375000000000003
 40
0.9375000000000003
 40
1.0
 40
1.0
 40
1.0
 40
1.0
 10
166.0050523891547
 20
208.7274711874726
 30
0.0
 10
165.9907117790612
 20
208.4405460327996
 30
0.0
 10
165.9507613333166
 20
208.1596846680641
 30
0.0
 10
165.821276080949
 20
207.6095875702044
 30
0.0
 10
165.7306865504548
 20
207.3378581276388
 30
0.0
 10
165.5026436041769
 20
206.8193039175005
 30
0.0
 10
165.3666663892876
 20
206.5744098251399
 30
0.0
 10
165.0515863641863
 20
206.1128724062065
 30
0.0
 10
164.8703095243195
 20
205.8945106385951
 30
0.0
 10
164.477046248012
 20
205.5031774145081
 30
0.0
 10
164.2644499127549
 20
205.3284234217129
 30
0.0
 10
163.807138462914
 20
205.0209875177764
 30
0.0
 10
163.5620089492216
 20
204.8889410055794
 30
0.0
 10
163.0598301099781
 20
204.6786895818888
 30
0.0
 10
162.8003449758216
 20
204.5986341165431
 30
0.0
 10
162.3981406854465
 20
204.5172979867495
 30
0.0
 10
162.2622390897026
 20
204.4968095337636
 30
0.0
 10
161.9897855991817
 20
204.469626156419
 30
0.0
 10
161.8546051532641
 20
204.4629829905658
 30
0.0
 10
161.7194750430205
 20
204.4629829905658
 30
0.0
  0
LINE
  5
1F1
330
1F
100
AcDbEntity
  8
0
  6
Continuous
 62
     7
370
    25
100
AcDbLine
 10
166.5843390228
 20
225.19849464
 30
0.0
 11
166.0050526561
 21
225.19849464
 31
0.0
  0
ARC
  5
1F2
330
1F
100
AcDbEntity
  8
0
  6
Continuous
 62
     7
370
    25
100
AcDbCircle
 10
162.2096327658
 20
225.0878113448
 30
0.0
 40
4.376106217538468
100
AcDbArc
 50
1.4493162881
 51
88.8158471689
  0
LINE
  5
1F3
330
1F
100
AcDbEntity
  8
0
  6
Continuous
 62
     7
370
    25
100
AcDbLine
 10
161.7194749714
 20
229.4629829906
 30
0.0
 11
162.300068915
 21
229.4629829906
 31
0.0
  0
LINE
  5
1F4
330
1F
100
AcDbEntity
  8
0
  6
Continuous
 62
     7
370
    25
100
AcDbLine
 10
166.5843390228
 20
208.7274714343
 30
0.0
 11
166.0050526561
 21
208.7274714343
 31
0.0
  0
ARC
  5
1F5
330
1F
100
AcDbEntity
  8
0
  6
Continuous
 62
     7
370
    25
100
AcDbCircle
 10
162.2096329759
 20
208.8381540406
 30
0.0
 40
4.376105990019565
100
AcDbArc
 50
271.1841501405
 51
358.5506926589
  0
LINE
  5
1F6
330
1F
100
AcDbEntity
  8
0
  6
Continuous
 62
     7
370
    25
100
AcDbLine
 10
161.7194749714
 20
204.462982618
 30
0.0
 11
162.300068915
 21
204.462982618
 31
0.0
  0
LINE
  5
1F7
330
1F
100
AcDbEntity
  8
0
  6
Continuous
 62
     7
370
    25
100
AcDbLine
 10
138.2100796627
 20
225.19849464
 30
0.0
 11
137.6310400964
 21
225.19849464
 31
0.0
  0
ARC
  5
1F8
330
1F
100
AcDbEntity
  8
0
  6
Continuous
 62
     7
370
    25
100
AcDbCircle
 10
142.0057463535
 20
225.0878113448
 30
0.0
 40
4.376106217538476
100
AcDbArc
 50
91.1841528311
 51
178.5506837119
  0
LINE
  5
1F9
330
1F
100
AcDbEntity
  8
0
  6
Continuous
 62
     7
370
    25
100
AcDbLine
 10
141.9153102042
 20
229.4629829906
 30
0.0
 11
142.4959041478
 21
229.4629829906
 31
0.0
  0
ARC
  5
1FA
330
1F
100
AcDbEntity
  8
0
  6
Continuous
 62
     7
370
    25
100
AcDbCircle
 10
142.0057461433
 20
208.8381540406
 30
0.0
 40
4.376105990019565
100
AcDbArc
 50
181.4493073411
 51
268.8158498595
  0
LINE
  5
1FB
330
1F
100
AcDbEntity
  8
0
  6
Continuous
 62
     7
370
    25
100
AcDbLine
 10
138.2100796627
 20
208.7274714343
 30
0.0
 11
137.6310400964
 21
208.7274714343
 31
0.0
  0
LINE
  5
1FC
330
1F
100
AcDbEntity
  8
0
  6
Continuous
 62
     7
370
    25
100
AcDbLine
 10
141.9153102042
 20
204.462982618
 30
0.0
 11
142.4959041478
 21
204.462982618
 31
0.0
  0
LINE
  5
1FD
330
1F
100
AcDbEntity
  8
0
  6
Continuous
 62
     7
370
    25
100
AcDbLine
 10
166.4167773278
 20
216.9629828043
 30
0.0
 11
166.9004187287
 21
216.9629828043
 31
0.0
  0
LINE
  5
1FE
330
1F
100
AcDbEntity
  8
0
  6
Continuous
 62
     7
370
    25
100
AcDbLine
 10
166.9004187287
 20
216.9629828043
 30
0.0
 11
166.5843390228
 21
225.19849464
 31
0.0
  0
LINE
  5
1FF
330
1F
100
AcDbEntity
  8
0
  6
Continuous
 62
     7
370
    25
100
AcDbLine
 10
137.3149603905
 20
216.9629828043
 30
0.0
 11
137.7986017914
 21
216.9629828043
 31
0.0
  0
LINE
  5
200
330
1F
100
AcDbEntity
  8
0
  6
Continuous
 62
     7
370
    25
100
AcDbLine
 10
137.6310400964
 20
225.19849464
 30
0.0
 11
137.3149603905
 21
216.9629828043
 31
0.0
  0
LINE
  5
201
330
1F
100
AcDbEntity
  8
0
  6
Continuous
 62
     7
370
    25
100
AcDbLine
 10
166.9004187287
 20
216.9629828043
 30
0.0
 11
166.5843390228
 21
208.7274714343
 31
0.0
  0
LINE
  5
202
330
1F
100
AcDbEntity
  8
0
  6
Continuous
 62
     7
370
    25
100
AcDbLine
 10
137.6310400964
 20
208.7274714343
 30
0.0
 11
137.3149603905
 21
216.9629828043
 31
0.0
  0
LINE
  5
203
330
1F
100
AcDbEntity
  8
0
  6
Continuous
 62
     7
370
    25
100
AcDbLine
 10
137.3149603905
 20
216.9629828043
 30
0.0
 11
127.7943607719
 21
216.9629828043
 31
0.0
  0
LINE
  5
204
330
1F
100
AcDbEntity
  8
0
  6
Continuous
 62
     7
370
    25
100
AcDbLine
 10
127.7943607719
 20
216.9629828043
 30
0.0
 11
128.1104404779
 21
225.19849464
 31
0.0
  0
ELLIPSE
  5
205
330
1F
100
AcDbEntity
  8
0
  6
Continuous
 62
     7
370
    25
100
AcDbEllipse
 10
128.0813145932
 20
224.9629829906
 30
0.0
 11
10.01398948853139
 21
0.1728906043848042
 31
0.0
210
0.0
220
0.0
230
1.0
 40
0.0234612002
 41
0.3052886203586991
 42
1.567482777849638
  0
LINE
  5
206
330
1F
100
AcDbEntity
  8
0
  6
Continuous
 62
     7
370
    25
100
AcDbLine
 10
176.4210183473
 20
216.9629828043
 30
0.0
 11
166.9004187287
 21
216.9629828043
 31
0.0
  0
ELLIPSE
  5
207
330
1F
100
AcDbEntity
  8
0
  6
Continuous
 62
     7
370
    25
100
AcDbEllipse
 10
176.134064526
 20
224.9629829906
 30
0.0
 11
10.01398948853142
 21
-0.1728906043847758
 31
0.0
210
0.0
220
0.0
230
1.0
 40
0.0234612002
 41
1.574109875740158
 42
2.836304033230987
  0
LINE
  5
208
330
1F
100
AcDbEntity
  8
0
  6
Continuous
 62
     7
370
    25
100
AcDbLine
 10
176.1049386413
 20
225.19849464
 30
0.0
 11
176.4210183473
 21
216.9629828043
 31
0.0
  0
ELLIPSE
  5
209
330
1F
100
AcDbEntity
  8
0
  6
Continuous
 62
     7
370
    25
100
AcDbEllipse
 10
128.0813145932
 20
208.9629829906
 30
0.0
 11
10.01398948853139
 21
-0.1728906043848042
 31
0.0
210
0.0
220
0.0
230
1.0
 40
0.0234612002
 41
4.715702529329949
 42
5.977896686821431
  0
LINE
  5
20A
330
1F
100
AcDbEntity
  8
0
  6
Continuous
 62
     7
370
    25
100
AcDbLine
 10
127.7943607719
 20
216.9629828043
 30
0.0
 11
128.1104404779
 21
208.7274714343
 31
0.0
  0
ELLIPSE
  5
20B
330
1F
100
AcDbEntity
  8
0
  6
Continuous
 62
     7
370
    25
100
AcDbEllipse
 10
176.134064526
 20
208.9629829906
 30
0.0
 11
10.01398948853142
 21
0.1728906043847758
 31
0.0
210
0.0
220
0.0
230
1.0
 40
0.0234612002
 41
3.44688127394914
 42
4.709075431439429
  0
LINE
  5
20C
330
1F
100
AcDbEntity
  8
0
  6
Continuous
 62
     7
370
    25
100
AcDbLine
 10
176.1049386413
 20
208.7274714343
 30
0.0
 11
176.4210183473
 21
216.9629828043
 31
0.0
  0
LINE
  5
20D
330
1F
100
AcDbEntity
  8
0
  6
Continuous
 62
     7
370
    25
100
AcDbLine
 10
128.1104404779
 20
225.19849464
 30
0.0
 11
128.1104404779
 21
229.4629829906
 31
0.0
  0
LINE
  5
20E
330
1F
100
AcDbEntity
  8
0
  6
Continuous
 62
     7
370
    25
100
AcDbLine
 10
128.1104404779
 20
229.4629829906
 30
0.0
 11
141.9153102042
 21
229.4629829906
 31
0.0
  0
LINE
  5
20F
330
1F
100
AcDbEntity
  8
0
  6
Continuous
 62
     7
370
    25
100
AcDbLine
 10
176.1049386413
 20
225.19849464
 30
0.0
 11
176.1049386413
 21
229.4629829906
 31
0.0
  0
LINE
  5
210
330
1F
100
AcDbEntity
  8
0
  6
Continuous
 62
     7
370
    25
100
AcDbLine
 10
162.300068915
 20
229.4629829906
 30
0.0
 11
176.1049386413
 21
229.4629829906
 31
0.0
  0
LINE
  5
211
330
1F
100
AcDbEntity
  8
0
  6
Continuous
 62
     7
370
    25
100
AcDbLine
 10
128.1104404779
 20
208.7274714343
 30
0.0
 11
128.1104404779
 21
204.462982618
 31
0.0
  0
LINE
  5
212
330
1F
100
AcDbEntity
  8
0
  6
Continuous
 62
     7
370
    25
100
AcDbLine
 10
128.1104404779
 20
204.462982618
 30
0.0
 11
141.9153102042
 21
204.462982618
 31
0.0
  0
LINE
  5
213
330
1F
100
AcDbEntity
  8
0
  6
Continuous
 62
     7
370
    25
100
AcDbLine
 10
176.1049386413
 20
208.7274714343
 30
0.0
 11
176.1049386413
 21
204.462982618
 31
0.0
  0
LINE
  5
214
330
1F
100
AcDbEntity
  8
0
  6
Continuous
 62
     7
370
    25
100
AcDbLine
 10
162.300068915
 20
204.462982618
 30
0.0
 11
176.1049386413
 21
204.462982618
 31
0.0
  0
LINE
  5
215
330
1F
100
AcDbEntity
  8
0
  6
Continuous
 62
     7
370
    25
100
AcDbLine
 10
202.1076903047
 20
216.9629828043
 30
0.0
 11
202.1076903047
 21
221.0403297998
 31
0.0
  0
LINE
  5
216
330
1F
100
AcDbEntity
  8
0
  6
Continuous
 62
     7
370
    25
100
AcDbLine
 10
182.1076888891
 20
216.9629828043
 30
0.0
 11
202.1076903047
 21
216.9629828043
 31
0.0
  0
LINE
  5
217
330
1F
100
AcDbEntity
  8
0
  6
Continuous
 62
     7
370
    25
100
AcDbLine
 10
182.1076888891
 20
216.9629828043
 30
0.0
 11
182.0754986556
 21
225.19849464
 31
0.0
  0
ELLIPSE
  5
218
330
1F
100
AcDbEntity
  8
0
  6
Continuous
 62
     7
370
    25
100
AcDbEllipse
 10
212.1175901859
 20
224.9629829906
 30
0.0
 11
30.04207397194486
 21
-0.2435888026365661
 31
0.0
210
0.0
220
0.0
230
1.0
 40
0.1495703104
 41
3.132645356776793
 42
3.14339009121262
  0
LINE
  5
219
330
1F
100
AcDbEntity
  8
0
  6
Continuous
 62
     7
370
    25
100
AcDbLine
 10
202.1076903047
 20
221.0403297998
 30
0.0
 11
182.0770446511
 21
225.246765089
 31
0.0
  0
LINE
  5
21A
330
1F
100
AcDbEntity
  8
0
  6
Continuous
 62
     7
370
    25
100
AcDbLine
 10
102.1076888146
 20
216.9629828043
 30
0.0
 11
122.1076902302
 21
216.9629828043
 31
0.0
  0
LINE
  5
21B
330
1F
100
AcDbEntity
  8
0
  6
Continuous
 62
     7
370
    25
100
AcDbLine
 10
102.1076888146
 20
216.9629828043
 30
0.0
 11
102.1076888146
 21
221.0403297998
 31
0.0
  0
LINE
  5
21C
330
1F
100
AcDbEntity
  8
0
  6
Continuous
 62
     7
370
    25
100
AcDbLine
 10
122.1383344682
 20
225.246765089
 30
0.0
 11
102.1076888146
 21
221.0403297998
 31
0.0
  0
ELLIPSE
  5
21D
330
1F
100
AcDbEntity
  8
0
  6
Continuous
 62
     7
370
    25
100
AcDbEllipse
 10
92.0977889333
 20
224.9629829906
 30
0.0
 11
30.04207397194486
 21
0.2435888026365944
 31
0.0
210
0.0
220
0.0
230
1.0
 40
0.1495703104
 41
6.281387869556938
 42
6.292132603992584
  0
LINE
  5
21E
330
1F
100
AcDbEntity
  8
0
  6
Continuous
 62
     7
370
    25
100
AcDbLine
 10
122.1076902302
 20
216.9629828043
 30
0.0
 11
122.1398804636
 21
225.19849464
 31
0.0
  0
LINE
  5
21F
330
1F
100
AcDbEntity
  8
0
  6
Continuous
 62
     7
370
    25
100
AcDbLine
 10
122.1076902302
 20
216.9629828043
 30
0.0
 11
127.7943607719
 21
216.9629828043
 31
0.0
  0
LINE
  5
220
330
1F
100
AcDbEntity
  8
0
  6
Continuous
 62
     7
370
    25
100
AcDbLine
 10
128.1104404779
 20
225.19849464
 30
0.0
 11
122.1398804636
 21
225.19849464
 31
0.0
  0
LINE
  5
221
330
1F
100
AcDbEntity
  8
0
  6
Continuous
 62
     7
370
    25
100
AcDbLine
 10
176.4210183473
 20
216.9629828043
 30
0.0
 11
182.1076888891
 21
216.9629828043
 31
0.0
  0
LINE
  5
222
330
1F
100
AcDbEntity
  8
0
  6
Continuous
 62
     7
370
    25
100
AcDbLine
 10
182.0754986556
 20
225.19849464
 30
0.0
 11
176.1049386413
 21
225.19849464
 31
0.0
  0
LINE
  5
223
330
1F
100
AcDbEntity
  8
0
  6
Continuous
 62
     7
370
    25
100
AcDbLine
 10
128.1104404779
 20
208.7274714343
 30
0.0
 11
122.1398804636
 21
208.7274714343
 31
0.0
  0
LINE
  5
224
330
1F
100
AcDbEntity
  8
0
  6
Continuous
 62
     7
370
    25
100
AcDbLine
 10
122.1076902302
 20
216.9629828043
 30
0.0
 11
122.1398804636
 21
208.7274714343
 31
0.0
  0
ELLIPSE
  5
225
330
1F
100
AcDbEntity
  8
0
  6
Continuous
 62
     7
370
    25
100
AcDbEllipse
 10
212.1175901859
 20
208.9629829906
 30
0.0
 11
30.04207397194486
 21
0.2435888026365944
 31
0.0
210
0.0
220
0.0
230
1.0
 40
0.1495703104
 41
3.139795215967054
 42
3.150539950402887
  0
LINE
  5
226
330
1F
100
AcDbEntity
  8
0
  6
Continuous
 62
     7
370
    25
100
AcDbLine
 10
182.1076888891
 20
216.9629828043
 30
0.0
 11
182.0754986556
 21
208.7274714343
 31
0.0
  0
LINE
  5
227
330
1F
100
AcDbEntity
  8
0
  6
Continuous
 62
     7
370
    25
100
AcDbLine
 10
202.1076903047
 20
216.9629828043
 30
0.0
 11
202.1076903047
 21
212.8856367402
 31
0.0
  0
LINE
  5
228
330
1F
100
AcDbEntity
  8
0
  6
Continuous
 62
     7
370
    25
100
AcDbLine
 10
202.1076903047
 20
212.8856367402
 30
0.0
 11
182.0770446511
 21
208.6792009853
 31
0.0
  0
ELLIPSE
  5
229
330
1F
100
AcDbEntity
  8
0
  6
Continuous
 62
     7
370
    25
100
AcDbEllipse
 10
92.0977889333
 20
208.9629829906
 30
0.0
 11
30.04207397194486
 21
-0.2435888026366228
 31
0.0
210
0.0
220
0.0
230
1.0
 40
0.1495703104
 41
6.274238010366686
 42
6.284982744802332
  0
LINE
  5
22A
330
1F
100
AcDbEntity
  8
0
  6
Continuous
 62
     7
370
    25
100
AcDbLine
 10
122.1383344682
 20
208.6792009853
 30
0.0
 11
102.1076888146
 21
212.8856367402
 31
0.0
  0
LINE
  5
22B
330
1F
100
AcDbEntity
  8
0
  6
Continuous
 62
     7
370
    25
100
AcDbLine
 10
102.1076888146
 20
216.9629828043
 30
0.0
 11
102.1076888146
 21
212.8856367402
 31
0.0
  0
LINE
  5
22C
330
1F
100
AcDbEntity
  8
0
  6
Continuous
 62
     7
370
    25
100
AcDbLine
 10
182.0754986556
 20
208.7274714343
 30
0.0
 11
176.1049386413
 21
208.7274714343
 31
0.0
  0
LINE
  5
22D
330
1F
100
AcDbEntity
  8
0
  6
Continuous
 62
     7
370
    25
100
AcDbLine
 10
102.1076888146
 20
225.2629831403
 30
0.0
 11
122.1044641288
 21
229.4623055071
 31
0.0
  0
SPLINE
  5
22E
330
1F
100
AcDbEntity
  8
0
  6
Continuous
 62
     7
370
    25
100
AcDbSpline
210
0.0
220
0.0
230
1.0
 70
     8
 71
     3
 72
    22
 73
    18
 74
     0
 42
0.000000001
 43
0.00000001
 40
0.0
 40
0.0
 40
0.0
 40
0.0
 40
0.125
 40
0.125
 40
0.25
 40
0.25
 40
0.375
 40
0.375
 40
0.5
 40
0.5
 40
0.625
 40
0.625
 40
0.75
 40
0.75
 40
0.875
 40
0.875
 40
1.0
 40
1.0
 40
1.0
 40
1.0
 10
122.1044634477004
 20
229.4623055070647
 30
0.0
 10
122.0812251659547
 20
229.457425467898
 30
0.0
 10
122.0615875532778
 20
229.4264869071251
 30
0.0
 10
122.0286153924141
 20
229.3144040330604
 30
0.0
 10
122.0152081705169
 20
229.2322432373956
 30
0.0
 10
121.9951168805104
 20
229.0192017085809
 30
0.0
 10
121.9884720341589
 20
228.8899115149523
 30
0.0
 10
121.9815118510238
 20
228.5866837164679
 30
0.0
 10
121.9812613298245
 20
228.4105219662934
 30
0.0
 10
121.9869608157748
 20
228.0245693594741
 30
0.0
 10
121.9928301154718
 20
227.8146394102664
 30
0.0
 10
122.0101887628444
 20
227.3609157903699
 30
0.0
 10
122.0217986225032
 20
227.1158008770066
 30
0.0
 10
122.0491864354002
 20
226.6112150144648
 30
0.0
 10
122.065051266764
 20
226.3495070452091
 30
0.0
 10
122.1001030679478
 20
225.8068525509376
 30
0.0
 10
122.1192380985325
 20
225.527747468376
 30
0.0
 10
122.1383344390059
 20
225.2467653110553
 30
0.0
  0
LINE
  5
22F
330
1F
100
AcDbEntity
  8
0
  6
Continuous
 62
     7
370
    25
100
AcDbLine
 10
102.1076888146
 20
221.0403297998
 30
0.0
 11
102.1076888146
 21
225.2629831403
 31
0.0
  0
LINE
  5
230
330
1F
100
AcDbEntity
  8
0
  6
Continuous
 62
     7
370
    25
100
AcDbLine
 10
122.1044641288
 20
229.4623055071
 30
0.0
 11
122.1076902302
 21
229.4629829906
 31
0.0
  0
LINE
  5
231
330
1F
100
AcDbEntity
  8
0
  6
Continuous
 62
     7
370
    25
100
AcDbLine
 10
122.1076902302
 20
229.4629829906
 30
0.0
 11
128.1104404779
 21
229.4629829906
 31
0.0
  0
SPLINE
  5
232
330
1F
100
AcDbEntity
  8
0
  6
Continuous
 62
     7
370
    25
100
AcDbSpline
210
0.0
220
0.0
230
1.0
 70
     8
 71
     3
 72
    22
 73
    18
 74
     0
 42
0.000000001
 43
0.00000001
 40
0.0
 40
0.0
 40
0.0
 40
0.0
 40
0.1250000000000002
 40
0.1250000000000002
 40
0.2500000000000004
 40
0.2500000000000004
 40
0.3750000000000007
 40
0.3750000000000007
 40
0.5000000000000006
 40
0.5000000000000006
 40
0.6250000000000004
 40
0.6250000000000004
 40
0.7500000000000003
 40
0.7500000000000003
 40
0.8750000000000002
 40
0.8750000000000002
 40
1.0
 40
1.0
 40
1.0
 40
1.0
 10
182.0770446802156
 20
225.2467653110553
 30
0.0
 10
182.0961419364186
 20
225.5277609423553
 30
0.0
 10
182.1149903750655
 20
225.8026747357705
 30
0.0
 10
182.1497925005027
 20
226.3409798311219
 30
0.0
 10
182.1659282500245
 20
226.6065646337806
 30
0.0
 10
182.1935479216892
 20
227.1149816158477
 30
0.0
 10
182.2049299106305
 20
227.3551529465961
 30
0.0
 10
182.2223345263641
 20
227.8080168318221
 30
0.0
 10
182.2283731801338
 20
228.0226486206191
 30
0.0
 10
182.2341116084353
 20
228.4089786627382
 30
0.0
 10
182.2339116743774
 20
228.5817213585191
 30
0.0
 10
182.2270534550079
 20
228.886480136911
 30
0.0
 10
182.2202782234618
 20
229.0186161544054
 30
0.0
 10
182.2003662227335
 20
229.2305842859855
 30
0.0
 10
182.1872368653081
 20
229.3122050624773
 30
0.0
 10
182.1541088083666
 20
229.4259852173167
 30
0.0
 10
182.1341559721345
 20
229.4574250439358
 30
0.0
 10
182.110915671521
 20
229.4623055070647
 30
0.0
  0
LINE
  5
233
330
1F
100
AcDbEntity
  8
0
  6
Continuous
 62
     7
370
    25
100
AcDbLine
 10
182.1076888891
 20
229.4629829906
 30
0.0
 11
182.1109149905
 21
229.4623055071
 31
0.0
  0
LINE
  5
234
330
1F
100
AcDbEntity
  8
0
  6
Continuous
 62
     7
370
    25
100
AcDbLine
 10
176.1049386413
 20
229.4629829906
 30
0.0
 11
182.1076888891
 21
229.4629829906
 31
0.0
  0
LINE
  5
235
330
1F
100
AcDbEntity
  8
0
  6
Continuous
 62
     7
370
    25
100
AcDbLine
 10
182.1109149905
 20
229.4623055071
 30
0.0
 11
202.1076903047
 21
225.2629831403
 31
0.0
  0
LINE
  5
236
330
1F
100
AcDbEntity
  8
0
  6
Continuous
 62
     7
370
    25
100
AcDbLine
 10
202.1076903047
 20
225.2629831403
 30
0.0
 11
202.1076903047
 21
221.0403297998
 31
0.0
  0
SPLINE
  5
237
330
1F
100
AcDbEntity
  8
0
  6
Continuous
 62
     7
370
    25
100
AcDbSpline
210
0.0
220
0.0
230
1.0
 70
     8
 71
     3
 72
    22
 73
    18
 74
     0
 42
0.000000001
 43
0.00000001
 40
0.0
 40
0.0
 40
0.0
 40
0.0
 40
0.1249999999999999
 40
0.1249999999999999
 40
0.2499999999999998
 40
0.2499999999999998
 40
0.3749999999999998
 40
0.3749999999999998
 40
0.4999999999999997
 40
0.4999999999999997
 40
0.6249999999999996
 40
0.6249999999999996
 40
0.7499999999999997
 40
0.7499999999999997
 40
0.8749999999999999
 40
0.8749999999999999
 40
1.0
 40
1.0
 40
1.0
 40
1.0
 10
122.1044634477004
 20
204.463660474067
 30
0.0
 10
122.0812251659547
 20
204.4685405132336
 30
0.0
 10
122.0615875532778
 20
204.4994790740064
 30
0.0
 10
122.0286153924141
 20
204.6115619480712
 30
0.0
 10
122.0152081705169
 20
204.693722743736
 30
0.0
 10
121.9951168805104
 20
204.9067642725507
 30
0.0
 10
121.9884720341589
 20
205.0360544661793
 30
0.0
 10
121.9815118510238
 20
205.3392822646637
 30
0.0
 10
121.9812613298245
 20
205.5154440148382
 30
0.0
 10
121.9869608157747
 20
205.9013966216575
 30
0.0
 10
121.9928301154718
 20
206.1113265708652
 30
0.0
 10
122.0101887628444
 20
206.5650501907617
 30
0.0
 10
122.0217986225032
 20
206.810165104125
 30
0.0
 10
122.0491864354002
 20
207.3147509666667
 30
0.0
 10
122.065051266764
 20
207.5764589359225
 30
0.0
 10
122.1001030679478
 20
208.119113430194
 30
0.0
 10
122.1192380985325
 20
208.3982185127556
 30
0.0
 10
122.1383344390059
 20
208.6792006700763
 30
0.0
  0
LINE
  5
238
330
1F
100
AcDbEntity
  8
0
  6
Continuous
 62
     7
370
    25
100
AcDbLine
 10
102.1076888146
 20
208.6629829339
 30
0.0
 11
122.1044641288
 21
204.4636606209
 31
0.0
  0
LINE
  5
239
330
1F
100
AcDbEntity
  8
0
  6
Continuous
 62
     7
370
    25
100
AcDbLine
 10
102.1076888146
 20
212.8856367402
 30
0.0
 11
102.1076888146
 21
208.6629829339
 31
0.0
  0
LINE
  5
23A
330
1F
100
AcDbEntity
  8
0
  6
Continuous
 62
     7
370
    25
100
AcDbLine
 10
182.1109149905
 20
204.4636606209
 30
0.0
 11
202.1076903047
 21
208.6629829339
 31
0.0
  0
SPLINE
  5
23B
330
1F
100
AcDbEntity
  8
0
  6
Continuous
 62
     7
370
    25
100
AcDbSpline
210
0.0
220
0.0
230
1.0
 70
     8
 71
     3
 72
    22
 73
    18
 74
     0
 42
0.000000001
 43
0.00000001
 40
0.0
 40
0.0
 40
0.0
 40
0.0
 40
0.1250000000000001
 40
0.1250000000000001
 40
0.2500000000000003
 40
0.2500000000000003
 40
0.3750000000000004
 40
0.3750000000000004
 40
0.5000000000000003
 40
0.5000000000000003
 40
0.6250000000000002
 40
0.6250000000000002
 40
0.7500000000000001
 40
0.7500000000000001
 40
0.8750000000000001
 40
0.8750000000000001
 40
1.0
 40
1.0
 40
1.0
 40
1.0
 10
182.0770446802156
 20
208.6792006700763
 30
0.0
 10
182.0961419364186
 20
208.3982050387763
 30
0.0
 10
182.1149903750655
 20
208.1232912453612
 30
0.0
 10
182.1497925005027
 20
207.5849861500097
 30
0.0
 10
182.1659282500245
 20
207.319401347351
 30
0.0
 10
182.1935479216892
 20
206.8109843652839
 30
0.0
 10
182.2049299106305
 20
206.5708130345355
 30
0.0
 10
182.2223345263641
 20
206.1179491493095
 30
0.0
 10
182.2283731801338
 20
205.9033173605125
 30
0.0
 10
182.2341116084353
 20
205.5169873183933
 30
0.0
 10
182.2339116743774
 20
205.3442446226125
 30
0.0
 10
182.2270534550079
 20
205.0394858442206
 30
0.0
 10
182.2202782234618
 20
204.9073498267262
 30
0.0
 10
182.2003662227335
 20
204.6953816951461
 30
0.0
 10
182.1872368653081
 20
204.6137609186543
 30
0.0
 10
182.1541088083666
 20
204.499980763815
 30
0.0
 10
182.1341559721345
 20
204.4685409371958
 30
0.0
 10
182.110915671521
 20
204.463660474067
 30
0.0
  0
LINE
  5
23C
330
1F
100
AcDbEntity
  8
0
  6
Continuous
 62
     7
370
    25
100
AcDbLine
 10
202.1076903047
 20
208.6629829339
 30
0.0
 11
202.1076903047
 21
212.8856367402
 31
0.0
  0
LINE
  5
23D
330
1F
100
AcDbEntity
  8
0
  6
Continuous
 62
     7
370
    25
100
AcDbLine
 10
122.1044641288
 20
204.4636606209
 30
0.0
 11
122.1076902302
 21
204.462982618
 31
0.0
  0
LINE
  5
23E
330
1F
100
AcDbEntity
  8
0
  6
Continuous
 62
     7
370
    25
100
AcDbLine
 10
122.1076902302
 20
204.462982618
 30
0.0
 11
128.1104404779
 21
204.462982618
 31
0.0
  0
LINE
  5
23F
330
1F
100
AcDbEntity
  8
0
  6
Continuous
 62
     7
370
    25
100
AcDbLine
 10
182.1076888891
 20
204.462982618
 30
0.0
 11
182.1109149905
 21
204.4636606209
 31
0.0
  0
LINE
  5
240
330
1F
100
AcDbEntity
  8
0
  6
Continuous
 62
     7
370
    25
100
AcDbLine
 10
176.1049386413
 20
204.462982618
 30
0.0
 11
182.1076888891
 21
204.462982618
 31
0.0
  0
LINE
  5
241
330
1F
100
AcDbEntity
  8
0
  6
Continuous
 62
     7
370
    25
100
AcDbLine
 10
309.574673595
 20
193.1742325829
 30
0.0
 11
326.5939042472
 21
189.0151561405
 31
0.0
  0
LINE
  5
242
330
1F
100
AcDbEntity
  8
0
  6
Continuous
 62
     7
370
    25
100
AcDbLine
 10
336.4762394659
 20
201.9438949745
 30
0.0
 11
325.374356827
 21
214.0137702221
 31
0.0
  0
SPLINE
  5
243
330
1F
100
AcDbEntity
  8
0
  6
Continuous
 62
     7
370
    25
100
AcDbSpline
210
0.0
220
0.0
230
1.0
 70
     8
 71
     3
 72
    16
 73
    12
 74
     0
 42
0.000000001
 43
0.00000001
 40
0.0
 40
0.0
 40
0.0
 40
0.0
 40
0.034426651420948
 40
0.1598864401565814
 40
0.2853080300917126
 40
0.4112270926644678
 40
0.5381793768081876
 40
0.6666916487113533
 40
0.7972644027748859
 40
0.9303389711226143
 40
1.0
 40
1.0
 40
1.0
 40
1.0
 10
282.4344567920765
 20
235.8097485601344
 30
0.0
 10
282.3780999093264
 20
235.7745551271845
 30
0.0
 10
282.1163636965572
 20
235.6111075515709
 30
0.0
 10
281.6871234212269
 20
235.2637559624496
 30
0.0
 10
281.1529201549831
 20
234.771065928327
 30
0.0
 10
280.6664310233868
 20
234.2265995103394
 30
0.0
 10
280.225455547636
 20
233.6380661641743
 30
0.0
 10
279.8315163787055
 20
233.0059890841603
 30
0.0
 10
279.4876993758419
 20
232.331264701949
 30
0.0
 10
279.2367812569851
 20
231.7365072181262
 30
0.0
 10
279.1153416892581
 20
231.36155417555
 30
0.0
 10
279.0736144082572
 20
231.2327183170029
 30
0.0
  0
LINE
  5
244
330
1F
100
AcDbEntity
  8
0
  6
Continuous
 62
     7
370
    25
100
AcDbLine
 10
288.0326448728
 20
239.5474582839
 30
0.0
 11
282.432894066
 21
235.8167723133
 31
0.0
  0
LINE
  5
245
330
1F
100
AcDbEntity
  8
0
  6
Continuous
 62
     7
370
    25
100
AcDbLine
 10
294.6196279833
 20
242.8520234848
 30
0.0
 11
288.5886039515
 21
239.8684060193
 31
0.0
  0
SPLINE
  5
246
330
1F
100
AcDbEntity
  8
0
  6
Continuous
 62
     7
370
    25
100
AcDbSpline
210
0.0
220
0.0
230
1.0
 70
     8
 71
     3
 72
    35
 73
    31
 74
     0
 42
0.000000001
 43
0.00000001
 40
0.0
 40
0.0
 40
0.0
 40
0.0
 40
0.0209292949756374
 40
0.0622165140200343
 40
0.1019744848257821
 40
0.1400189754742394
 40
0.1770203211744431
 40
0.2135383378624868
 40
0.2498964994659139
 40
0.286239799422052
 40
0.3226405281979618
 40
0.3591336061723998
 40
0.395721700500071
 40
0.4323913389524261
 40
0.4691215876714464
 40
0.5058881308434601
 40
0.5426655350592505
 40
0.5794223099097444
 40
0.6161288829986904
 40
0.6527591590020898
 40
0.6892884810692436
 40
0.7256963407299827
 40
0.761972185923151
 40
0.7981264170987423
 40
0.8342107262972925
 40
0.8703111582709768
 40
0.9066207440219254
 40
0.9435037760246108
 40
0.9815150083197848
 40
1.0
 40
1.0
 40
1.0
 40
1.0
 10
284.8804677492885
 20
229.8341963740072
 30
0.0
 10
284.9244039520459
 20
229.8588926023899
 30
0.0
 10
285.0550130995597
 20
229.9323070791411
 30
0.0
 10
285.3074633396162
 20
229.9920705859858
 30
0.0
 10
285.6351304306136
 20
230.0147337552202
 30
0.0
 10
285.9869254169051
 20
229.9752016225086
 30
0.0
 10
286.3551518001362
 20
229.8788968998211
 30
0.0
 10
286.7369270724455
 20
229.7261571526751
 30
0.0
 10
287.1280396946837
 20
229.5182413415456
 30
0.0
 10
287.5234476130967
 20
229.2567917314514
 30
0.0
 10
287.9174963826427
 20
228.9444658117298
 30
0.0
 10
288.3044110540158
 20
228.5848331688538
 30
0.0
 10
288.6784329960176
 20
228.1823306551441
 30
0.0
 10
289.0339630269029
 20
227.7422246864667
 30
0.0
 10
289.3657172051729
 20
227.2704786996111
 30
0.0
 10
289.6688188120254
 20
226.7736249866976
 30
0.0
 10
289.9388865530723
 20
226.2586798695898
 30
0.0
 10
290.1721047184142
 20
225.7330201201356
 30
0.0
 10
290.3653188529594
 20
225.2042657238535
 30
0.0
 10
290.5160994104366
 20
224.6801320233864
 30
0.0
 10
290.6228052928588
 20
224.1683232559605
 30
0.0
 10
290.6846633466778
 20
223.6764185770467
 30
0.0
 10
290.7018242190579
 20
223.2116751207006
 30
0.0
 10
290.6754156398711
 20
222.7808355250712
 30
0.0
 10
290.6076006184959
 20
222.3898431480744
 30
0.0
 10
290.5012441638596
 20
222.0437855316627
 30
0.0
 10
290.3602952398784
 20
221.74485567113
 30
0.0
 10
290.1855556214405
 20
221.4973945737189
 30
0.0
 10
290.0219001789523
 20
221.3259748855322
 30
0.0
 10
289.9051689339374
 20
221.2560420246161
 30
0.0
 10
289.8669756540846
 20
221.2331607015604
 30
0.0
  0
LINE
  5
247
330
1F
100
AcDbEntity
  8
0
  6
Continuous
 62
     7
370
    25
100
AcDbLine
 10
266.5995104362
 20
217.9166606086
 30
0.0
 11
309.1968718791
 21
193.3257272803
 31
0.0
  0
SPLINE
  5
248
330
1F
100
AcDbEntity
  8
0
  6
Continuous
 62
     7
370
    25
100
AcDbSpline
210
0.0
220
0.0
230
1.0
 70
     8
 71
     3
 72
    36
 73
    32
 74
     0
 42
0.000000001
 43
0.00000001
 40
0.0
 40
0.0
 40
0.0
 40
0.0
 40
0.0130665531943993
 40
0.0499318044004233
 40
0.0866432974781064
 40
0.1232384233406225
 40
0.1597397774288061
 40
0.1961782905372907
 40
0.232589847792753
 40
0.2690133491961774
 40
0.3054796805173777
 40
0.342025910350138
 40
0.3786927710314308
 40
0.4155188256639352
 40
0.4525382513826955
 40
0.4897765124174051
 40
0.5272439502248015
 40
0.5649265312081434
 40
0.6027740679184269
 40
0.6406574498811167
 40
0.6783953366480482
 40
0.7157836729968236
 40
0.7526158927405996
 40
0.7887244159045741
 40
0.8240108266896368
 40
0.8584531632869967
 40
0.892093449157854
 40
0.925017122395263
 40
0.9573344011553936
 40
0.9891672344723832
 40
1.0
 40
1.0
 40
1.0
 40
1.0
 10
312.6362793636313
 20
229.5658053212998
 30
0.0
 10
312.6103166811734
 20
229.6762887303441
 30
0.0
 10
312.5111043209653
 20
230.0984839250378
 30
0.0
 10
312.3009280922305
 20
230.8313770774778
 30
0.0
 10
311.9897170431463
 20
231.7593739214853
 30
0.0
 10
311.6308135198903
 20
232.6768552486272
 30
0.0
 10
311.2280444825827
 20
233.5806703525352
 30
0.0
 10
310.7828952599249
 20
234.467652397652
 30
0.0
 10
310.297370819832
 20
235.3346880835946
 30
0.0
 10
309.7732632076955
 20
236.1786237122548
 30
0.0
 10
309.2123613989353
 20
236.9962924787152
 30
0.0
 10
308.6163585572074
 20
237.7845188367822
 30
0.0
 10
307.9868245120812
 20
238.5401734245706
 30
0.0
 10
307.3252105529294
 20
239.2600681008751
 30
0.0
 10
306.6329124727027
 20
239.9408835671486
 30
0.0
 10
305.9113268590996
 20
240.5790858045696
 30
0.0
 10
305.1619786360598
 20
241.1708376006394
 30
0.0
 10
304.3867251635142
 20
241.711913458397
 30
0.0
 10
303.588266040712
 20
242.1975274058051
 30
0.0
 10
302.7705046508828
 20
242.6225214703581
 30
0.0
 10
301.9386821256646
 20
242.9818234956413
 30
0.0
 10
301.0990799187875
 20
243.2710767549712
 30
0.0
 10
300.2585832123777
 20
243.4871501317006
 30
0.0
 10
299.4241322665238
 20
243.628464355128
 30
0.0
 10
298.6021501611425
 20
243.6949473019316
 30
0.0
 10
297.7981179289864
 20
243.6879507027632
 30
0.0
 10
297.0169139705235
 20
243.6091447243865
 30
0.0
 10
296.2617318805654
 20
243.4626831424008
 30
0.0
 10
295.5388551654057
 20
243.2458877829776
 30
0.0
 10
294.9918023288507
 20
243.0390802485632
 30
0.0
 10
294.6980614104421
 20
242.8845363525409
 30
0.0
 10
294.6234807979309
 20
242.8452977660761
 30
0.0
  0
SPLINE
  5
249
330
1F
100
AcDbEntity
  8
0
  6
Continuous
 62
     7
370
    25
100
AcDbSpline
210
0.0
220
0.0
230
1.0
 70
     8
 71
     3
 72
    26
 73
    22
 74
     0
 42
0.000000001
 43
0.00000001
 40
0.0
 40
0.0
 40
0.0
 40
0.0
 40
0.0278500973998839
 40
0.0808094915632616
 40
0.1341294487253557
 40
0.1878958605625493
 40
0.2421005501011645
 40
0.2967157612261915
 40
0.351701004735907
 40
0.4070071870931971
 40
0.4625804706100308
 40
0.5183641202496609
 40
0.5742998596868282
 40
0.6303285905947748
 40
0.6863913468042564
 40
0.7424168322226479
 40
0.7983378098253197
 40
0.8540951980633371
 40
0.9096309290101452
 40
0.9648882038672754
 40
1.0
 40
1.0
 40
1.0
 40
1.0
 10
320.6801520104066
 20
216.8052170636821
 30
0.0
 10
320.597149443127
 20
216.8541656200415
 30
0.0
 10
320.3563102401613
 20
216.9961941341741
 30
0.0
 10
319.9420252597382
 20
217.269799558266
 30
0.0
 10
319.4366244103277
 20
217.6421019509594
 30
0.0
 10
318.9203221875171
 20
218.06502105661
 30
0.0
 10
318.3985626654438
 20
218.5362994395942
 30
0.0
 10
317.8764180831926
 20
219.0539397788227
 30
0.0
 10
317.3589650614144
 20
219.6150085769813
 30
0.0
 10
316.8510538319601
 20
220.2160883821471
 30
0.0
 10
316.3573109224436
 20
220.8532396894267
 30
0.0
 10
315.8820859826499
 20
221.5220896352289
 30
0.0
 10
315.429426137337
 20
222.2178816401861
 30
0.0
 10
315.0030430758459
 20
222.9355298976464
 30
0.0
 10
314.6063195375848
 20
223.6696080004602
 30
0.0
 10
314.2422406633484
 20
224.4144203645442
 30
0.0
 10
313.9134244686754
 20
225.1640320435149
 30
0.0
 10
313.621738766057
 20
225.9125456899039
 30
0.0
 10
313.3695318676903
 20
226.6534954593867
 30
0.0
 10
313.1806186518206
 20
227.2950830576977
 30
0.0
 10
313.0849849880937
 20
227.6837374171041
 30
0.0
 10
313.0478276989082
 20
227.8347443101052
 30
0.0
  0
LINE
  5
24A
330
1F
100
AcDbEntity
  8
0
  6
Continuous
 62
     7
370
    25
100
AcDbLine
 10
325.0102151764
 20
214.3055248054
 30
0.0
 11
320.6801520104
 21
216.8052170637
 31
0.0
  0
LINE
  5
24B
330
1F
100
AcDbEntity
  8
0
  6
Continuous
 62
     7
370
    25
100
AcDbLine
 10
313.0478276989
 20
227.8347443101
 30
0.0
 11
312.6379384019
 21
229.5664992457
 31
0.0
  0
LINE
  5
24C
330
1F
100
AcDbEntity
  8
0
  6
Continuous
 62
     7
370
    25
100
AcDbLine
 10
279.0718126305
 20
231.239599686
 30
0.0
 11
278.6621301164
 21
229.9817278653
 31
0.0
  0
SPLINE
  5
24D
330
1F
100
AcDbEntity
  8
0
  6
Continuous
 62
     7
370
    25
100
AcDbSpline
210
0.0
220
0.0
230
1.0
 70
     8
 71
     3
 72
    14
 73
    10
 74
     0
 42
0.000000001
 43
0.00000001
 40
0.0
 40
0.0
 40
0.0
 40
0.0
 40
0.081479105991849
 40
0.2381220609901023
 40
0.3979448928256657
 40
0.5647659921457798
 40
0.743734992841947
 40
0.9447713141695762
 40
1.0
 40
1.0
 40
1.0
 40
1.0
 10
278.6621301164338
 20
229.9817278653146
 30
0.0
 10
278.6451716333786
 20
229.9319660370607
 30
0.0
 10
278.5956105969976
 20
229.786537476472
 30
0.0
 10
278.510194439223
 20
229.5917345385848
 30
0.0
 10
278.4127033568591
 20
229.414664787887
 30
0.0
 10
278.3248998223704
 20
229.289956574728
 30
0.0
 10
278.2524321293438
 20
229.2102978432667
 30
0.0
 10
278.21270335894
 20
229.1753260293546
 30
0.0
 10
278.1948243347354
 20
229.1647980035632
 30
0.0
 10
278.190971155475
 20
229.1625290670615
 30
0.0
  0
LINE
  5
24E
330
1F
100
AcDbEntity
  8
0
  6
Continuous
 62
     7
370
    25
100
AcDbLine
 10
255.1334866406
 20
230.2782907246
 30
0.0
 11
266.2353695676
 21
218.2084156433
 31
0.0
  0
LINE
  5
24F
330
1F
100
AcDbEntity
  8
0
  6
Continuous
 62
     7
370
    25
100
AcDbLine
 10
284.9001960964
 20
237.4605459518
 30
0.0
 11
282.4130275892
 21
238.8963577689
 31
0.0
  0
LINE
  5
250
330
1F
100
AcDbEntity
  8
0
  6
Continuous
 62
     7
370
    25
100
AcDbLine
 10
282.0349359491
 20
239.0479812462
 30
0.0
 11
265.0158225178
 21
243.2070299388
 31
0.0
  0
LINE
  5
251
330
1F
100
AcDbEntity
  8
0
  6
Continuous
 62
     7
370
    25
100
AcDbLine
 10
308.1819915721
 20
202.1521844628
 30
0.0
 11
325.2912162826
 21
193.4360850959
 31
0.0
  0
SPLINE
  5
252
330
1F
100
AcDbEntity
  8
0
  6
Continuous
 62
     7
370
    25
100
AcDbSpline
210
0.0
220
0.0
230
1.0
 70
     8
 71
     3
 72
    22
 73
    18
 74
     0
 42
0.000000001
 43
0.00000001
 40
0.0
 40
0.0
 40
0.0
 40
0.0
 40
0.1250000000000001
 40
0.1250000000000001
 40
0.2500000000000003
 40
0.2500000000000003
 40
0.3750000000000004
 40
0.3750000000000004
 40
0.5000000000000003
 40
0.5000000000000003
 40
0.6250000000000002
 40
0.6250000000000002
 40
0.7500000000000001
 40
0.7500000000000001
 40
0.8750000000000001
 40
0.8750000000000001
 40
1.0
 40
1.0
 40
1.0
 40
1.0
 10
311.1388786011768
 20
207.4901732405407
 30
0.0
 10
310.953688484164
 20
207.3531758567676
 30
0.0
 10
310.7726229353804
 20
207.1976517990501
 30
0.0
 10
310.4165925710066
 20
206.8519522531705
 30
0.0
 10
310.2402054539728
 20
206.6599260192621
 30
0.0
 10
309.9002304154111
 20
206.2480235976289
 30
0.0
 10
309.7384519203561
 20
206.0307347152284
 30
0.0
 10
309.4305357179674
 20
205.5741768097258
 30
0.0
 10
309.2830380976807
 20
205.332197281279
 30
0.0
 10
309.0139191866875
 20
204.8421601586015
 30
0.0
 10
308.8916302803722
 20
204.5936595732405
 30
0.0
 10
308.6712837881222
 20
204.0898529414475
 30
0.0
 10
308.5730587019426
 20
203.833184083217
 30
0.0
 10
308.4090946879649
 20
203.3340525952896
 30
0.0
 10
308.3420962257537
 20
203.0890414230829
 30
0.0
 10
308.2382164329915
 20
202.6084559253892
 30
0.0
 10
308.2018763325861
 20
202.3743211696631
 30
0.0
 10
308.1819919498518
 20
202.1521840580127
 30
0.0
  0
LINE
  5
253
330
1F
100
AcDbEntity
  8
0
  6
Continuous
 62
     7
370
    25
100
AcDbLine
 10
328.2770834235
 20
198.759311133
 30
0.0
 11
311.1388788034
 21
207.490173682
 31
0.0
  0
ELLIPSE
  5
254
330
1F
100
AcDbEntity
  8
0
  6
Continuous
 62
     7
370
    25
100
AcDbEllipse
 10
328.5426020386
 20
195.2082008239
 30
0.0
 11
2.295668999357815
 21
3.877201131492257
 31
0.0
210
0.0
220
0.0
230
1.0
 40
0.5938511825
 41
0.865671359585869
 42
2.354713139411432
  0
ELLIPSE
  5
255
330
1F
100
AcDbEntity
  8
0
  6
Continuous
 62
     7
370
    25
100
AcDbEllipse
 10
332.581416442
 20
191.6762218868
 30
0.0
 11
21.54650968394014
 21
-15.70999335143725
 31
0.0
210
0.0
220
0.0
230
1.0
 40
0.1318553326
 41
3.089523522261089
 42
3.10026825669683
  0
LINE
  5
256
330
1F
100
AcDbEntity
  8
0
  6
Continuous
 62
     7
370
    25
100
AcDbLine
 10
317.01806585
 20
211.2138383415
 30
0.0
 11
311.1719179814
 21
207.512786543
 31
0.0
  0
LINE
  5
257
330
1F
100
AcDbEntity
  8
0
  6
Continuous
 62
     7
370
    25
100
AcDbLine
 10
317.01806585
 20
211.2138383415
 30
0.0
 11
331.1602024748
 21
200.6001345687
 31
0.0
  0
LINE
  5
258
330
1F
100
AcDbEntity
  8
0
  6
Continuous
 62
     7
370
    25
100
AcDbLine
 10
331.1602024748
 20
200.6001345687
 30
0.0
 11
328.2770834235
 21
198.759311133
 31
0.0
  0
LINE
  5
259
330
1F
100
AcDbEntity
  8
0
  6
Continuous
 62
     7
370
    25
100
AcDbLine
 10
325.2912162826
 20
191.1895069914
 30
0.0
 11
308.1819915721
 21
195.3705764008
 31
0.0
  0
ELLIPSE
  5
25A
330
1F
100
AcDbEntity
  8
0
  6
Continuous
 62
     7
370
    25
100
AcDbEllipse
 10
326.5135003747
 20
188.5250626024
 30
0.0
 11
18.29173728650795
 21
-7.144417271528027
 31
0.0
210
0.0
220
0.0
230
1.0
 40
0.1746959327
 41
3.209720085420002
 42
3.227072645285679
  0
LINE
  5
25B
330
1F
100
AcDbEntity
  8
0
  6
Continuous
 62
     7
370
    25
100
AcDbLine
 10
308.1792309535
 20
195.435374134
 30
0.0
 11
308.1792309535
 21
202.089467018
 31
0.0
  0
ELLIPSE
  5
25C
330
1F
100
AcDbEntity
  8
0
  6
Continuous
 62
     7
370
    25
100
AcDbEllipse
 10
326.5135003747
 20
195.1791552704
 30
0.0
 11
18.29173728650795
 21
-7.144417271528027
 31
0.0
210
0.0
220
0.0
230
1.0
 40
0.1746959327
 41
3.192367525554323
 42
3.209720085419994
  0
LINE
  5
25D
330
1F
100
AcDbEntity
  8
0
  6
Continuous
 62
     7
370
    25
100
AcDbLine
 10
325.2912162826
 20
191.1895069914
 30
0.0
 11
325.2912162826
 21
193.4360850959
 31
0.0
  0
LINE
  5
25E
330
1F
100
AcDbEntity
  8
0
  6
Continuous
 62
     7
370
    25
100
AcDbLine
 10
265.7528250306
 20
226.5817098252
 30
0.0
 11
269.9974104365
 21
224.1313628274
 31
0.0
  0
ELLIPSE
  5
25F
330
1F
100
AcDbEntity
  8
0
  6
Continuous
 62
     7
370
    25
100
AcDbEllipse
 10
269.9768155894
 20
235.9993423076
 30
0.0
 11
-7.257439459179921
 21
12.58753842626416
 31
0.0
210
0.0
220
0.0
230
1.0
 40
0.5762235044
 41
2.357911960092978
 42
3.620106117583886
  0
LINE
  5
260
330
1F
100
AcDbEntity
  8
0
  6
Continuous
 62
     7
370
    25
100
AcDbLine
 10
279.7589274334
 20
226.7512323692
 30
0.0
 11
280.169469348
 21
228.0117404152
 31
0.0
  0
LWPOLYLINE
  5
261
330
1F
100
AcDbEntity
  8
0
  6
Continuous
 62
     7
370
    25
100
AcDbPolyline
 90
       30
 70
   128
 43
0.0
 10
280.169469348
 20
228.0117404152
 10
280.3815654606
 20
228.5645636064
 10
280.6438643967
 20
229.0644659526
 10
280.9543674737
 20
229.5076339252
 10
281.3107065655
 20
229.8906893258
 10
281.7101651761
 20
230.2107121022
 10
282.1496972077
 20
230.4652614531
 10
282.6259513276
 20
230.6523982638
 10
283.1352966504
 20
230.7706930938
 10
283.6738497392
 20
230.8192455709
 10
284.2375039105
 20
230.7976857248
 10
284.8219619967
 20
230.7061763665
 10
285.4227676271
 20
230.5454163235
 10
286.0353398015
 20
230.3166326482
 10
286.6550081429
 20
230.0215678714
 10
287.2770478412
 20
229.6624719971
 10
287.8967161826
 20
229.2420829359
 10
288.509288357
 20
228.763605833
 10
289.1100939874
 20
228.2306904604
 10
289.6945520736
 20
227.6473988759
 10
290.2582062449
 20
227.0181774682
 10
290.7967593337
 20
226.3478248301
 10
291.3061046565
 20
225.641452408
 10
291.7823587764
 20
224.9044442948
 10
292.2218908081
 20
224.142422062
 10
292.6213494186
 20
223.3611941909
 10
292.9776885104
 20
222.5667184322
 10
293.2881915874
 20
221.7650512378
 10
293.5504905235
 20
220.9623049862
 10
293.7625866361
 20
220.1646008359
  0
LINE
  5
262
330
1F
100
AcDbEntity
  8
0
  6
Continuous
 62
     7
370
    25
100
AcDbLine
 10
293.7625866361
 20
220.1646008359
 30
0.0
 11
294.1731285507
 21
218.4300911847
 31
0.0
  0
ELLIPSE
  5
263
330
1F
100
AcDbEntity
  8
0
  6
Continuous
 62
     7
370
    25
100
AcDbEllipse
 10
303.9552409215
 20
216.3840148874
 30
0.0
 11
-7.242824440172341
 21
12.56233436133669
 31
0.0
210
0.0
220
0.0
230
1.0
 40
0.5785413266
 41
1.093716373114131
 42
2.35591053060501
  0
LINE
  5
264
330
1F
100
AcDbEntity
  8
0
  6
Continuous
 62
     7
370
    25
100
AcDbLine
 10
303.9346455476
 20
204.5398140157
 30
0.0
 11
308.1792309535
 21
202.089467018
 31
0.0
  0
LINE
  5
265
330
1F
100
AcDbEntity
  8
0
  6
Continuous
 62
     7
370
    25
100
AcDbLine
 10
308.1792309535
 20
195.435374134
 30
0.0
 11
265.7528250306
 21
219.9276169412
 31
0.0
  0
LINE
  5
266
330
1F
100
AcDbEntity
  8
0
  6
Continuous
 62
     7
370
    25
100
AcDbLine
 10
265.7528250306
 20
219.9276169412
 30
0.0
 11
265.7528250306
 21
226.5817098252
 31
0.0
  0
LWPOLYLINE
  5
267
330
1F
100
AcDbEntity
  8
0
  6
Continuous
 62
     7
370
    25
100
AcDbPolyline
 90
       54
 70
   128
 43
0.0
 10
283.090800115
 20
227.5351276834
 10
283.1179999789
 20
226.9901570523
 10
283.1992176145
 20
226.4214308268
 10
283.3333130814
 20
225.8369356615
 10
283.5184039301
 20
225.244874683
 10
283.7518918732
 20
224.6535600774
 10
284.0304993347
 20
224.0712916092
 10
284.3503150542
 20
223.5062436024
 10
284.7068497337
 20
222.966347644
 10
285.0950981058
 20
222.4591829879
 10
285.5096103853
 20
221.9918699073
 10
285.9445676729
 20
221.5709676091
 10
286.3938639028
 20
221.2023843406
 10
286.8511920915
 20
220.8912948998
 10
287.3101323147
 20
220.6420655117
 10
287.7642420523
 20
220.4581955903
 10
288.207146655
 20
220.3422662733
 10
288.6326286396
 20
220.2959048433
 10
289.0347151721
 20
220.3197616009
 10
289.407762032
 20
220.413501698
 10
289.7465319795
 20
220.575810088
 10
290.0462701586
 20
220.8044080731
 10
290.3027683054
 20
221.0960854395
 10
290.5124258277
 20
221.446748848
 10
290.6722996901
 20
221.8514759263
 10
290.7801459022
 20
222.3045833347
 10
290.8344498116
 20
222.7997134611
 10
290.8344498116
 20
223.3299142726
 10
290.7801459022
 20
223.8877408373
 10
290.6722996901
 20
224.4653663527
 10
290.5124258277
 20
225.0546798635
 10
290.3027683054
 20
225.6474079342
 10
290.0462701586
 20
226.2352325177
 10
289.7465319795
 20
226.8099000777
 10
289.407762032
 20
227.363344684
 10
289.0347151721
 20
227.8877947572
 10
288.6326286396
 20
228.3758907435
 10
288.207146655
 20
228.8207803563
 10
287.7642420523
 20
229.2162185694
 10
287.3101323147
 20
229.5566525909
 10
286.8511920915
 20
229.8373043057
 10
286.3938639028
 20
230.0542355127
 10
285.9445676729
 20
230.2043986295
 10
285.5096103853
 20
230.2856858052
 10
285.0950981058
 20
230.2969584155
 10
284.7068497337
 20
230.2380573092
 10
284.3503150542
 20
230.1098075296
 10
284.0304993347
 20
229.9140101323
 10
283.7518918732
 20
229.6534149923
 10
283.5184039301
 20
229.3316790671
 10
283.3333130814
 20
228.9533194338
 10
283.1992176145
 20
228.5236468386
 10
283.1179999789
 20
228.0486940202
 10
283.090800115
 20
227.5351276834
  0
LINE
  5
268
330
1F
100
AcDbEntity
  8
0
  6
Continuous
 62
     7
370
    25
100
AcDbLine
 10
331.1602024748
 20
190.8016447409
 30
0.0
 11
328.2770834235
 21
189.3136897751
 31
0.0
  0
ELLIPSE
  5
269
330
1F
100
AcDbEntity
  8
0
  6
Continuous
 62
     7
370
    25
100
AcDbEllipse
 10
328.5426020386
 20
193.1713625684
 30
0.0
 11
2.35680980102029
 21
3.991135575674094
 31
0.0
210
0.0
220
0.0
230
1.0
 40
0.5612079845
 41
2.381631926442116
 42
3.870673706267713
  0
LINE
  5
26A
330
1F
100
AcDbEntity
  8
0
  6
Continuous
 62
     7
370
    25
100
AcDbLine
 10
331.1602024748
 20
200.6001345687
 30
0.0
 11
334.0433221845
 21
202.0880899147
 31
0.0
  0
ELLIPSE
  5
26B
330
1F
100
AcDbEntity
  8
0
  6
Continuous
 62
     7
370
    25
100
AcDbEllipse
 10
333.7778021207
 20
198.2304175016
 30
0.0
 11
2.35680980102029
 21
3.991135575674122
 31
0.0
210
0.0
220
0.0
230
1.0
 40
0.5612079845
 41
5.523224580031919
 42
7.012266359857485
  0
LINE
  5
26C
330
1F
100
AcDbEntity
  8
0
  6
Continuous
 62
     7
370
    25
100
AcDbLine
 10
337.0291889962
 20
197.9656944038
 30
0.0
 11
337.0291889962
 21
200.2122725083
 31
0.0
  0
ELLIPSE
  5
26D
330
1F
100
AcDbEntity
  8
0
  6
Continuous
 62
     7
370
    25
100
AcDbEllipse
 10
333.7778021207
 20
196.1935792461
 30
0.0
 11
2.295668999357815
 21
3.877201131492257
 31
0.0
210
0.0
220
0.0
230
1.0
 40
0.5938511825
 41
4.007264013175678
 42
5.49630579300124
  0
LINE
  5
26E
330
1F
100
AcDbEntity
  8
0
  6
Continuous
 62
     7
370
    25
100
AcDbLine
 10
331.1602024748
 20
190.8016447409
 30
0.0
 11
334.0433221845
 21
192.6424685567
 31
0.0
  0
SPLINE
  5
26F
330
1F
100
AcDbEntity
  8
0
  6
Continuous
 62
     7
370
    25
100
AcDbSpline
210
0.0
220
0.0
230
1.0
 70
     8
 71
     3
 72
    13
 73
     9
 74
     0
 42
0.000000001
 43
0.00000001
 40
0.0
 40
0.0
 40
0.0
 40
0.0
 40
0.1207256524063946
 40
0.2991345816817206
 40
0.4827557979247444
 40
0.660528872023825
 40
0.8434472961629532
 40
1.0
 40
1.0
 40
1.0
 40
1.0
 10
309.5784062252919
 20
193.1886425484324
 30
0.0
 10
309.4854937577849
 20
193.210858350769
 30
0.0
 10
309.2552748146961
 20
193.2659047688767
 30
0.0
 10
308.9388272551565
 20
193.4912386420841
 30
0.0
 10
308.6375418260648
 20
193.8361131008344
 30
0.0
 10
308.4050233011458
 20
194.2914077688886
 30
0.0
 10
308.2486904506553
 20
194.803744926844
 30
0.0
 10
308.2030427577524
 20
195.1916757226908
 30
0.0
 10
308.1819915720729
 20
195.3705764007942
 30
0.0
  0
LINE
  5
270
330
1F
100
AcDbEntity
  8
0
  6
Continuous
 62
     7
370
    25
100
AcDbLine
 10
317.01806585
 20
211.2138383415
 30
0.0
 11
322.8186901832
 21
214.2363250206
 31
0.0
  0
ELLIPSE
  5
271
330
1F
100
AcDbEntity
  8
0
  6
Continuous
 62
     7
370
    25
100
AcDbEllipse
 10
343.895124941
 20
198.2074867813
 30
0.0
 11
21.22493818386267
 21
-15.90566097923105
 31
0.0
210
0.0
220
0.0
230
1.0
 40
0.1215302991
 41
3.072607196504215
 42
3.083351930939948
  0
LINE
  5
272
330
1F
100
AcDbEntity
  8
0
  6
Continuous
 62
     7
370
    25
100
AcDbLine
 10
334.0433221845
 20
202.0880899147
 30
0.0
 11
322.8539157289
 21
214.2531205457
 31
0.0
  0
SPLINE
  5
273
330
1F
100
AcDbEntity
  8
0
  6
Continuous
 62
     7
370
    25
100
AcDbSpline
210
0.0
220
0.0
230
1.0
 70
     8
 71
     3
 72
    13
 73
     9
 74
     0
 42
0.000000001
 43
0.00000001
 40
0.0
 40
0.0
 40
0.0
 40
0.0
 40
0.1849577933714704
 40
0.3752547347297557
 40
0.5602202973777357
 40
0.7505980095739117
 40
0.9347051126859958
 40
1.0
 40
1.0
 40
1.0
 40
1.0
 10
322.8539157289347
 20
214.2531205457049
 30
0.0
 10
323.0411465994981
 20
214.3248073310079
 30
0.0
 10
323.4210131051789
 20
214.4702502729468
 30
0.0
 10
323.9615265397645
 20
214.548189468267
 30
0.0
 10
324.4665589926256
 20
214.5233413169699
 30
0.0
 10
324.9027799019483
 20
214.3793915110131
 30
0.0
 10
325.2072801486079
 20
214.2023144687656
 30
0.0
 10
325.3309533257276
 20
214.0451063699177
 30
0.0
 10
325.3633316806477
 20
214.0039483780284
 30
0.0
  0
SPLINE
  5
274
330
1F
100
AcDbEntity
  8
0
  6
Continuous
 62
     7
370
    25
100
AcDbSpline
210
0.0
220
0.0
230
1.0
 70
     8
 71
     3
 72
    24
 73
    20
 74
     0
 42
0.000000001
 43
0.00000001
 40
0.0
 40
0.0
 40
0.0
 40
0.0
 40
0.1250000000000001
 40
0.1250000000000001
 40
0.2500000000000002
 40
0.2500000000000002
 40
0.3750000000000002
 40
0.3750000000000002
 40
0.5000000000000003
 40
0.5000000000000003
 40
0.6250000000000004
 40
0.6250000000000004
 40
0.7500000000000004
 40
0.7500000000000004
 40
0.8750000000000006
 40
0.8750000000000006
 40
0.9375000000000003
 40
0.9375000000000003
 40
1.0
 40
1.0
 40
1.0
 40
1.0
 10
299.8083962751721
 20
221.2601008473056
 30
0.0
 10
299.5953692099663
 20
221.1451371318271
 30
0.0
 10
299.3685210032912
 20
221.0361537484638
 30
0.0
 10
298.8879837150707
 20
220.8310992706105
 30
0.0
 10
298.6317855122676
 20
220.7338190039733
 30
0.0
 10
298.1038616001511
 20
220.5564828673295
 30
0.0
 10
297.8345449160353
 20
220.476992809834
 30
0.0
 10
297.2853934549706
 20
220.3360418941771
 30
0.0
 10
297.0028062855989
 20
220.2742070132456
 30
0.0
 10
296.4480127796746
 20
220.1736954074918
 30
0.0
 10
296.1741147360141
 20
220.1343828509459
 30
0.0
 10
295.6333566962635
 20
220.0777762316177
 30
0.0
 10
295.3666529706562
 20
220.0608040728657
 30
0.0
 10
294.862888700613
 20
220.0506423987475
 30
0.0
 10
294.6227972402168
 20
220.0570643744045
 30
0.0
 10
294.2808825301377
 20
220.0844774229805
 30
0.0
 10
294.1702980661709
 20
220.0965965056071
 30
0.0
 10
293.9584228050097
 20
220.1265661179044
 30
0.0
 10
293.8581383673942
 20
220.1442320053967
 30
0.0
 10
293.7625869500984
 20
220.1646016303579
 30
0.0
  0
ARC
  5
275
330
1F
100
AcDbEntity
  8
0
  6
Continuous
 62
     7
370
    25
100
AcDbCircle
 10
295.5076253001
 20
228.2606758749
 30
0.0
 40
9.920749816725722
100
AcDbArc
 50
262.2693830577
 51
298.3464380668
  0
ELLIPSE
  5
276
330
1F
100
AcDbEntity
  8
0
  6
Continuous
 62
     7
370
    25
100
AcDbEllipse
 10
307.1372214369
 20
218.220933139
 30
0.0
 11
-4.940781997525335
 21
8.695422455837814
 31
0.0
210
0.0
220
0.0
230
1.0
 40
0.6030984536
 41
1.097807346033323
 42
2.360001503524197
  0
ARC
  5
277
330
1F
100
AcDbEntity
  8
0
  6
Continuous
 62
     7
370
    25
100
AcDbCircle
 10
310.8589022644
 20
204.2259138394
 30
0.0
 40
6.931368147845304
100
AcDbArc
 50
124.3280347303
 51
177.4043640123
  0
LINE
  5
278
330
1F
100
AcDbEntity
  8
0
  6
Continuous
 62
     7
370
    25
100
AcDbLine
 10
311.1719179814
 20
207.512786543
 30
0.0
 11
306.9500945078
 21
209.9499933569
 31
0.0
  0
LWPOLYLINE
  5
279
330
1F
100
AcDbEntity
  8
0
  6
Continuous
 62
     7
370
    25
100
AcDbPolyline
 90
       30
 70
   128
 43
0.0
 10
288.0326448728
 20
239.5474582839
 10
288.500345158
 20
239.8236540023
 10
289.0753677831
 20
240.0781968651
 10
289.6856001489
 20
240.2628815872
 10
290.3278483145
 20
240.3767397997
 10
290.9987530443
 20
240.4191784067
 10
291.6948033084
 20
240.3899733125
 10
292.4123580141
 20
240.2892781691
 10
293.1476623053
 20
240.11761953
 10
293.8968691296
 20
239.8758965666
 10
294.6560589124
 20
239.5653712322
 10
295.421259231
 20
239.1876721129
 10
296.1884665462
 20
238.7447727572
 10
296.9536668648
 20
238.2389903941
 10
297.7128566476
 20
237.672973863
 10
298.4620634719
 20
237.0496810394
 10
299.1973677631
 20
236.3723754147
 10
299.9149224688
 20
235.6445995293
 10
300.6109727329
 20
234.8701620947
 10
301.2818774627
 20
234.0531133746
 10
301.9241256283
 20
233.1977312138
 10
302.5343579941
 20
232.3084871992
 10
303.1093806192
 20
231.3900373451
 10
303.6461859309
 20
230.4471855939
 10
304.1419652368
 20
229.4848644244
 10
304.5941238717
 20
228.5081093786
 10
305.0002963435
 20
227.5220305449
 10
305.3583581877
 20
226.5317889858
 10
305.6664351867
 20
225.5425625172
 10
305.9229158821
 20
224.55952936
  0
LINE
  5
27A
330
1F
100
AcDbEntity
  8
0
  6
Continuous
 62
     7
370
    25
100
AcDbLine
 10
305.9229158821
 20
224.55952936
 30
0.0
 11
299.8083966385
 21
221.2601007414
 31
0.0
  0
LINE
  5
27B
330
1F
100
AcDbEntity
  8
0
  6
Continuous
 62
     7
370
    25
100
AcDbLine
 10
306.2649019963
 20
223.1146629447
 30
0.0
 11
300.2180139566
 21
219.5294952199
 31
0.0
  0
ELLIPSE
  5
27C
330
1F
100
AcDbEntity
  8
0
  6
Continuous
 62
     7
370
    25
100
AcDbEllipse
 10
313.011186511
 20
221.7035749002
 30
0.0
 11
-4.995051338049848
 21
8.663678869887377
 31
0.0
210
0.0
220
0.0
230
1.0
 40
0.5785413266
 41
1.093716373114135
 42
2.355910530605021
  0
LINE
  5
27D
330
1F
100
AcDbEntity
  8
0
  6
Continuous
 62
     7
370
    25
100
AcDbLine
 10
306.9500945078
 20
209.9499933569
 30
0.0
 11
312.9969825476
 21
213.5351603213
 31
0.0
  0
LINE
  5
27E
330
1F
100
AcDbEntity
  8
0
  6
Continuous
 62
     7
370
    25
100
AcDbLine
 10
312.9969825476
 20
213.5351603213
 30
0.0
 11
317.01806585
 21
211.2138383415
 31
0.0
  0
LINE
  5
27F
330
1F
100
AcDbEntity
  8
0
  6
Continuous
 62
     7
370
    25
100
AcDbLine
 10
300.2180139566
 20
219.5294952199
 30
0.0
 11
299.8083966385
 21
221.2601007414
 31
0.0
  0
LINE
  5
280
330
1F
100
AcDbEntity
  8
0
  6
Continuous
 62
     7
370
    25
100
AcDbLine
 10
305.9229158821
 20
224.55952936
 30
0.0
 11
311.4551688403
 21
227.983639219
 31
0.0
  0
LINE
  5
281
330
1F
100
AcDbEntity
  8
0
  6
Continuous
 62
     7
370
    25
100
AcDbLine
 10
305.9229158821
 20
224.55952936
 30
0.0
 11
306.2649019963
 21
223.1146629447
 31
0.0
  0
LINE
  5
282
330
1F
100
AcDbEntity
  8
0
  6
Continuous
 62
     7
370
    25
100
AcDbLine
 10
306.2649019963
 20
223.1146629447
 30
0.0
 11
311.8647861584
 21
226.2530336975
 31
0.0
  0
ELLIPSE
  5
283
330
1F
100
AcDbEntity
  8
0
  6
Continuous
 62
     7
370
    25
100
AcDbEllipse
 10
318.4509299358
 20
224.7521980335
 30
0.0
 11
-5.037077085095007
 21
8.639898090333361
 31
0.0
210
0.0
220
0.0
230
1.0
 40
0.5560444919
 41
1.091305317004531
 42
2.353499474495396
  0
LINE
  5
284
330
1F
100
AcDbEntity
  8
0
  6
Continuous
 62
     7
370
    25
100
AcDbLine
 10
318.5968667096
 20
216.6735318345
 30
0.0
 11
312.9969825476
 21
213.5351603213
 31
0.0
  0
LINE
  5
285
330
1F
100
AcDbEntity
  8
0
  6
Continuous
 62
     7
370
    25
100
AcDbLine
 10
322.8186901832
 20
214.2363250206
 30
0.0
 11
318.5968667096
 21
216.6735318345
 31
0.0
  0
SPLINE
  5
286
330
1F
100
AcDbEntity
  8
0
  6
Continuous
 62
     7
370
    25
100
AcDbSpline
210
0.0
220
0.0
230
1.0
 70
     8
 71
     3
 72
    12
 73
     8
 74
     0
 42
0.000000001
 43
0.00000001
 40
0.0
 40
0.0
 40
0.0
 40
0.0
 40
0.1535662506233508
 40
0.3753252224137121
 40
0.5900214047549049
 40
0.8109316159416113
 40
1.0
 40
1.0
 40
1.0
 40
1.0
 10
266.6060497831284
 20
217.9274733970544
 30
0.0
 10
266.5164298884151
 20
217.980431437623
 30
0.0
 10
266.2973934349013
 20
218.1098640979524
 30
0.0
 10
266.0441369662143
 20
218.4289137333488
 30
0.0
 10
265.8445188422485
 20
218.8599310213192
 30
0.0
 10
265.7424997083702
 20
219.3422855192994
 30
0.0
 10
265.7483330919046
 20
219.7003333616427
 30
0.0
 10
265.7510232528329
 20
219.8654530233825
 30
0.0
  0
ELLIPSE
  5
287
330
1F
100
AcDbEntity
  8
0
  6
Continuous
 62
     7
370
    25
100
AcDbEllipse
 10
253.7825171669
 20
230.5117654961
 30
0.0
 11
11.82568162930963
 21
-11.02572570573304
 31
0.0
210
0.0
220
0.0
230
1.0
 40
0.1682549776
 41
0.1382525307330605
 42
0.155605090598742
  0
LINE
  5
288
330
1F
100
AcDbEntity
  8
0
  6
Continuous
 62
     7
370
    25
100
AcDbLine
 10
311.8647861584
 20
226.2530336975
 30
0.0
 11
311.4551688403
 21
227.983639219
 31
0.0
  0
ARC
  5
289
330
1F
100
AcDbEntity
  8
0
  6
Continuous
 62
     7
370
    25
100
AcDbCircle
 10
276.9216671533
 20
223.8174626511
 30
0.0
 40
6.931368147845813
100
AcDbArc
 50
124.3280347303
 51
177.4043640123
  0
LINE
  5
28A
330
1F
100
AcDbEntity
  8
0
  6
Continuous
 62
     7
370
    25
100
AcDbLine
 10
278.6127432296
 20
233.384759169
 30
0.0
 11
273.0128593968
 21
229.5415421687
 31
0.0
  0
ELLIPSE
  5
28B
330
1F
100
AcDbEntity
  8
0
  6
Continuous
 62
     7
370
    25
100
AcDbEllipse
 10
278.5985395296
 20
241.5695731429
 30
0.0
 11
-5.005130661503358
 21
8.681060983630459
 31
0.0
210
0.0
220
0.0
230
1.0
 40
0.5762235044
 41
2.357911960092969
 42
2.522288840904174
  0
LINE
  5
28C
330
1F
100
AcDbEntity
  8
0
  6
Continuous
 62
     7
370
    25
100
AcDbLine
 10
273.0128593968
 20
229.5415421687
 30
0.0
 11
268.7910359233
 21
231.9787489826
 31
0.0
  0
ELLIPSE
  5
28D
330
1F
100
AcDbEntity
  8
0
  6
Continuous
 62
     7
370
    25
100
AcDbEllipse
 10
253.7825171669
 20
237.1658581641
 30
0.0
 11
11.82568162930963
 21
-11.02572570573304
 31
0.0
210
0.0
220
0.0
230
1.0
 40
0.1682549776
 41
0.1556050905987344
 42
0.1729576504644087
  0
SPLINE
  5
28E
330
1F
100
AcDbEntity
  8
0
  6
Continuous
 62
     7
370
    25
100
AcDbSpline
210
0.0
220
0.0
230
1.0
 70
     8
 71
     3
 72
    22
 73
    18
 74
     0
 42
0.000000001
 43
0.00000001
 40
0.0
 40
0.0
 40
0.0
 40
0.0
 40
0.1249999999999999
 40
0.1249999999999999
 40
0.2499999999999998
 40
0.2499999999999998
 40
0.3749999999999998
 40
0.3749999999999998
 40
0.4999999999999997
 40
0.4999999999999997
 40
0.6249999999999996
 40
0.6249999999999996
 40
0.7499999999999997
 40
0.7499999999999997
 40
0.8749999999999999
 40
0.8749999999999999
 40
1.0
 40
1.0
 40
1.0
 40
1.0
 10
265.7510226674416
 20
226.6470612366273
 30
0.0
 10
265.7380414296233
 20
226.8881509731123
 30
0.0
 10
265.7460324066558
 20
227.1346141672072
 30
0.0
 10
265.8019721284248
 20
227.638119607481
 30
0.0
 10
265.8505882466667
 20
227.897511240554
 30
0.0
 10
265.9870246689595
 20
228.4163307190973
 30
0.0
 10
266.0737480257001
 20
228.6730587008638
 30
0.0
 10
266.2832408655596
 20
229.1813882678872
 30
0.0
 10
266.4076288884548
 20
229.4354849881219
 30
0.0
 10
266.684568739118
 20
229.920744593838
 30
0.0
 10
266.8371618513935
 20
230.1530508041068
 30
0.0
 10
267.1702673170763
 20
230.5972210897715
 30
0.0
 10
267.3517991449789
 20
230.8095612039268
 30
0.0
 10
267.7279613382942
 20
231.1963265159165
 30
0.0
 10
267.9242349478853
 20
231.3731884062591
 30
0.0
 10
268.3327349869359
 20
231.6937392103269
 30
0.0
 10
268.5436225933635
 20
231.8359974597344
 30
0.0
 10
268.755810134042
 20
231.9573978670979
 30
0.0
  0
ELLIPSE
  5
28F
330
1F
100
AcDbEntity
  8
0
  6
Continuous
 62
     7
370
    25
100
AcDbEllipse
 10
247.7146010996
 20
240.6687915478
 30
0.0
 11
21.28255637736112
 21
-8.455644068254287
 31
0.0
210
0.0
220
0.0
230
1.0
 40
0.1341848096
 41
6.176639091165447
 42
6.187383825601182
  0
LINE
  5
290
330
1F
100
AcDbEntity
  8
0
  6
Continuous
 62
     7
370
    25
100
AcDbLine
 10
274.5916599271
 20
235.7060811488
 30
0.0
 11
268.7910359233
 21
231.9787489826
 31
0.0
  0
LINE
  5
291
330
1F
100
AcDbEntity
  8
0
  6
Continuous
 62
     7
370
    25
100
AcDbLine
 10
274.5916599271
 20
235.7060811488
 30
0.0
 11
278.6127432296
 21
233.384759169
 31
0.0
  0
LINE
  5
292
330
1F
100
AcDbEntity
  8
0
  6
Continuous
 62
     7
370
    25
100
AcDbLine
 10
268.7558103775
 20
231.9573982847
 30
0.0
 11
257.5664042512
 21
239.5797173325
 31
0.0
  0
LINE
  5
293
330
1F
100
AcDbEntity
  8
0
  6
Continuous
 62
     7
370
    25
100
AcDbLine
 10
254.5805371102
 20
234.2564912953
 30
0.0
 11
265.7510232528
 21
226.6470610854
 31
0.0
  0
ELLIPSE
  5
294
330
1F
100
AcDbEntity
  8
0
  6
Continuous
 62
     7
370
    25
100
AcDbEllipse
 10
257.8319239199
 20
236.028606415
 30
0.0
 11
2.295668999357757
 21
3.877201131492228
 31
0.0
210
0.0
220
0.0
230
1.0
 40
0.5938511825
 41
0.865671359585868
 42
2.354713139411429
  0
LINE
  5
295
330
1F
100
AcDbEntity
  8
0
  6
Continuous
 62
     7
370
    25
100
AcDbLine
 10
260.4495233024
 20
241.4205407681
 30
0.0
 11
257.5664042512
 21
239.5797173325
 31
0.0
  0
LINE
  5
296
330
1F
100
AcDbEntity
  8
0
  6
Continuous
 62
     7
370
    25
100
AcDbLine
 10
260.4495233024
 20
241.4205407681
 30
0.0
 11
274.5916599271
 21
235.7060811488
 31
0.0
  0
LINE
  5
297
330
1F
100
AcDbEntity
  8
0
  6
Continuous
 62
     7
370
    25
100
AcDbLine
 10
265.7510232528
 20
219.8654530234
 30
0.0
 11
254.5805371102
 21
232.0099131908
 31
0.0
  0
LINE
  5
298
330
1F
100
AcDbEntity
  8
0
  6
Continuous
 62
     7
370
    25
100
AcDbLine
 10
254.5805371102
 20
232.0099131908
 30
0.0
 11
254.5805371102
 21
234.2564912953
 31
0.0
  0
LINE
  5
299
330
1F
100
AcDbEntity
  8
0
  6
Continuous
 62
     7
370
    25
100
AcDbLine
 10
274.5916599271
 20
235.7060811488
 30
0.0
 11
280.4378081251
 21
238.7022874601
 31
0.0
  0
ELLIPSE
  5
29A
330
1F
100
AcDbEntity
  8
0
  6
Continuous
 62
     7
370
    25
100
AcDbEllipse
 10
257.8319239199
 20
233.9917681595
 30
0.0
 11
2.356809801020234
 21
3.991135575674065
 31
0.0
210
0.0
220
0.0
230
1.0
 40
0.5612079845
 41
2.38163192644211
 42
2.973438451295724
  0
LINE
  5
29B
330
1F
100
AcDbEntity
  8
0
  6
Continuous
 62
     7
370
    25
100
AcDbLine
 10
260.4495233024
 20
241.4205407681
 30
0.0
 11
263.3326430122
 21
242.9084961141
 31
0.0
  0
LINE
  5
29C
330
1F
100
AcDbEntity
  8
0
  6
Continuous
 62
     7
370
    25
100
AcDbLine
 10
280.470847303
 20
238.7203451485
 30
0.0
 11
263.3326430122
 21
242.9084961141
 31
0.0
  0
ELLIPSE
  5
29D
330
1F
100
AcDbEntity
  8
0
  6
Continuous
 62
     7
370
    25
100
AcDbEllipse
 10
259.0283095986
 20
247.2000564423
 30
0.0
 11
21.62458007881071
 21
-8.283194709008173
 31
0.0
210
0.0
220
0.0
230
1.0
 40
0.1158285123
 41
6.179610853952077
 42
6.190355588387811
  0
SPLINE
  5
29E
330
1F
100
AcDbEntity
  8
0
  6
Continuous
 62
     7
370
    25
100
AcDbSpline
210
0.0
220
0.0
230
1.0
 70
     8
 71
     3
 72
    12
 73
     8
 74
     0
 42
0.000000001
 43
0.00000001
 40
0.0
 40
0.0
 40
0.0
 40
0.0
 40
0.0935237841191805
 40
0.3284176650265342
 40
0.5570401723516283
 40
0.7922231971049065
 40
1.0
 40
1.0
 40
1.0
 40
1.0
 10
282.4055093980933
 20
238.8835893993841
 30
0.0
 10
282.3572464644797
 20
238.9156133801211
 30
0.0
 10
282.1877665817525
 20
239.02806863498
 30
0.0
 10
281.8473899493143
 20
239.0975037851528
 30
0.0
 10
281.3949990487731
 20
239.0880891427763
 30
0.0
 10
280.9323357039922
 20
238.9643143157031
 30
0.0
 10
280.6181981359528
 20
238.7982432276466
 30
0.0
 10
280.4708473030274
 20
238.7203451484621
 30
0.0
  0
ELLIPSE
  5
29F
330
1F
100
AcDbEntity
  8
0
  6
Continuous
 62
     7
370
    25
100
AcDbEllipse
 10
263.067124002
 20
239.0508230927
 30
0.0
 11
2.35680980102029
 21
3.991135575674094
 31
0.0
210
0.0
220
0.0
230
1.0
 40
0.5612079845
 41
0.1681542022940479
 42
0.7290810526779044
  0
SPLINE
  5
2A0
330
1F
100
AcDbEntity
  8
0
  6
Continuous
 62
     8
370
    25
100
AcDbSpline
210
0.0
220
0.0
230
1.0
 70
     8
 71
     3
 72
    14
 73
    10
 74
     0
 42
0.000000001
 43
0.00000001
 40
0.0
 40
0.0
 40
0.0
 40
0.0
 40
0.1489738787373561
 40
0.3166636058940464
 40
0.4892162129859463
 40
0.6569061053144167
 40
0.8294591265477848
 40
0.9374972033041031
 40
1.0
 40
1.0
 40
1.0
 40
1.0
 10
279.0773779901203
 20
231.2316099835551
 30
0.0
 10
279.0340471899621
 20
231.0768527029631
 30
0.0
 10
278.941941865588
 20
230.7478957144898
 30
0.0
 10
278.9518022353502
 20
230.2037852442276
 30
0.0
 10
279.0745090744137
 20
229.6323462332558
 30
0.0
 10
279.3232588200323
 20
229.0607429967167
 30
0.0
 10
279.6415333644795
 20
228.581090731505
 30
0.0
 10
279.9405297213025
 20
228.2341872077729
 30
0.0
 10
280.1080672643116
 20
228.0714011073157
 30
0.0
 10
280.1694693480328
 20
228.011740415214
 30
0.0
  0
LWPOLYLINE
  5
2A1
330
1F
100
AcDbEntity
  8
0
  6
Continuous
 62
     8
370
    25
100
AcDbPolyline
 90
       30
 70
   128
 43
0.0
 10
299.8083966385
 20
221.2601007414
 10
299.559289666
 20
222.2148708465
 10
299.2600687735
 20
223.1756537921
 10
298.9122993214
 20
224.1374242061
 10
298.5178015266
 20
225.0951510368
 10
298.0786386091
 20
226.0438211261
 10
297.5971095478
 20
226.9784707683
 10
297.0757332754
 20
227.8942115641
 10
296.5172374832
 20
228.7862505717
 10
295.9245441333
 20
229.649919964
 10
295.3007556288
 20
230.4807017417
 10
294.6491347285
 20
231.2742484545
 10
293.9730913759
 20
232.0264075346
 10
293.2761626134
 20
232.733245059
 10
292.561995296
 20
233.3910618131
 10
291.8343258406
 20
233.996415627
 10
291.0969617045
 20
234.5461396726
 10
290.353761053
 20
235.0373572432
 10
289.6086124681
 20
235.4674980301
 10
288.8654148213
 20
235.8343127837
 10
288.1280567767
 20
236.1358790621
 10
287.4003963763
 20
236.3706221423
 10
286.686240748
 20
236.5373115249
 10
285.9893271321
 20
236.6350779713
 10
285.3133015602
 20
236.6634060395
 10
284.6617010747
 20
236.6221504329
 10
284.0379349608
 20
236.5115255416
 10
283.4452679526
 20
236.3321120953
 10
282.8867998194
 20
236.0848461344
 10
282.4315420741
 20
235.8158706577
  0
LWPOLYLINE
  5
2A2
330
1F
100
AcDbEntity
  8
0
  6
Continuous
 62
     8
370
    25
100
AcDbPolyline
 90
       29
 70
   128
 43
0.0
 10
311.4551688403
 20
227.983639219
 10
311.2060618678
 20
228.9384093241
 10
310.9068409753
 20
229.8991922697
 10
310.5590715232
 20
230.8609626837
 10
310.1645737284
 20
231.8186895143
 10
309.7254108109
 20
232.7673596037
 10
309.2438817496
 20
233.7020092459
 10
308.7225054772
 20
234.6177500417
 10
308.164009685
 20
235.5097890493
 10
307.5713163351
 20
236.3734584416
 10
306.9475278306
 20
237.2042402192
 10
306.2959069303
 20
237.9977869321
 10
305.6198635777
 20
238.7499460121
 10
304.9229348152
 20
239.4567835365
 10
304.2087674978
 20
240.1146002906
 10
303.4810980424
 20
240.7199541045
 10
302.7437339063
 20
241.2696781502
 10
302.0005332548
 20
241.7608957208
 10
301.2553846699
 20
242.1910365077
 10
300.5121870231
 20
242.5578512613
 10
299.7748289785
 20
242.8594175397
 10
299.0471685781
 20
243.0941606199
 10
298.3330129498
 20
243.2608500025
 10
297.6360993339
 20
243.3586164488
 10
296.960073762
 20
243.3869445171
 10
296.3084732765
 20
243.3456889104
 10
295.6847071626
 20
243.2350640191
 10
295.0920401544
 20
243.0556505728
 10
294.6196279833
 20
242.8520234848
  0
LWPOLYLINE
  5
2A3
330
1F
100
AcDbEntity
  8
0
  6
Continuous
 62
     8
370
    25
100
AcDbPolyline
 90
       28
 70
   128
 43
0.0
 10
289.8719705495
 20
221.2271818895
 10
289.5969007891
 20
221.0826055815
 10
289.2508567236
 20
220.9806094862
 10
288.8753223764
 20
220.9470313712
 10
288.4759903711
 20
220.9823796648
 10
288.0589141309
 20
221.0861187612
 10
287.6304162388
 20
221.2566755351
 10
287.1969921765
 20
221.4914660143
 10
286.765212253
 20
221.7869291815
 10
286.3416217728
 20
222.1385876472
 10
285.9326419258
 20
222.5411101888
 10
285.5444725791
 20
222.9883944833
 10
285.1829978279
 20
223.4736604153
 10
284.8536972565
 20
223.989551496
 10
284.5615627969
 20
224.5282482587
 10
284.3110228315
 20
225.0815843179
 10
284.1058753513
 20
225.6411708884
 10
283.9492303326
 20
226.1985266295
 10
283.8434621577
 20
226.7452001693
 10
283.7901740532
 20
227.2729069855
 10
283.7901740532
 20
227.7736474646
 10
283.8434621577
 20
228.2398291449
 10
283.9492303326
 20
228.6643853494
 10
284.1058753513
 20
229.0408818411
 10
284.3110228315
 20
229.3636109331
 10
284.5615627969
 20
229.627678945
 10
284.8536972565
 20
229.8290852005
 10
284.8739391037
 20
229.8398851977
  0
SPLINE
  5
2A4
330
1F
100
AcDbEntity
  8
0
  6
Continuous
 62
     8
370
    25
100
AcDbSpline
210
0.0
220
0.0
230
1.0
 70
     8
 71
     3
 72
    13
 73
     9
 74
     0
 42
0.000000001
 43
0.00000001
 40
0.0
 40
0.0
 40
0.0
 40
0.0
 40
0.196646026391333
 40
0.3989947196267306
 40
0.5956406330034785
 40
0.797989294366646
 40
0.994635469953169
 40
1.0
 40
1.0
 40
1.0
 40
1.0
 10
311.4551688402619
 20
227.9836392189597
 30
0.0
 10
311.6140269516632
 20
228.0885039348105
 30
0.0
 10
311.936350004827
 20
228.3012744070518
 30
0.0
 10
312.2887498051189
 20
228.6300185217206
 30
0.0
 10
312.5399815013399
 20
228.9587123945406
 30
0.0
 10
312.6513124542532
 20
229.2689162744414
 30
0.0
 10
312.6802570056533
 20
229.4747898638667
 30
0.0
 10
312.6374904613034
 20
229.5634703130132
 30
0.0
 10
312.6363547669775
 20
229.5658252819368
 30
0.0
  0
LWPOLYLINE
  5
2A5
330
1F
100
AcDbEntity
  8
0
  6
Continuous
 62
     8
370
    25
100
AcDbPolyline
 90
        8
 70
   128
 43
0.0
 10
311.8647861584
 20
226.2530336975
 10
312.249784284
 20
226.5152624946
 10
312.5666553218
 20
226.782875309
 10
312.8093717783
 20
227.0507807449
 10
312.9733148696
 20
227.3138825735
 10
313.0553661402
 20
227.5671751999
 10
313.0539647575
 20
227.8058398411
 10
313.0476609225
 20
227.8354486091
  0
ARC
  5
2A6
330
1F
100
AcDbEntity
  8
0
  6
Continuous
 62
     8
370
    25
100
AcDbCircle
 10
319.75650087
 20
214.8722824136
 30
0.0
 40
2.142253687609953
100
AcDbArc
 50
64.4498793419
 51
122.7732048882
  0
ARC
  5
2A7
330
1F
100
AcDbEntity
  8
0
  6
Continuous
 62
     8
370
    25
100
AcDbCircle
 10
281.7062936152
 20
229.2138263476
 30
0.0
 40
3.139522917252958
100
AcDbArc
 50
165.8422891541
 51
231.6638132616
  0
ELLIPSE
  5
2A8
330
1F
100
AcDbEntity
  8
0
  6
Continuous
 62
     8
370
    25
100
AcDbEllipse
 10
273.1587961048
 20
237.8362605592
 30
0.0
 11
-4.702617368759946
 21
8.874518456846944
 31
0.0
210
0.0
220
0.0
230
1.0
 40
0.5782864256
 41
2.3788612030862
 42
3.207463521257032
  0
LINE
  5
2A9
330
1F
100
AcDbEntity
  8
0
  6
Continuous
 62
     8
370
    25
100
AcDbLine
 10
278.6127432296
 20
233.384759169
 30
0.0
 11
280.9043589208
 21
234.4763280905
 31
0.0
  0
LINE
  5
2AA
330
1F
100
AcDbEntity
  8
0
  6
Continuous
 62
     8
370
    25
100
AcDbLine
 10
283.8271536323
 20
236.7456599468
 30
0.0
 11
280.4378081251
 21
238.7022874601
 31
0.0
  0
ENDSEC
  0
SECTION
  2
OBJECTS
  0
DICTIONARY
  5
C
330
0
100
AcDbDictionary
281
     1
  3
ACAD_DETAILVIEWSTYLE
350
2B2
  3
ACAD_GROUP
350
D
  3
ACAD_LAYOUT
350
1A
  3
ACAD_MATERIAL
350
43
  3
ACAD_MLEADERSTYLE
350
6B
  3
ACAD_MLINESTYLE
350
17
  3
ACAD_PLOTSETTINGS
350
19
  3
ACAD_PLOTSTYLENAME
350
E
  3
ACAD_SCALELIST
350
47
  3
ACAD_SECTIONVIEWSTYLE
350
2B3
  3
ACAD_TABLESTYLE
350
69
  3
ACAD_VISUALSTYLE
350
2A
  3
ACDB_RECOMPOSE_DATA
350
2AF
  3
AcDbVariableDictionary
350
2AB
  0
SUN
  5
6D
330
29
100
AcDbSun
 90
        1
290
     0
 63
     7
421
 16777215
 40
1.0
291
     1
 91
  2455826
 92
 54000000
292
     0
 70
     2
 71
   256
280
     1
  0
DICTIONARY
  5
2B2
102
{ACAD_REACTORS
330
C
102
}
330
C
100
AcDbDictionary
281
     1
  0
DICTIONARY
  5
D
102
{ACAD_REACTORS
330
C
102
}
330
C
100
AcDbDictionary
281
     1
  0
DICTIONARY
  5
1A
102
{ACAD_REACTORS
330
C
102
}
330
C
100
AcDbDictionary
281
     1
  3
Layout1
350
1E
  3
Layout2
350
26
  3
Model
350
22
  0
DICTIONARY
  5
43
102
{ACAD_REACTORS
330
C
102
}
330
C
100
AcDbDictionary
281
     1
  3
ByBlock
350
45
  3
ByLayer
350
44
  3
Global
350
46
  0
DICTIONARY
  5
6B
102
{ACAD_REACTORS
330
C
102
}
330
C
100
AcDbDictionary
281
     1
  3
Standard
350
6C
  0
DICTIONARY
  5
17
102
{ACAD_REACTORS
330
C
102
}
330
C
100
AcDbDictionary
281
     1
  3
Standard
350
18
  0
DICTIONARY
  5
19
102
{ACAD_REACTORS
330
C
102
}
330
C
100
AcDbDictionary
281
     1
  0
ACDBDICTIONARYWDFLT
  5
E
102
{ACAD_REACTORS
330
C
102
}
330
C
100
AcDbDictionary
281
     1
  3
Normal
350
F
100
AcDbDictionaryWithDefault
340
F
  0
DICTIONARY
  5
47
102
{ACAD_REACTORS
330
C
102
}
330
C
100
AcDbDictionary
281
     1
  3
A0
350
48
  3
A1
350
49
  3
A2
350
4A
  3
A3
350
4B
  3
A4
350
4C
  3
A5
350
4D
  3
A6
350
4E
  3
A7
350
4F
  3
A8
350
50
  3
A9
350
51
  3
B0
350
52
  3
B1
350
53
  3
B2
350
54
  3
B3
350
55
  3
B4
350
56
  3
B5
350
57
  3
B6
350
58
  3
B7
350
59
  3
B8
350
5A
  3
B9
350
5B
  3
C0
350
5C
  3
C1
350
5D
  3
C2
350
5E
  3
C3
350
5F
  3
C4
350
60
  3
C5
350
61
  3
C6
350
62
  3
C7
350
63
  3
C8
350
64
  3
C9
350
65
  3
D0
350
66
  3
D1
350
67
  3
D2
350
68
  0
DICTIONARY
  5
2B3
102
{ACAD_REACTORS
330
C
102
}
330
C
100
AcDbDictionary
281
     1
  0
DICTIONARY
  5
69
102
{ACAD_REACTORS
330
C
102
}
330
C
100
AcDbDictionary
281
     1
  3
Standard
350
6A
  0
DICTIONARY
  5
2A
102
{ACAD_REACTORS
330
C
102
}
330
C
100
AcDbDictionary
281
     1
  3
2dWireframe
350
2F
  3
Basic
350
32
  3
Brighten
350
36
  3
ColorChange
350
3A
  3
Conceptual
350
34
  3
Dim
350
35
  3
EdgeColorOff
350
3D
  3
Facepattern
350
39
  3
Flat
350
2B
  3
FlatWithEdges
350
2C
  3
Gouraud
350
2D
  3
GouraudWithEdges
350
2E
  3
Hidden
350
31
  3
JitterOff
350
3B
  3
Linepattern
350
38
  3
OverhangOff
350
3C
  3
Realistic
350
33
  3
Shaded
350
42
  3
Shaded with edges
350
41
  3
Shades of Gray
350
3E
  3
Sketchy
350
3F
  3
Thicken
350
37
  3
Wireframe
350
30
  3
X-Ray
350
40
  0
XRECORD
  5
2AF
102
{ACAD_REACTORS
330
C
102
}
330
C
100
AcDbXrecord
280
     1
 90
        1
330
6A
  0
DICTIONARY
  5
2AB
102
{ACAD_REACTORS
330
C
102
}
330
C
100
AcDbDictionary
281
     1
  3
CANNOSCALE
350
2AC
  3
CMLEADERSTYLE
350
2B1
  3
CTABLESTYLE
350
2B0
  3
SECTIONTHICKNESSINC
350
2B4
  0
LAYOUT
  5
1E
102
{ACAD_REACTORS
330
1A
102
}
330
1A
100
AcDbPlotSettings
  1

  2
none_device
  4

  6

 40
0.0
 41
0.0
 42
0.0
 43
0.0
 44
0.0
 45
0.0
 46
0.0
 47
0.0
 48
0.0
 49
0.0
140
0.0
141
0.0
142
1.0
143
1.0
 70
   688
 72
     1
 73
     0
 74
     5
  7

 75
    16
 76
     0
 77
     2
 78
   300
147
1.0
148
0.0
149
0.0
100
AcDbLayout
  1
Layout1
 70
     1
 71
     1
 10
0.0
 20
0.0
 11
420.0
 21
297.0
 12
0.0
 22
0.0
 32
0.0
 14
1.0000000000E+20
 24
1.0000000000E+20
 34
1.0000000000E+20
 15
-1.0000000000E+20
 25
-1.0000000000E+20
 35
-1.0000000000E+20
146
0.0
 13
0.0
 23
0.0
 33
0.0
 16
1.0
 26
0.0
 36
0.0
 17
0.0
 27
1.0
 37
0.0
 76
     0
330
1B
  0
LAYOUT
  5
26
102
{ACAD_REACTORS
330
1A
102
}
330
1A
100
AcDbPlotSettings
  1

  2
none_device
  4

  6

 40
0.0
 41
0.0
 42
0.0
 43
0.0
 44
0.0
 45
0.0
 46
0.0
 47
0.0
 48
0.0
 49
0.0
140
0.0
141
0.0
142
1.0
143
1.0
 70
   688
 72
     1
 73
     0
 74
     5
  7

 75
    16
 76
     0
 77
     2
 78
   300
147
1.0
148
0.0
149
0.0
100
AcDbLayout
  1
Layout2
 70
     1
 71
     2
 10
0.0
 20
0.0
 11
0.0
 21
0.0
 12
0.0
 22
0.0
 32
0.0
 14
0.0
 24
0.0
 34
0.0
 15
0.0
 25
0.0
 35
0.0
146
0.0
 13
0.0
 23
0.0
 33
0.0
 16
1.0
 26
0.0
 36
0.0
 17
0.0
 27
1.0
 37
0.0
 76
     0
330
23
  0
LAYOUT
  5
22
102
{ACAD_REACTORS
330
1A
102
}
330
1A
100
AcDbPlotSettings
  1

  2
none_device
  4
Letter_(8.50_x_11.00_Inches)
  6

 40
6.35
 41
6.35
 42
6.35000508
 43
6.35000508
 44
215.9
 45
279.4
 46
0.0
 47
0.0
 48
0.0
 49
0.0
140
0.0
141
0.0
142
1.0
143
1.0
 70
  1712
 72
     1
 73
     0
 74
     0
  7

 75
     0
 76
     0
 77
     2
 78
   300
147
1.0
148
0.0
149
0.0
100
AcDbLayout
  1
Model
 70
     1
 71
     0
 10
0.0
 20
0.0
 11
420.0
 21
297.0
 12
0.0
 22
0.0
 32
0.0
 14
0.0
 24
0.0
 34
0.0
 15
420.0
 25
297.0
 35
0.0
146
0.0
 13
0.0
 23
0.0
 33
0.0
 16
1.0
 26
0.0
 36
0.0
 17
0.0
 27
1.0
 37
0.0
 76
     0
330
1F
331
29
  0
MATERIAL
  5
45
102
{ACAD_REACTORS
330
43
102
}
330
43
100
AcDbMaterial
  1
ByBlock
 72
     1
 94
      127
  0
MATERIAL
  5
44
102
{ACAD_REACTORS
330
43
102
}
330
43
100
AcDbMaterial
  1
ByLayer
 72
     1
 94
      127
  0
MATERIAL
  5
46
102
{ACAD_REACTORS
330
43
102
}
330
43
100
AcDbMaterial
  1
Global
 72
     1
 94
      127
  0
MLEADERSTYLE
  5
6C
102
{ACAD_REACTORS
330
6B
102
}
330
6B
100
AcDbMLeaderStyle
179
     2
170
     2
171
     1
172
     0
 90
        2
 40
0.0
 41
0.0
173
     1
 91
-1056964608
340
14
 92
       -2
290
     1
 42
2.0
291
     1
 43
8.0
  3
Standard
341
0
 44
4.0
300

342
11
174
     1
178
     6
175
     1
176
     0
 93
-1056964608
 45
4.0
292
     0
297
     0
 46
4.0
343
0
 94
-1056964608
 47
1.0
 49
1.0
140
1.0
293
     1
141
0.0
294
     1
177
     0
142
1.0
295
     0
296
     0
143
3.75
271
     0
272
     9
273
     9
298
     0
  0
MLINESTYLE
  5
18
102
{ACAD_REACTORS
330
17
102
}
330
17
100
AcDbMlineStyle
  2
Standard
 70
     0
  3

 62
   256
 51
90.0
 52
90.0
 71
     2
 49
0.5
 62
   256
  6
BYLAYER
 49
-0.5
 62
   256
  6
BYLAYER
  0
ACDBPLACEHOLDER
  5
F
102
{ACAD_REACTORS
330
E
102
}
330
E
  0
SCALE
  5
48
102
{ACAD_REACTORS
330
47
102
}
330
47
100
AcDbScale
 70
     0
300
1:1
140
1.0
141
1.0
290
     1
  0
SCALE
  5
49
102
{ACAD_REACTORS
330
47
102
}
330
47
100
AcDbScale
 70
     0
300
1:2
140
1.0
141
2.0
290
     0
  0
SCALE
  5
4A
102
{ACAD_REACTORS
330
47
102
}
330
47
100
AcDbScale
 70
     0
300
1:4
140
1.0
141
4.0
290
     0
  0
SCALE
  5
4B
102
{ACAD_REACTORS
330
47
102
}
330
47
100
AcDbScale
 70
     0
300
1:5
140
1.0
141
5.0
290
     0
  0
SCALE
  5
4C
102
{ACAD_REACTORS
330
47
102
}
330
47
100
AcDbScale
 70
     0
300
1:8
140
1.0
141
8.0
290
     0
  0
SCALE
  5
4D
102
{ACAD_REACTORS
330
47
102
}
330
47
100
AcDbScale
 70
     0
300
1:10
140
1.0
141
10.0
290
     0
  0
SCALE
  5
4E
102
{ACAD_REACTORS
330
47
102
}
330
47
100
AcDbScale
 70
     0
300
1:16
140
1.0
141
16.0
290
     0
  0
SCALE
  5
4F
102
{ACAD_REACTORS
330
47
102
}
330
47
100
AcDbScale
 70
     0
300
1:20
140
1.0
141
20.0
290
     0
  0
SCALE
  5
50
102
{ACAD_REACTORS
330
47
102
}
330
47
100
AcDbScale
 70
     0
300
1:30
140
1.0
141
30.0
290
     0
  0
SCALE
  5
51
102
{ACAD_REACTORS
330
47
102
}
330
47
100
AcDbScale
 70
     0
300
1:40
140
1.0
141
40.0
290
     0
  0
SCALE
  5
52
102
{ACAD_REACTORS
330
47
102
}
330
47
100
AcDbScale
 70
     0
300
1:50
140
1.0
141
50.0
290
     0
  0
SCALE
  5
53
102
{ACAD_REACTORS
330
47
102
}
330
47
100
AcDbScale
 70
     0
300
1:100
140
1.0
141
100.0
290
     0
  0
SCALE
  5
54
102
{ACAD_REACTORS
330
47
102
}
330
47
100
AcDbScale
 70
     0
300
2:1
140
2.0
141
1.0
290
     0
  0
SCALE
  5
55
102
{ACAD_REACTORS
330
47
102
}
330
47
100
AcDbScale
 70
     0
300
4:1
140
4.0
141
1.0
290
     0
  0
SCALE
  5
56
102
{ACAD_REACTORS
330
47
102
}
330
47
100
AcDbScale
 70
     0
300
8:1
140
8.0
141
1.0
290
     0
  0
SCALE
  5
57
102
{ACAD_REACTORS
330
47
102
}
330
47
100
AcDbScale
 70
     0
300
10:1
140
10.0
141
1.0
290
     0
  0
SCALE
  5
58
102
{ACAD_REACTORS
330
47
102
}
330
47
100
AcDbScale
 70
     0
300
100:1
140
100.0
141
1.0
290
     0
  0
SCALE
  5
59
102
{ACAD_REACTORS
330
47
102
}
330
47
100
AcDbScale
 70
     0
300
1/128" = 1'-0"
140
0.0078125
141
12.0
290
     0
  0
SCALE
  5
5A
102
{ACAD_REACTORS
330
47
102
}
330
47
100
AcDbScale
 70
     0
300
1/64" = 1'-0"
140
0.015625
141
12.0
290
     0
  0
SCALE
  5
5B
102
{ACAD_REACTORS
330
47
102
}
330
47
100
AcDbScale
 70
     0
300
1/32" = 1'-0"
140
0.03125
141
12.0
290
     0
  0
SCALE
  5
5C
102
{ACAD_REACTORS
330
47
102
}
330
47
100
AcDbScale
 70
     0
300
1/16" = 1'-0"
140
0.0625
141
12.0
290
     0
  0
SCALE
  5
5D
102
{ACAD_REACTORS
330
47
102
}
330
47
100
AcDbScale
 70
     0
300
3/32" = 1'-0"
140
0.09375
141
12.0
290
     0
  0
SCALE
  5
5E
102
{ACAD_REACTORS
330
47
102
}
330
47
100
AcDbScale
 70
     0
300
1/8" = 1'-0"
140
0.125
141
12.0
290
     0
  0
SCALE
  5
5F
102
{ACAD_REACTORS
330
47
102
}
330
47
100
AcDbScale
 70
     0
300
3/16" = 1'-0"
140
0.1875
141
12.0
290
     0
  0
SCALE
  5
60
102
{ACAD_REACTORS
330
47
102
}
330
47
100
AcDbScale
 70
     0
300
1/4" = 1'-0"
140
0.25
141
12.0
290
     0
  0
SCALE
  5
61
102
{ACAD_REACTORS
330
47
102
}
330
47
100
AcDbScale
 70
     0
300
3/8" = 1'-0"
140
0.375
141
12.0
290
     0
  0
SCALE
  5
62
102
{ACAD_REACTORS
330
47
102
}
330
47
100
AcDbScale
 70
     0
300
1/2" = 1'-0"
140
0.5
141
12.0
290
     0
  0
SCALE
  5
63
102
{ACAD_REACTORS
330
47
102
}
330
47
100
AcDbScale
 70
     0
300
3/4" = 1'-0"
140
0.75
141
12.0
290
     0
  0
SCALE
  5
64
102
{ACAD_REACTORS
330
47
102
}
330
47
100
AcDbScale
 70
     0
300
1" = 1'-0"
140
1.0
141
12.0
290
     0
  0
SCALE
  5
65
102
{ACAD_REACTORS
330
47
102
}
330
47
100
AcDbScale
 70
     0
300
1-1/2" = 1'-0"
140
1.5
141
12.0
290
     0
  0
SCALE
  5
66
102
{ACAD_REACTORS
330
47
102
}
330
47
100
AcDbScale
 70
     0
300
3" = 1'-0"
140
3.0
141
12.0
290
     0
  0
SCALE
  5
67
102
{ACAD_REACTORS
330
47
102
}
330
47
100
AcDbScale
 70
     0
300
6" = 1'-0"
140
6.0
141
12.0
290
     0
  0
SCALE
  5
68
102
{ACAD_REACTORS
330
47
102
}
330
47
100
AcDbScale
 70
     0
300
1'-0" = 1'-0"
140
12.0
141
12.0
290
     0
  0
TABLESTYLE
  5
6A
102
{ACAD_REACTORS
330
69
102
}
102
{ACAD_XDICTIONARY
360
2AD
102
}
330
69
100
AcDbTableStyle
  3
Standard
 70
     0
 71
     0
 40
0.06
 41
0.06
280
     0
281
     0
  7
Standard
140
4.5
170
     2
 62
     0
 63
   257
283
     0
 90
        4
 91
        0
  1

274
    -2
284
     1
 64
     0
275
    -2
285
     1
 65
     0
276
    -2
286
     1
 66
     0
277
    -2
287
     1
 67
     0
278
    -2
288
     1
 68
     0
279
    -2
289
     1
 69
     0
  7
Standard
140
6.0
170
     5
 62
     0
 63
   257
283
     0
 90
        4
 91
        0
  1

274
    -2
284
     1
 64
     0
275
    -2
285
     1
 65
     0
276
    -2
286
     1
 66
     0
277
    -2
287
     1
 67
     0
278
    -2
288
     1
 68
     0
279
    -2
289
     1
 69
     0
  7
Standard
140
4.5
170
     5
 62
     0
 63
   257
283
     0
 90
        4
 91
        0
  1

274
    -2
284
     1
 64
     0
275
    -2
285
     1
 65
     0
276
    -2
286
     1
 66
     0
277
    -2
287
     1
 67
     0
278
    -2
288
     1
 68
     0
279
    -2
289
     1
 69
     0
  0
VISUALSTYLE
  5
2F
102
{ACAD_REACTORS
330
2A
102
}
330
2A
100
AcDbVisualStyle
  2
2dWireframe
 70
     4
177
     3
291
     0
 70
    58
 90
        0
176
     1
 90
        2
176
     1
 90
        0
176
     1
 90
        0
176
     1
 40
0.6
176
     1
 40
30.0
176
     1
 62
     7
420
 16777215
176
     1
 90
        1
176
     1
 90
        4
176
     1
 62
     7
176
     1
 62
   257
176
     1
 90
        1
176
     1
 90
        1
176
     1
 40
1.0
176
     1
 90
        0
176
     1
 62
   257
176
     1
 40
1.0
176
     1
 90
        1
176
     1
 90
        6
176
     1
 90
        2
176
     1
 62
     7
176
     1
 90
        5
176
     1
 90
        0
176
     1
 90
        0
176
     1
290
     0
176
     1
 90
        1
176
     1
 40
0.0
176
     1
 90
        0
176
     1
290
     1
176
     1
290
     1
176
     1
290
     0
176
     1
290
     0
176
     1
290
     0
176
     1
290
     0
176
     1
290
     0
176
     1
290
     0
176
     1
290
     0
176
     1
 90
       50
176
     1
 40
0.0
176
     1
 40
1.0
176
     1
 90
        0
176
     1
 62
    18
420
        0
176
     1
 90
       50
176
     1
 90
        3
176
     1
 62
     5
420
      255
176
     1
290
     0
176
     1
 90
       50
176
     1
 90
       50
176
     1
 90
       50
176
     1
290
     0
176
     1
 90
       50
176
     1
 62
   256
176
     0
 40
1.0
176
     0
 90
        2
176
     1
  1
strokes_ogs.tif
176
     1
290
     0
176
     1
 40
1.0
176
     1
 40
1.0
176
     1
  0
VISUALSTYLE
  5
32
102
{ACAD_REACTORS
330
2A
102
}
330
2A
100
AcDbVisualStyle
  2
Basic
 70
     7
177
     3
291
     1
 70
    58
 90
        1
176
     1
 90
        0
176
     1
 90
        1
176
     1
 90
        0
176
     1
 40
0.6
176
     1
 40
30.0
176
     1
 62
     7
420
 16777215
176
     1
 90
        0
176
     1
 90
        4
176
     1
 62
     7
176
     1
 62
   257
176
     1
 90
        1
176
     1
 90
        1
176
     1
 40
1.0
176
     1
 90
        8
176
     1
 62
     7
176
     1
 40
1.0
176
     1
 90
        1
176
     1
 90
        6
176
     1
 90
        2
176
     1
 62
     7
176
     1
 90
        5
176
     1
 90
        0
176
     1
 90
        0
176
     1
290
     0
176
     1
 90
        1
176
     1
 40
0.0
176
     1
 90
        0
176
     1
290
     0
176
     1
290
     1
176
     1
290
     1
176
     1
290
     0
176
     1
290
     0
176
     1
290
     0
176
     1
290
     0
176
     1
290
     0
176
     1
290
     0
176
     1
 90
       50
176
     1
 40
0.0
176
     1
 40
1.0
176
     1
 90
        0
176
     1
 62
    18
420
        0
176
     1
 90
       50
176
     1
 90
        3
176
     1
 62
     5
420
      255
176
     1
290
     0
176
     1
 90
       50
176
     1
 90
       50
176
     1
 90
       50
176
     1
290
     0
176
     1
 90
       50
176
     1
 62
   256
176
     0
 40
1.0
176
     0
 90
        2
176
     1
  1
strokes_ogs.tif
176
     1
290
     0
176
     1
 40
1.0
176
     1
 40
1.0
176
     1
  0
VISUALSTYLE
  5
36
102
{ACAD_REACTORS
330
2A
102
}
330
2A
100
AcDbVisualStyle
  2
Brighten
 70
    12
177
     3
291
     1
 70
    58
 90
        2
176
     1
 90
        2
176
     1
 90
        0
176
     1
 90
        0
176
     1
 40
0.6
176
     1
 40
30.0
176
     1
 62
     7
420
 16777215
176
     1
 90
        1
176
     1
 90
        4
176
     1
 62
     7
176
     1
 62
   257
176
     1
 90
        1
176
     1
 90
        1
176
     1
 40
1.0
176
     1
 90
        8
176
     1
 62
     7
176
     1
 40
1.0
176
     1
 90
        1
176
     1
 90
        6
176
     1
 90
        2
176
     1
 62
     7
176
     1
 90
        5
176
     1
 90
        0
176
     1
 90
        0
176
     1
290
     0
176
     1
 90
        1
176
     1
 40
50.0
176
     1
 90
        0
176
     1
290
     0
176
     1
290
     1
176
     1
290
     1
176
     1
290
     0
176
     1
290
     0
176
     1
290
     0
176
     1
290
     0
176
     1
290
     0
176
     1
290
     0
176
     1
 90
       50
176
     1
 40
0.0
176
     1
 40
1.0
176
     1
 90
        0
176
     1
 62
    18
420
        0
176
     1
 90
       50
176
     1
 90
        3
176
     1
 62
     5
420
      255
176
     1
290
     0
176
     1
 90
       50
176
     1
 90
       50
176
     1
 90
       50
176
     1
290
     0
176
     1
 90
       50
176
     1
 62
   256
176
     0
 40
1.0
176
     0
 90
        2
176
     1
  1
strokes_ogs.tif
176
     1
290
     0
176
     1
 40
1.0
176
     1
 40
1.0
176
     1
  0
VISUALSTYLE
  5
3A
102
{ACAD_REACTORS
330
2A
102
}
330
2A
100
AcDbVisualStyle
  2
ColorChange
 70
    16
177
     3
291
     1
 70
    58
 90
        2
176
     1
 90
        2
176
     1
 90
        3
176
     1
 90
        0
176
     1
 40
0.6
176
     1
 40
30.0
176
     1
 62
     8
420
  8421504
176
     1
 90
        1
176
     1
 90
        4
176
     1
 62
     7
176
     1
 62
   257
176
     1
 90
        1
176
     1
 90
        1
176
     1
 40
1.0
176
     1
 90
        8
176
     1
 62
     8
420
  8421504
176
     1
 40
1.0
176
     1
 90
        1
176
     1
 90
        6
176
     1
 90
        2
176
     1
 62
     7
176
     1
 90
        5
176
     1
 90
        0
176
     1
 90
        0
176
     1
290
     0
176
     1
 90
        1
176
     1
 40
0.0
176
     1
 90
        0
176
     1
290
     0
176
     1
290
     1
176
     1
290
     1
176
     1
290
     0
176
     1
290
     0
176
     1
290
     0
176
     1
290
     0
176
     1
290
     0
176
     1
290
     0
176
     1
 90
       50
176
     1
 40
0.0
176
     1
 40
1.0
176
     1
 90
        0
176
     1
 62
    18
420
        0
176
     1
 90
       50
176
     1
 90
        3
176
     1
 62
     5
420
      255
176
     1
290
     0
176
     1
 90
       50
176
     1
 90
       50
176
     1
 90
       50
176
     1
290
     0
176
     1
 90
       50
176
     1
 62
   256
176
     0
 40
1.0
176
     0
 90
        2
176
     1
  1
strokes_ogs.tif
176
     1
290
     0
176
     1
 40
1.0
176
     1
 40
1.0
176
     1
  0
VISUALSTYLE
  5
34
102
{ACAD_REACTORS
330
2A
102
}
330
2A
100
AcDbVisualStyle
  2
Conceptual
 70
     9
177
     3
291
     0
 70
    58
 90
        3
176
     1
 90
        2
176
     1
 90
        0
176
     1
 90
        0
176
     1
 40
0.6
176
     1
 40
30.0
176
     1
 62
     7
420
 16777215
176
     1
 90
        2
176
     1
 90
        2
176
     1
 62
     7
176
     1
 62
   257
176
     1
 90
        1
176
     1
 90
        1
176
     1
 40
179.0
176
     1
 90
        8
176
     1
 62
     7
176
     1
 40
1.0
176
     1
 90
        1
176
     1
 90
        6
176
     1
 90
        2
176
     1
 62
     7
176
     1
 90
        3
176
     1
 90
        0
176
     1
 90
        0
176
     1
290
     0
176
     1
 90
        1
176
     1
 40
0.0
176
     1
 90
        0
176
     1
290
     0
176
     1
290
     1
176
     1
290
     1
176
     1
290
     0
176
     1
290
     0
176
     1
290
     0
176
     1
290
     0
176
     1
290
     0
176
     1
290
     0
176
     1
 90
       50
176
     1
 40
0.0
176
     1
 40
1.0
176
     1
 90
        0
176
     1
 62
    18
420
        0
176
     1
 90
       50
176
     1
 90
        3
176
     1
 62
     5
420
      255
176
     1
290
     0
176
     1
 90
       50
176
     1
 90
       50
176
     1
 90
       50
176
     1
290
     0
176
     1
 90
       50
176
     1
 62
   256
176
     0
 40
1.0
176
     0
 90
        2
176
     1
  1
strokes_ogs.tif
176
     1
290
     0
176
     1
 40
1.0
176
     1
 40
1.0
176
     1
  0
VISUALSTYLE
  5
35
102
{ACAD_REACTORS
330
2A
102
}
330
2A
100
AcDbVisualStyle
  2
Dim
 70
    11
177
     3
291
     1
 70
    58
 90
        2
176
     1
 90
        2
176
     1
 90
        0
176
     1
 90
        0
176
     1
 40
0.6
176
     1
 40
30.0
176
     1
 62
     7
420
 16777215
176
     1
 90
        1
176
     1
 90
        4
176
     1
 62
     7
176
     1
 62
   257
176
     1
 90
        1
176
     1
 90
        1
176
     1
 40
1.0
176
     1
 90
        8
176
     1
 62
     7
176
     1
 40
1.0
176
     1
 90
        1
176
     1
 90
        6
176
     1
 90
        2
176
     1
 62
     7
176
     1
 90
        5
176
     1
 90
        0
176
     1
 90
        0
176
     1
290
     0
176
     1
 90
        1
176
     1
 40
-50.0
176
     1
 90
        0
176
     1
290
     0
176
     1
290
     1
176
     1
290
     1
176
     1
290
     0
176
     1
290
     0
176
     1
290
     0
176
     1
290
     0
176
     1
290
     0
176
     1
290
     0
176
     1
 90
       50
176
     1
 40
0.0
176
     1
 40
1.0
176
     1
 90
        0
176
     1
 62
    18
420
        0
176
     1
 90
       50
176
     1
 90
        3
176
     1
 62
     5
420
      255
176
     1
290
     0
176
     1
 90
       50
176
     1
 90
       50
176
     1
 90
       50
176
     1
290
     0
176
     1
 90
       50
176
     1
 62
   256
176
     0
 40
1.0
176
     0
 90
        2
176
     1
  1
strokes_ogs.tif
176
     1
290
     0
176
     1
 40
1.0
176
     1
 40
1.0
176
     1
  0
VISUALSTYLE
  5
3D
102
{ACAD_REACTORS
330
2A
102
}
330
2A
100
AcDbVisualStyle
  2
EdgeColorOff
 70
    22
177
     3
291
     1
 70
    58
 90
        2
176
     0
 90
        2
176
     0
 90
        0
176
     0
 90
        0
176
     0
 40
0.6
176
     0
 40
30.0
176
     0
 62
     7
420
 16777215
176
     0
 90
        1
176
     0
 90
        4
176
     0
 62
     7
176
     0
 62
   257
176
     0
 90
        1
176
     0
 90
        1
176
     0
 40
1.0
176
     0
 90
        8
176
     2
 62
     7
176
     0
 40
1.0
176
     0
 90
        1
176
     0
 90
        6
176
     0
 90
        2
176
     0
 62
     7
176
     0
 90
        5
176
     0
 90
        0
176
     0
 90
        0
176
     0
290
     0
176
     0
 90
        1
176
     0
 40
0.0
176
     0
 90
        0
176
     0
290
     0
176
     0
290
     1
176
     0
290
     1
176
     0
290
     0
176
     0
290
     0
176
     0
290
     0
176
     0
290
     0
176
     0
290
     0
176
     0
290
     0
176
     0
 90
       50
176
     0
 40
0.0
176
     0
 40
1.0
176
     0
 90
        0
176
     0
 62
    18
420
        0
176
     0
 90
       50
176
     0
 90
        3
176
     0
 62
     5
420
      255
176
     0
290
     0
176
     0
 90
       50
176
     0
 90
       50
176
     0
 90
       50
176
     0
290
     0
176
     0
 90
       50
176
     0
 62
   256
176
     0
 40
1.0
176
     0
 90
        2
176
     0
  1
strokes_ogs.tif
176
     0
290
     0
176
     0
 40
1.0
176
     0
 40
1.0
176
     0
  0
VISUALSTYLE
  5
39
102
{ACAD_REACTORS
330
2A
102
}
330
2A
100
AcDbVisualStyle
  2
Facepattern
 70
    15
177
     3
291
     1
 70
    58
 90
        2
176
     1
 90
        2
176
     1
 90
        0
176
     1
 90
        0
176
     1
 40
0.6
176
     1
 40
30.0
176
     1
 62
     7
420
 16777215
176
     1
 90
        1
176
     1
 90
        4
176
     1
 62
     7
176
     1
 62
   257
176
     1
 90
        1
176
     1
 90
        1
176
     1
 40
1.0
176
     1
 90
        8
176
     1
 62
     7
176
     1
 40
1.0
176
     1
 90
        1
176
     1
 90
        6
176
     1
 90
        2
176
     1
 62
     7
176
     1
 90
        5
176
     1
 90
        0
176
     1
 90
        0
176
     1
290
     0
176
     1
 90
        1
176
     1
 40
0.0
176
     1
 90
        0
176
     1
290
     0
176
     1
290
     1
176
     1
290
     1
176
     1
290
     0
176
     1
290
     0
176
     1
290
     0
176
     1
290
     0
176
     1
290
     0
176
     1
290
     0
176
     1
 90
       50
176
     1
 40
0.0
176
     1
 40
1.0
176
     1
 90
        0
176
     1
 62
    18
420
        0
176
     1
 90
       50
176
     1
 90
        3
176
     1
 62
     5
420
      255
176
     1
290
     0
176
     1
 90
       50
176
     1
 90
       50
176
     1
 90
       50
176
     1
290
     0
176
     1
 90
       50
176
     1
 62
   256
176
     0
 40
1.0
176
     0
 90
        2
176
     1
  1
strokes_ogs.tif
176
     1
290
     0
176
     1
 40
1.0
176
     1
 40
1.0
176
     1
  0
VISUALSTYLE
  5
2B
102
{ACAD_REACTORS
330
2A
102
}
330
2A
100
AcDbVisualStyle
  2
Flat
 70
     0
177
     3
291
     1
 70
    58
 90
        2
176
     1
 90
        1
176
     1
 90
        1
176
     1
 90
        2
176
     1
 40
0.6
176
     1
 40
30.0
176
     1
 62
     7
420
 16777215
176
     1
 90
        0
176
     1
 90
        0
176
     1
 62
     7
176
     1
 62
   257
176
     1
 90
        1
176
     1
 90
        1
176
     1
 40
1.0
176
     1
 90
        8
176
     1
 62
     7
176
     1
 40
1.0
176
     1
 90
        1
176
     1
 90
        6
176
     1
 90
        2
176
     1
 62
     7
176
     1
 90
        5
176
     1
 90
        0
176
     1
 90
        0
176
     1
290
     0
176
     1
 90
       13
176
     1
 40
0.0
176
     1
 90
        0
176
     1
290
     0
176
     1
290
     1
176
     1
290
     1
176
     1
290
     0
176
     1
290
     0
176
     1
290
     0
176
     1
290
     0
176
     1
290
     0
176
     1
290
     0
176
     1
 90
       50
176
     1
 40
0.0
176
     1
 40
1.0
176
     1
 90
        0
176
     1
 62
    18
420
        0
176
     1
 90
       50
176
     1
 90
        3
176
     1
 62
     5
420
      255
176
     1
290
     0
176
     1
 90
       50
176
     1
 90
       50
176
     1
 90
       50
176
     1
290
     0
176
     1
 90
       50
176
     1
 62
   256
176
     0
 40
1.0
176
     0
 90
        2
176
     1
  1
strokes_ogs.tif
176
     1
290
     0
176
     1
 40
1.0
176
     1
 40
1.0
176
     1
  0
VISUALSTYLE
  5
2C
102
{ACAD_REACTORS
330
2A
102
}
330
2A
100
AcDbVisualStyle
  2
FlatWithEdges
 70
     1
177
     3
291
     1
 70
    58
 90
        2
176
     1
 90
        1
176
     1
 90
        1
176
     1
 90
        2
176
     1
 40
0.6
176
     1
 40
30.0
176
     1
 62
     7
420
 16777215
176
     1
 90
        1
176
     1
 90
        0
176
     1
 62
     7
176
     1
 62
   257
176
     1
 90
        1
176
     1
 90
        1
176
     1
 40
1.0
176
     1
 90
        0
176
     1
 62
   257
176
     1
 40
1.0
176
     1
 90
        1
176
     1
 90
        6
176
     1
 90
        2
176
     1
 62
     7
176
     1
 90
        5
176
     1
 90
        0
176
     1
 90
        0
176
     1
290
     0
176
     1
 90
       13
176
     1
 40
0.0
176
     1
 90
        0
176
     1
290
     0
176
     1
290
     1
176
     1
290
     1
176
     1
290
     0
176
     1
290
     0
176
     1
290
     0
176
     1
290
     0
176
     1
290
     0
176
     1
290
     0
176
     1
 90
       50
176
     1
 40
0.0
176
     1
 40
1.0
176
     1
 90
        0
176
     1
 62
    18
420
        0
176
     1
 90
       50
176
     1
 90
        3
176
     1
 62
     5
420
      255
176
     1
290
     0
176
     1
 90
       50
176
     1
 90
       50
176
     1
 90
       50
176
     1
290
     0
176
     1
 90
       50
176
     1
 62
   256
176
     0
 40
1.0
176
     0
 90
        2
176
     1
  1
strokes_ogs.tif
176
     1
290
     0
176
     1
 40
1.0
176
     1
 40
1.0
176
     1
  0
VISUALSTYLE
  5
2D
102
{ACAD_REACTORS
330
2A
102
}
330
2A
100
AcDbVisualStyle
  2
Gouraud
 70
     2
177
     3
291
     1
 70
    58
 90
        2
176
     1
 90
        2
176
     1
 90
        1
176
     1
 90
        2
176
     1
 40
0.6
176
     1
 40
30.0
176
     1
 62
     7
420
 16777215
176
     1
 90
        0
176
     1
 90
        0
176
     1
 62
     7
176
     1
 62
   257
176
     1
 90
        1
176
     1
 90
        1
176
     1
 40
1.0
176
     1
 90
        0
176
     1
 62
     7
176
     1
 40
1.0
176
     1
 90
        1
176
     1
 90
        6
176
     1
 90
        2
176
     1
 62
     7
176
     1
 90
        5
176
     1
 90
        0
176
     1
 90
        0
176
     1
290
     0
176
     1
 90
       13
176
     1
 40
0.0
176
     1
 90
        0
176
     1
290
     0
176
     1
290
     1
176
     1
290
     1
176
     1
290
     0
176
     1
290
     0
176
     1
290
     0
176
     1
290
     0
176
     1
290
     0
176
     1
290
     0
176
     1
 90
       50
176
     1
 40
0.0
176
     1
 40
1.0
176
     1
 90
        0
176
     1
 62
    18
420
        0
176
     1
 90
       50
176
     1
 90
        3
176
     1
 62
     5
420
      255
176
     1
290
     0
176
     1
 90
       50
176
     1
 90
       50
176
     1
 90
       50
176
     1
290
     0
176
     1
 90
       50
176
     1
 62
   256
176
     0
 40
1.0
176
     0
 90
        2
176
     1
  1
strokes_ogs.tif
176
     1
290
     0
176
     1
 40
1.0
176
     1
 40
1.0
176
     1
  0
VISUALSTYLE
  5
2E
102
{ACAD_REACTORS
330
2A
102
}
330
2A
100
AcDbVisualStyle
  2
GouraudWithEdges
 70
     3
177
     3
291
     1
 70
    58
 90
        2
176
     1
 90
        2
176
     1
 90
        1
176
     1
 90
        2
176
     1
 40
0.6
176
     1
 40
30.0
176
     1
 62
     7
420
 16777215
176
     1
 90
        1
176
     1
 90
        0
176
     1
 62
     7
176
     1
 62
   257
176
     1
 90
        1
176
     1
 90
        1
176
     1
 40
1.0
176
     1
 90
        0
176
     1
 62
   257
176
     1
 40
1.0
176
     1
 90
        1
176
     1
 90
        6
176
     1
 90
        2
176
     1
 62
     7
176
     1
 90
        5
176
     1
 90
        0
176
     1
 90
        0
176
     1
290
     0
176
     1
 90
       13
176
     1
 40
0.0
176
     1
 90
        0
176
     1
290
     0
176
     1
290
     1
176
     1
290
     1
176
     1
290
     0
176
     1
290
     0
176
     1
290
     0
176
     1
290
     0
176
     1
290
     0
176
     1
290
     0
176
     1
 90
       50
176
     1
 40
0.0
176
     1
 40
1.0
176
     1
 90
        0
176
     1
 62
    18
420
        0
176
     1
 90
       50
176
     1
 90
        3
176
     1
 62
     5
420
      255
176
     1
290
     0
176
     1
 90
       50
176
     1
 90
       50
176
     1
 90
       50
176
     1
290
     0
176
     1
 90
       50
176
     1
 62
   256
176
     0
 40
1.0
176
     0
 90
        2
176
     1
  1
strokes_ogs.tif
176
     1
290
     0
176
     1
 40
1.0
176
     1
 40
1.0
176
     1
  0
VISUALSTYLE
  5
31
102
{ACAD_REACTORS
330
2A
102
}
330
2A
100
AcDbVisualStyle
  2
Hidden
 70
     6
177
     3
291
     0
 70
    58
 90
        1
176
     1
 90
        2
176
     1
 90
        2
176
     1
 90
        0
176
     1
 40
0.6
176
     1
 40
30.0
176
     1
 62
     7
420
 16777215
176
     1
 90
        2
176
     1
 90
        2
176
     1
 62
     7
176
     1
 62
   257
176
     1
 90
        2
176
     1
 90
        1
176
     1
 40
40.0
176
     1
 90
        0
176
     1
 62
   257
176
     1
 40
1.0
176
     1
 90
        1
176
     1
 90
        6
176
     1
 90
        2
176
     1
 62
     7
176
     1
 90
        3
176
     1
 90
        0
176
     1
 90
        0
176
     1
290
     0
176
     1
 90
        1
176
     1
 40
0.0
176
     1
 90
        0
176
     1
290
     0
176
     1
290
     1
176
     1
290
     1
176
     1
290
     0
176
     1
290
     0
176
     1
290
     0
176
     1
290
     0
176
     1
290
     0
176
     1
290
     0
176
     1
 90
       50
176
     1
 40
0.0
176
     1
 40
1.0
176
     1
 90
        0
176
     1
 62
    18
420
        0
176
     1
 90
       50
176
     1
 90
        3
176
     1
 62
     5
420
      255
176
     1
290
     0
176
     1
 90
       50
176
     1
 90
       50
176
     1
 90
       50
176
     1
290
     0
176
     1
 90
       50
176
     1
 62
   256
176
     0
 40
1.0
176
     0
 90
        2
176
     1
  1
strokes_ogs.tif
176
     1
290
     0
176
     1
 40
1.0
176
     1
 40
1.0
176
     1
  0
VISUALSTYLE
  5
3B
102
{ACAD_REACTORS
330
2A
102
}
330
2A
100
AcDbVisualStyle
  2
JitterOff
 70
    20
177
     3
291
     1
 70
    58
 90
        2
176
     0
 90
        2
176
     0
 90
        0
176
     0
 90
        0
176
     0
 40
0.6
176
     0
 40
30.0
176
     0
 62
     7
420
 16777215
176
     0
 90
        1
176
     0
 90
        4
176
     0
 62
     7
176
     0
 62
   257
176
     0
 90
        1
176
     0
 90
        1
176
     0
 40
1.0
176
     0
 90
       10
176
     2
 62
     7
176
     0
 40
1.0
176
     0
 90
        1
176
     0
 90
        6
176
     0
 90
        2
176
     0
 62
     7
176
     0
 90
        5
176
     0
 90
        0
176
     0
 90
        0
176
     0
290
     0
176
     0
 90
        1
176
     0
 40
0.0
176
     0
 90
        0
176
     0
290
     0
176
     0
290
     1
176
     0
290
     1
176
     0
290
     0
176
     0
290
     0
176
     0
290
     0
176
     0
290
     0
176
     0
290
     0
176
     0
290
     0
176
     0
 90
       50
176
     0
 40
0.0
176
     0
 40
1.0
176
     0
 90
        0
176
     0
 62
    18
420
        0
176
     0
 90
       50
176
     0
 90
        3
176
     0
 62
     5
420
      255
176
     0
290
     0
176
     0
 90
       50
176
     0
 90
       50
176
     0
 90
       50
176
     0
290
     0
176
     0
 90
       50
176
     0
 62
   256
176
     0
 40
1.0
176
     0
 90
        2
176
     0
  1
strokes_ogs.tif
176
     0
290
     0
176
     0
 40
1.0
176
     0
 40
1.0
176
     0
  0
VISUALSTYLE
  5
38
102
{ACAD_REACTORS
330
2A
102
}
330
2A
100
AcDbVisualStyle
  2
Linepattern
 70
    14
177
     3
291
     1
 70
    58
 90
        2
176
     1
 90
        2
176
     1
 90
        0
176
     1
 90
        0
176
     1
 40
0.6
176
     1
 40
30.0
176
     1
 62
     7
420
 16777215
176
     1
 90
        1
176
     1
 90
        4
176
     1
 62
     7
176
     1
 62
   257
176
     1
 90
        7
176
     1
 90
        7
176
     1
 40
1.0
176
     1
 90
        8
176
     1
 62
     7
176
     1
 40
1.0
176
     1
 90
        1
176
     1
 90
        6
176
     1
 90
        2
176
     1
 62
     7
176
     1
 90
        5
176
     1
 90
        0
176
     1
 90
        0
176
     1
290
     0
176
     1
 90
        1
176
     1
 40
0.0
176
     1
 90
        0
176
     1
290
     0
176
     1
290
     1
176
     1
290
     1
176
     1
290
     0
176
     1
290
     0
176
     1
290
     0
176
     1
290
     0
176
     1
290
     0
176
     1
290
     0
176
     1
 90
       50
176
     1
 40
0.0
176
     1
 40
1.0
176
     1
 90
        0
176
     1
 62
    18
420
        0
176
     1
 90
       50
176
     1
 90
        3
176
     1
 62
     5
420
      255
176
     1
290
     0
176
     1
 90
       50
176
     1
 90
       50
176
     1
 90
       50
176
     1
290
     0
176
     1
 90
       50
176
     1
 62
   256
176
     0
 40
1.0
176
     0
 90
        2
176
     1
  1
strokes_ogs.tif
176
     1
290
     0
176
     1
 40
1.0
176
     1
 40
1.0
176
     1
  0
VISUALSTYLE
  5
3C
102
{ACAD_REACTORS
330
2A
102
}
330
2A
100
AcDbVisualStyle
  2
OverhangOff
 70
    21
177
     3
291
     1
 70
    58
 90
        2
176
     0
 90
        2
176
     0
 90
        0
176
     0
 90
        0
176
     0
 40
0.6
176
     0
 40
30.0
176
     0
 62
     7
420
 16777215
176
     0
 90
        1
176
     0
 90
        4
176
     0
 62
     7
176
     0
 62
   257
176
     0
 90
        1
176
     0
 90
        1
176
     0
 40
1.0
176
     0
 90
        9
176
     2
 62
     7
176
     0
 40
1.0
176
     0
 90
        1
176
     0
 90
        6
176
     0
 90
        2
176
     0
 62
     7
176
     0
 90
        5
176
     0
 90
        0
176
     0
 90
        0
176
     0
290
     0
176
     0
 90
        1
176
     0
 40
0.0
176
     0
 90
        0
176
     0
290
     0
176
     0
290
     1
176
     0
290
     1
176
     0
290
     0
176
     0
290
     0
176
     0
290
     0
176
     0
290
     0
176
     0
290
     0
176
     0
290
     0
176
     0
 90
       50
176
     0
 40
0.0
176
     0
 40
1.0
176
     0
 90
        0
176
     0
 62
    18
420
        0
176
     0
 90
       50
176
     0
 90
        3
176
     0
 62
     5
420
      255
176
     0
290
     0
176
     0
 90
       50
176
     0
 90
       50
176
     0
 90
       50
176
     0
290
     0
176
     0
 90
       50
176
     0
 62
   256
176
     0
 40
1.0
176
     0
 90
        2
176
     0
  1
strokes_ogs.tif
176
     0
290
     0
176
     0
 40
1.0
176
     0
 40
1.0
176
     0
  0
VISUALSTYLE
  5
33
102
{ACAD_REACTORS
330
2A
102
}
330
2A
100
AcDbVisualStyle
  2
Realistic
 70
     8
177
     3
291
     0
 70
    58
 90
        2
176
     1
 90
        3
176
     1
 90
        0
176
     1
 90
        2
176
     1
 40
0.6
176
     1
 40
30.0
176
     1
 62
     7
420
 16777215
176
     1
 90
        0
176
     1
 90
        0
176
     1
 62
     7
176
     1
 62
   257
176
     1
 90
        1
176
     1
 90
        1
176
     1
 40
1.0
176
     1
 90
        8
176
     1
 62
   257
176
     1
 40
1.0
176
     1
 90
        1
176
     1
 90
        6
176
     1
 90
        2
176
     1
 62
     7
176
     1
 90
        3
176
     1
 90
        0
176
     1
 90
        0
176
     1
290
     0
176
     1
 90
       13
176
     1
 40
0.0
176
     1
 90
        0
176
     1
290
     0
176
     1
290
     1
176
     1
290
     1
176
     1
290
     0
176
     1
290
     0
176
     1
290
     0
176
     1
290
     0
176
     1
290
     0
176
     1
290
     0
176
     1
 90
       50
176
     1
 40
0.0
176
     1
 40
1.0
176
     1
 90
        0
176
     1
 62
    18
420
        0
176
     1
 90
       50
176
     1
 90
        3
176
     1
 62
     5
420
      255
176
     1
290
     0
176
     1
 90
       50
176
     1
 90
       50
176
     1
 90
       50
176
     1
290
     0
176
     1
 90
       50
176
     1
 62
   256
176
     0
 40
1.0
176
     0
 90
        2
176
     1
  1
strokes_ogs.tif
176
     1
290
     0
176
     1
 40
1.0
176
     1
 40
1.0
176
     1
  0
VISUALSTYLE
  5
42
102
{ACAD_REACTORS
330
2A
102
}
330
2A
100
AcDbVisualStyle
  2
Shaded
 70
    27
177
     3
291
     0
 70
    58
 90
        2
176
     1
 90
        2
176
     1
 90
        1
176
     1
 90
        2
176
     1
 40
0.6
176
     1
 40
30.0
176
     1
 62
     7
420
 16777215
176
     1
 90
        0
176
     1
 90
        4
176
     1
 62
     7
176
     1
 62
   257
176
     1
 90
        1
176
     1
 90
        1
176
     1
 40
1.0
176
     1
 90
        8
176
     1
 62
   257
176
     1
 40
1.0
176
     1
 90
        1
176
     1
 90
        6
176
     1
 90
        2
176
     1
 62
     8
420
  7895160
176
     1
 90
        3
176
     1
 90
        0
176
     1
 90
        0
176
     1
290
     0
176
     1
 90
        5
176
     1
 40
0.0
176
     1
 90
        0
176
     1
290
     0
176
     1
290
     1
176
     1
290
     1
176
     1
290
     0
176
     1
290
     0
176
     1
290
     0
176
     1
290
     0
176
     1
290
     0
176
     1
290
     0
176
     1
 90
       50
176
     1
 40
0.0
176
     1
 40
1.0
176
     1
 90
        0
176
     1
 62
    18
420
        0
176
     1
 90
       50
176
     1
 90
        3
176
     1
 62
     5
420
      255
176
     1
290
     0
176
     1
 90
       50
176
     1
 90
       50
176
     1
 90
       50
176
     1
290
     0
176
     1
 90
       50
176
     1
 62
   256
176
     0
 40
1.0
176
     0
 90
        2
176
     1
  1
strokes_ogs.tif
176
     1
290
     0
176
     1
 40
1.0
176
     1
 40
1.0
176
     1
  0
VISUALSTYLE
  5
41
102
{ACAD_REACTORS
330
2A
102
}
330
2A
100
AcDbVisualStyle
  2
Shaded with edges
 70
    26
177
     3
291
     0
 70
    58
 90
        2
176
     1
 90
        2
176
     1
 90
        1
176
     1
 90
        2
176
     1
 40
0.6
176
     1
 40
30.0
176
     1
 62
     7
420
 16777215
176
     1
 90
        1
176
     1
 90
       10
176
     1
 62
     7
176
     1
 62
   257
176
     1
 90
        2
176
     1
 90
        1
176
     1
 40
1.0
176
     1
 90
        8
176
     1
 62
   257
176
     1
 40
1.0
176
     1
 90
        1
176
     1
 90
        6
176
     1
 90
        2
176
     1
 62
     7
176
     1
 90
        3
176
     1
 90
        0
176
     1
 90
        0
176
     1
290
     0
176
     1
 90
        5
176
     1
 40
0.0
176
     1
 90
        0
176
     1
290
     0
176
     1
290
     1
176
     1
290
     1
176
     1
290
     0
176
     1
290
     0
176
     1
290
     0
176
     1
290
     0
176
     1
290
     0
176
     1
290
     0
176
     1
 90
       50
176
     1
 40
0.0
176
     1
 40
1.0
176
     1
 90
        0
176
     1
 62
    18
420
        0
176
     1
 90
       50
176
     1
 90
        3
176
     1
 62
     5
420
      255
176
     1
290
     0
176
     1
 90
       50
176
     1
 90
       50
176
     1
 90
       50
176
     1
290
     0
176
     1
 90
       50
176
     1
 62
   256
176
     0
 40
1.0
176
     0
 90
        2
176
     1
  1
strokes_ogs.tif
176
     1
290
     0
176
     1
 40
1.0
176
     1
 40
1.0
176
     1
  0
VISUALSTYLE
  5
3E
102
{ACAD_REACTORS
330
2A
102
}
330
2A
100
AcDbVisualStyle
  2
Shades of Gray
 70
    23
177
     3
291
     0
 70
    58
 90
        2
176
     1
 90
        2
176
     1
 90
        3
176
     1
 90
        0
176
     1
 40
0.6
176
     1
 40
30.0
176
     1
 62
     7
420
 16777215
176
     1
 90
        2
176
     1
 90
        2
176
     1
 62
     7
176
     1
 62
     7
176
     1
 90
        1
176
     1
 90
        1
176
     1
 40
40.0
176
     1
 90
        8
176
     1
 62
     7
176
     1
 40
1.0
176
     1
 90
        1
176
     1
 90
        6
176
     1
 90
        2
176
     1
 62
     7
176
     1
 90
        3
176
     1
 90
        0
176
     1
 90
        0
176
     1
290
     0
176
     1
 90
        1
176
     1
 40
0.0
176
     1
 90
        0
176
     1
290
     0
176
     1
290
     1
176
     1
290
     1
176
     1
290
     0
176
     1
290
     0
176
     1
290
     0
176
     1
290
     0
176
     1
290
     0
176
     1
290
     0
176
     1
 90
       50
176
     1
 40
0.0
176
     1
 40
1.0
176
     1
 90
        0
176
     1
 62
    18
420
        0
176
     1
 90
       50
176
     1
 90
        3
176
     1
 62
     5
420
      255
176
     1
290
     0
176
     1
 90
       50
176
     1
 90
       50
176
     1
 90
       50
176
     1
290
     0
176
     1
 90
       50
176
     1
 62
   256
176
     0
 40
1.0
176
     0
 90
        2
176
     1
  1
strokes_ogs.tif
176
     1
290
     0
176
     1
 40
1.0
176
     1
 40
1.0
176
     1
  0
VISUALSTYLE
  5
3F
102
{ACAD_REACTORS
330
2A
102
}
330
2A
100
AcDbVisualStyle
  2
Sketchy
 70
    24
177
     3
291
     0
 70
    58
 90
        1
176
     1
 90
        2
176
     1
 90
        2
176
     1
 90
        0
176
     1
 40
0.6
176
     1
 40
30.0
176
     1
 62
     7
420
 16777215
176
     1
 90
        2
176
     1
 90
        2
176
     1
 62
     7
176
     1
 62
     7
176
     1
 90
        1
176
     1
 90
        1
176
     1
 40
40.0
176
     1
 90
       11
176
     1
 62
     7
176
     1
 40
1.0
176
     1
 90
        1
176
     1
 90
        6
176
     1
 90
        2
176
     1
 62
     7
176
     1
 90
        6
176
     1
 90
        0
176
     1
 90
        0
176
     1
290
     0
176
     1
 90
        1
176
     1
 40
0.0
176
     1
 90
        0
176
     1
290
     0
176
     1
290
     1
176
     1
290
     1
176
     1
290
     0
176
     1
290
     0
176
     1
290
     0
176
     1
290
     0
176
     1
290
     0
176
     1
290
     0
176
     1
 90
       50
176
     1
 40
0.0
176
     1
 40
1.0
176
     1
 90
        0
176
     1
 62
    18
420
        0
176
     1
 90
       50
176
     1
 90
        3
176
     1
 62
     5
420
      255
176
     1
290
     0
176
     1
 90
       50
176
     1
 90
       50
176
     1
 90
       50
176
     1
290
     0
176
     1
 90
       50
176
     1
 62
   256
176
     0
 40
1.0
176
     0
 90
        2
176
     1
  1
strokes_ogs.tif
176
     1
290
     0
176
     1
 40
1.0
176
     1
 40
1.0
176
     1
  0
VISUALSTYLE
  5
37
102
{ACAD_REACTORS
330
2A
102
}
330
2A
100
AcDbVisualStyle
  2
Thicken
 70
    13
177
     3
291
     1
 70
    58
 90
        2
176
     1
 90
        2
176
     1
 90
        0
176
     1
 90
        0
176
     1
 40
0.6
176
     1
 40
30.0
176
     1
 62
     7
420
 16777215
176
     1
 90
        1
176
     1
 90
        4
176
     1
 62
     7
176
     1
 62
   257
176
     1
 90
        1
176
     1
 90
        1
176
     1
 40
1.0
176
     1
 90
       12
176
     1
 62
     7
176
     1
 40
1.0
176
     1
 90
        1
176
     1
 90
        6
176
     1
 90
        2
176
     1
 62
     7
176
     1
 90
        5
176
     1
 90
        0
176
     1
 90
        0
176
     1
290
     0
176
     1
 90
        1
176
     1
 40
0.0
176
     1
 90
        0
176
     1
290
     0
176
     1
290
     1
176
     1
290
     1
176
     1
290
     0
176
     1
290
     0
176
     1
290
     0
176
     1
290
     0
176
     1
290
     0
176
     1
290
     0
176
     1
 90
       50
176
     1
 40
0.0
176
     1
 40
1.0
176
     1
 90
        0
176
     1
 62
    18
420
        0
176
     1
 90
       50
176
     1
 90
        3
176
     1
 62
     5
420
      255
176
     1
290
     0
176
     1
 90
       50
176
     1
 90
       50
176
     1
 90
       50
176
     1
290
     0
176
     1
 90
       50
176
     1
 62
   256
176
     0
 40
1.0
176
     0
 90
        2
176
     1
  1
strokes_ogs.tif
176
     1
290
     0
176
     1
 40
1.0
176
     1
 40
1.0
176
     1
  0
VISUALSTYLE
  5
30
102
{ACAD_REACTORS
330
2A
102
}
330
2A
100
AcDbVisualStyle
  2
Wireframe
 70
     5
177
     3
291
     0
 70
    58
 90
        0
176
     1
 90
        2
176
     1
 90
        0
176
     1
 90
        0
176
     1
 40
0.6
176
     1
 40
30.0
176
     1
 62
     7
420
 16777215
176
     1
 90
        1
176
     1
 90
        4
176
     1
 62
     7
176
     1
 62
   257
176
     1
 90
        1
176
     1
 90
        1
176
     1
 40
1.0
176
     1
 90
        0
176
     1
 62
   257
176
     1
 40
1.0
176
     1
 90
        1
176
     1
 90
        6
176
     1
 90
        2
176
     1
 62
     7
176
     1
 90
        3
176
     1
 90
        0
176
     1
 90
        0
176
     1
290
     0
176
     1
 90
        1
176
     1
 40
0.0
176
     1
 90
        0
176
     1
290
     0
176
     1
290
     1
176
     1
290
     1
176
     1
290
     0
176
     1
290
     0
176
     1
290
     0
176
     1
290
     0
176
     1
290
     0
176
     1
290
     0
176
     1
 90
       50
176
     1
 40
0.0
176
     1
 40
1.0
176
     1
 90
        0
176
     1
 62
    18
420
        0
176
     1
 90
       50
176
     1
 90
        3
176
     1
 62
     5
420
      255
176
     1
290
     0
176
     1
 90
       50
176
     1
 90
       50
176
     1
 90
       50
176
     1
290
     0
176
     1
 90
       50
176
     1
 62
   256
176
     0
 40
1.0
176
     0
 90
        2
176
     1
  1
strokes_ogs.tif
176
     1
290
     0
176
     1
 40
1.0
176
     1
 40
1.0
176
     1
  0
VISUALSTYLE
  5
40
102
{ACAD_REACTORS
330
2A
102
}
330
2A
100
AcDbVisualStyle
  2
X-Ray
 70
    25
177
     3
291
     0
 70
    58
 90
        2
176
     1
 90
        2
176
     1
 90
        1
176
     1
 90
        1
176
     1
 40
0.5
176
     1
 40
30.0
176
     1
 62
     7
420
 16777215
176
     1
 90
        1
176
     1
 90
        0
176
     1
 62
     7
176
     1
 62
   257
176
     1
 90
        1
176
     1
 90
        1
176
     1
 40
1.0
176
     1
 90
        8
176
     1
 62
     7
176
     1
 40
1.0
176
     1
 90
        1
176
     1
 90
        6
176
     1
 90
        2
176
     1
 62
     7
176
     1
 90
        3
176
     1
 90
        0
176
     1
 90
        0
176
     1
290
     0
176
     1
 90
       13
176
     1
 40
0.0
176
     1
 90
        0
176
     1
290
     0
176
     1
290
     1
176
     1
290
     1
176
     1
290
     0
176
     1
290
     0
176
     1
290
     0
176
     1
290
     0
176
     1
290
     0
176
     1
290
     0
176
     1
 90
       50
176
     1
 40
0.0
176
     1
 40
1.0
176
     1
 90
        0
176
     1
 62
    18
420
        0
176
     1
 90
       50
176
     1
 90
        3
176
     1
 62
     5
420
      255
176
     1
290
     0
176
     1
 90
       50
176
     1
 90
       50
176
     1
 90
       50
176
     1
290
     0
176
     1
 90
       50
176
     1
 62
   256
176
     0
 40
1.0
176
     0
 90
        2
176
     1
  1
strokes_ogs.tif
176
     1
290
     0
176
     1
 40
1.0
176
     1
 40
1.0
176
     1
  0
DICTIONARYVAR
  5
2AC
102
{ACAD_REACTORS
330
2AB
102
}
330
2AB
100
DictionaryVariables
280
     0
  1
1:1
  0
DICTIONARYVAR
  5
2B1
102
{ACAD_REACTORS
330
2AB
102
}
330
2AB
100
DictionaryVariables
280
     0
  1
Standard
  0
DICTIONARYVAR
  5
2B0
102
{ACAD_REACTORS
330
2AB
102
}
330
2AB
100
DictionaryVariables
280
     0
  1
Standard
  0
DICTIONARYVAR
  5
2B4
102
{ACAD_REACTORS
330
2AB
102
}
330
2AB
100
DictionaryVariables
280
     0
  1
6.000000
  0
DICTIONARY
  5
2AD
330
6A
100
AcDbDictionary
280
     1
281
     1
  3
ACAD_ROUNDTRIP_2008_TABLESTYLE_CELLSTYLEMAP
360
2AE
  0
CELLSTYLEMAP
  5
2AE
102
{ACAD_REACTORS
330
2AD
102
}
330
2AD
100
AcDbCellStyleMap
 90
        3
300
CELLSTYLE
  1
TABLEFORMAT_BEGIN
 90
        5
170
     1
 91
        0
 92
    32768
 62
   257
 93
        1
300
CONTENTFORMAT
  1
CONTENTFORMAT_BEGIN
 90
        0
 91
        0
 92
        4
 93
        0
300

 40
0.0
140
1.0
 94
        5
 62
     0
340
11
144
6.0
309
CONTENTFORMAT_END
171
     1
301
MARGIN
  1
CELLMARGIN_BEGIN
 40
1.5
 40
1.5
 40
1.5
 40
1.5
 40
1.5
 40
1.5
309
CELLMARGIN_END
 94
        6
 95
        1
302
GRIDFORMAT
  1
GRIDFORMAT_BEGIN
 90
        0
 91
        1
 62
     0
 92
       -2
340
14
 93
        0
 40
0.045
309
GRIDFORMAT_END
 95
        2
302
GRIDFORMAT
  1
GRIDFORMAT_BEGIN
 90
        0
 91
        1
 62
     0
 92
       -2
340
14
 93
        0
 40
0.045
309
GRIDFORMAT_END
 95
        4
302
GRIDFORMAT
  1
GRIDFORMAT_BEGIN
 90
        0
 91
        1
 62
     0
 92
       -2
340
14
 93
        0
 40
0.045
309
GRIDFORMAT_END
 95
        8
302
GRIDFORMAT
  1
GRIDFORMAT_BEGIN
 90
        0
 91
        1
 62
     0
 92
       -2
340
14
 93
        0
 40
0.045
309
GRIDFORMAT_END
 95
       16
302
GRIDFORMAT
  1
GRIDFORMAT_BEGIN
 90
        0
 91
        1
 62
     0
 92
       -2
340
14
 93
        0
 40
0.045
309
GRIDFORMAT_END
 95
       32
302
GRIDFORMAT
  1
GRIDFORMAT_BEGIN
 90
        0
 91
        1
 62
     0
 92
       -2
340
14
 93
        0
 40
0.045
309
GRIDFORMAT_END
309
TABLEFORMAT_END
  1
CELLSTYLE_BEGIN
 90
        1
 91
        1
300
_TITLE
309
CELLSTYLE_END
300
CELLSTYLE
  1
TABLEFORMAT_BEGIN
 90
        5
170
     1
 91
        0
 92
        0
 62
   257
 93
        1
300
CONTENTFORMAT
  1
CONTENTFORMAT_BEGIN
 90
        0
 91
        0
 92
        4
 93
        0
300

 40
0.0
140
1.0
 94
        5
 62
     0
340
11
144
4.5
309
CONTENTFORMAT_END
171
     1
301
MARGIN
  1
CELLMARGIN_BEGIN
 40
1.5
 40
1.5
 40
1.5
 40
1.5
 40
1.5
 40
1.5
309
CELLMARGIN_END
 94
        6
 95
        1
302
GRIDFORMAT
  1
GRIDFORMAT_BEGIN
 90
        0
 91
        1
 62
     0
 92
       -2
340
14
 93
        0
 40
0.045
309
GRIDFORMAT_END
 95
        2
302
GRIDFORMAT
  1
GRIDFORMAT_BEGIN
 90
        0
 91
        1
 62
     0
 92
       -2
340
14
 93
        0
 40
0.045
309
GRIDFORMAT_END
 95
        4
302
GRIDFORMAT
  1
GRIDFORMAT_BEGIN
 90
        0
 91
        1
 62
     0
 92
       -2
340
14
 93
        0
 40
0.045
309
GRIDFORMAT_END
 95
        8
302
GRIDFORMAT
  1
GRIDFORMAT_BEGIN
 90
        0
 91
        1
 62
     0
 92
       -2
340
14
 93
        0
 40
0.045
309
GRIDFORMAT_END
 95
       16
302
GRIDFORMAT
  1
GRIDFORMAT_BEGIN
 90
        0
 91
        1
 62
     0
 92
       -2
340
14
 93
        0
 40
0.045
309
GRIDFORMAT_END
 95
       32
302
GRIDFORMAT
  1
GRIDFORMAT_BEGIN
 90
        0
 91
        1
 62
     0
 92
       -2
340
14
 93
        0
 40
0.045
309
GRIDFORMAT_END
309
TABLEFORMAT_END
  1
CELLSTYLE_BEGIN
 90
        2
 91
        1
300
_HEADER
309
CELLSTYLE_END
300
CELLSTYLE
  1
TABLEFORMAT_BEGIN
 90
        5
170
     1
 91
        0
 92
        0
 62
   257
 93
        1
300
CONTENTFORMAT
  1
CONTENTFORMAT_BEGIN
 90
        0
 91
        0
 92
        4
 93
        0
300

 40
0.0
140
1.0
 94
        2
 62
     0
340
11
144
4.5
309
CONTENTFORMAT_END
171
     1
301
MARGIN
  1
CELLMARGIN_BEGIN
 40
1.5
 40
1.5
 40
1.5
 40
1.5
 40
1.5
 40
1.5
309
CELLMARGIN_END
 94
        6
 95
        1
302
GRIDFORMAT
  1
GRIDFORMAT_BEGIN
 90
        0
 91
        1
 62
     0
 92
       -2
340
14
 93
        0
 40
0.045
309
GRIDFORMAT_END
 95
        2
302
GRIDFORMAT
  1
GRIDFORMAT_BEGIN
 90
        0
 91
        1
 62
     0
 92
       -2
340
14
 93
        0
 40
0.045
309
GRIDFORMAT_END
 95
        4
302
GRIDFORMAT
  1
GRIDFORMAT_BEGIN
 90
        0
 91
        1
 62
     0
 92
       -2
340
14
 93
        0
 40
0.045
309
GRIDFORMAT_END
 95
        8
302
GRIDFORMAT
  1
GRIDFORMAT_BEGIN
 90
        0
 91
        1
 62
     0
 92
       -2
340
14
 93
        0
 40
0.045
309
GRIDFORMAT_END
 95
       16
302
GRIDFORMAT
  1
GRIDFORMAT_BEGIN
 90
        0
 91
        1
 62
     0
 92
       -2
340
14
 93
        0
 40
0.045
309
GRIDFORMAT_END
 95
       32
302
GRIDFORMAT
  1
GRIDFORMAT_BEGIN
 90
        0
 91
        1
 62
     0
 92
       -2
340
14
 93
        0
 40
0.045
309
GRIDFORMAT_END
309
TABLEFORMAT_END
  1
CELLSTYLE_BEGIN
 90
        3
 91
        2
300
_DATA
309
CELLSTYLE_END
  0
ENDSEC
  0
EOF
