  0
SECTION
  2
HEADER
  9
$ACADVER
  1
AC1015
  9
$ACADMAINTVER
 70
     6
  9
$DWGCODEPAGE
  3
DOS932
  9
$INSBASE
 10
0.0
 20
0.0
 30
0.0
  9
$EXTMIN
 10
0.0
 20
0.0
 30
0.0
  9
$EXTMAX
 10
420.0
 20
297.0
 30
0.0
  9
$LIMMIN
 10
0.0
 20
0.0
  9
$LIMMAX
 10
420.0
 20
297.0
  9
$ORTHOMODE
 70
     0
  9
$REGENMODE
 70
     1
  9
$FILLMODE
 70
     1
  9
$QTEXTMODE
 70
     0
  9
$MIRRTEXT
 70
     1
  9
$LTSCALE
 40
1.0
  9
$ATTMODE
 70
     1
  9
$TEXTSIZE
 40
3.5
  9
$TRACEWID
 40
1.0
  9
$TEXTSTYLE
  7
Standard
  9
$CLAYER
  8
0
  9
$CELTYPE
  6
ByLayer
  9
$CECOLOR
 62
   256
  9
$CELTSCALE
 40
1.0
  9
$DISPSILH
 70
     0
  9
$DIMSCALE
 40
1.0
  9
$DIMASZ
 40
3.0
  9
$DIMEXO
 40
1.0
  9
$DIMDLI
 40
3.75
  9
$DIMRND
 40
0.0
  9
$DIMDLE
 40
0.0
  9
$DIMEXE
 40
1.0
  9
$DIMTP
 40
0.0
  9
$DIMTM
 40
0.0
  9
$DIMTXT
 40
3.5
  9
$DIMCEN
 40
2.5
  9
$DIMTSZ
 40
0.0
  9
$DIMTOL
 70
     0
  9
$DIMLIM
 70
     0
  9
$DIMTIH
 70
     1
  9
$DIMTOH
 70
     1
  9
$DIMSE1
 70
     0
  9
$DIMSE2
 70
     0
  9
$DIMTAD
 70
     1
  9
$DIMZIN
 70
     0
  9
$DIMBLK
  1

  9
$DIMASO
 70
     1
  9
$DIMSHO
 70
     1
  9
$DIMPOST
  1

  9
$DIMAPOST
  1

  9
$DIMALT
 70
     0
  9
$DIMALTD
 70
     3
  9
$DIMALTF
 40
0.0393700787
  9
$DIMLFAC
 40
1.0
  9
$DIMTOFL
 70
     1
  9
$DIMTVP
 40
0.0
  9
$DIMTIX
 70
     0
  9
$DIMSOXD
 70
     0
  9
$DIMSAH
 70
     0
  9
$DIMBLK1
  1

  9
$DIMBLK2
  1

  9
$DIMSTYLE
  2
ISO-25
  9
$DIMCLRD
 70
     0
  9
$DIMCLRE
 70
     0
  9
$DIMCLRT
 70
     0
  9
$DIMTFAC
 40
1.0
  9
$DIMGAP
 40
1.524
  9
$DIMJUST
 70
     0
  9
$DIMSD1
 70
     0
  9
$DIMSD2
 70
     0
  9
$DIMTOLJ
 70
     0
  9
$DIMTZIN
 70
     0
  9
$DIMALTZ
 70
     0
  9
$DIMALTTZ
 70
     0
  9
$DIMUPT
 70
     0
  9
$DIMDEC
 70
     2
  9
$DIMTDEC
 70
     2
  9
$DIMALTU
 70
     2
  9
$DIMALTTD
 70
     3
  9
$DIMTXSTY
  7
Standard
  9
$DIMAUNIT
 70
     0
  9
$DIMADEC
 70
     2
  9
$DIMALTRND
 40
0.0
  9
$DIMAZIN
 70
     0
  9
$DIMDSEP
 70
    44
  9
$DIMATFIT
 70
     3
  9
$DIMFRAC
 70
     0
  9
$DIMLDRBLK
  1

  9
$DIMLUNIT
 70
     2
  9
$DIMLWD
 70
    -2
  9
$DIMLWE
 70
    -2
  9
$DIMTMOVE
 70
     0
  9
$LUNITS
 70
     2
  9
$LUPREC
 70
     2
  9
$SKETCHINC
 40
1.0
  9
$FILLETRAD
 40
10.0
  9
$AUNITS
 70
     0
  9
$AUPREC
 70
     2
  9
$MENU
  1
.
  9
$ELEVATION
 40
0.0
  9
$PELEVATION
 40
0.0
  9
$THICKNESS
 40
0.0
  9
$LIMCHECK
 70
     0
  9
$CHAMFERA
 40
0.0
  9
$CHAMFERB
 40
0.0
  9
$CHAMFERC
 40
0.0
  9
$CHAMFERD
 40
0.0
  9
$SKPOLY
 70
     0
  9
$TDCREATE
 40
2458899.725872963
  9
$TDUCREATE
 40
2458899.350872963
  9
$TDUPDATE
 40
2458899.725877477
  9
$TDUUPDATE
 40
2458899.350877477
  9
$TDINDWG
 40
0.0000000116
  9
$TDUSRTIMER
 40
0.0000000116
  9
$USRTIMER
 70
     1
  9
$ANGBASE
 50
0.0
  9
$ANGDIR
 70
     0
  9
$PDMODE
 70
     0
  9
$PDSIZE
 40
-1.0
  9
$PLINEWID
 40
0.0
  9
$SPLFRAME
 70
     0
  9
$SPLINETYPE
 70
     6
  9
$SPLINESEGS
 70
     8
  9
$HANDSEED
  5
394
  9
$SURFTAB1
 70
     6
  9
$SURFTAB2
 70
     6
  9
$SURFTYPE
 70
     6
  9
$SURFU
 70
     6
  9
$SURFV
 70
     6
  9
$UCSBASE
  2

  9
$UCSNAME
  2

  9
$UCSORG
 10
0.0
 20
0.0
 30
0.0
  9
$UCSXDIR
 10
1.0
 20
0.0
 30
0.0
  9
$UCSYDIR
 10
0.0
 20
1.0
 30
0.0
  9
$UCSORTHOREF
  2

  9
$UCSORTHOVIEW
 70
     0
  9
$UCSORGTOP
 10
0.0
 20
0.0
 30
0.0
  9
$UCSORGBOTTOM
 10
0.0
 20
0.0
 30
0.0
  9
$UCSORGLEFT
 10
0.0
 20
0.0
 30
0.0
  9
$UCSORGRIGHT
 10
0.0
 20
0.0
 30
0.0
  9
$UCSORGFRONT
 10
0.0
 20
0.0
 30
0.0
  9
$UCSORGBACK
 10
0.0
 20
0.0
 30
0.0
  9
$PUCSBASE
  2

  9
$PUCSNAME
  2

  9
$PUCSORG
 10
0.0
 20
0.0
 30
0.0
  9
$PUCSXDIR
 10
1.0
 20
0.0
 30
0.0
  9
$PUCSYDIR
 10
0.0
 20
1.0
 30
0.0
  9
$PUCSORTHOREF
  2

  9
$PUCSORTHOVIEW
 70
     0
  9
$PUCSORGTOP
 10
0.0
 20
0.0
 30
0.0
  9
$PUCSORGBOTTOM
 10
0.0
 20
0.0
 30
0.0
  9
$PUCSORGLEFT
 10
0.0
 20
0.0
 30
0.0
  9
$PUCSORGRIGHT
 10
0.0
 20
0.0
 30
0.0
  9
$PUCSORGFRONT
 10
0.0
 20
0.0
 30
0.0
  9
$PUCSORGBACK
 10
0.0
 20
0.0
 30
0.0
  9
$USERI1
 70
     0
  9
$USERI2
 70
     0
  9
$USERI3
 70
     0
  9
$USERI4
 70
     0
  9
$USERI5
 70
     0
  9
$USERR1
 40
0.0
  9
$USERR2
 40
0.0
  9
$USERR3
 40
0.0
  9
$USERR4
 40
0.0
  9
$USERR5
 40
0.0
  9
$WORLDVIEW
 70
     1
  9
$SHADEDGE
 70
     3
  9
$SHADEDIF
 70
    70
  9
$TILEMODE
 70
     1
  9
$MAXACTVP
 70
    64
  9
$PINSBASE
 10
0.0
 20
0.0
 30
0.0
  9
$PLIMCHECK
 70
     0
  9
$PEXTMIN
 10
1.0000000000E+20
 20
1.0000000000E+20
 30
1.0000000000E+20
  9
$PEXTMAX
 10
-1.0000000000E+20
 20
-1.0000000000E+20
 30
-1.0000000000E+20
  9
$PLIMMIN
 10
0.0
 20
0.0
  9
$PLIMMAX
 10
420.0
 20
297.0
  9
$UNITMODE
 70
     0
  9
$VISRETAIN
 70
     1
  9
$PLINEGEN
 70
     0
  9
$PSLTSCALE
 70
     1
  9
$TREEDEPTH
 70
  3020
  9
$CMLSTYLE
  2
Standard
  9
$CMLJUST
 70
     0
  9
$CMLSCALE
 40
20.0
  9
$PROXYGRAPHICS
 70
     1
  9
$MEASUREMENT
 70
     1
  9
$CELWEIGHT
370
    -1
  9
$ENDCAPS
280
     0
  9
$JOINSTYLE
280
     0
  9
$LWDISPLAY
290
     1
  9
$INSUNITS
 70
     4
  9
$HYPERLINKBASE
  1

  9
$STYLESHEET
  1

  9
$XEDIT
290
     1
  9
$CEPSNTYPE
380
     0
  9
$PSTYLEMODE
290
     1
  9
$FINGERPRINTGUID
  2
{49365389-A336-4435-9046-132719B53C63}
  9
$VERSIONGUID
  2
{FAEB1C32-E019-11D5-929B-00C0DF256EC4}
  9
$EXTNAMES
290
     1
  9
$PSVPSCALE
 40
0.0
  9
$OLESTARTUP
290
     0
  0
ENDSEC
  0
SECTION
  2
CLASSES
  0
CLASS
  1
ACDBDICTIONARYWDFLT
  2
AcDbDictionaryWithDefault
  3
ObjectDBX Classes
 90
        0
280
     0
281
     0
  0
CLASS
  1
VISUALSTYLE
  2
AcDbVisualStyle
  3
ObjectDBX Classes
 90
     4095
280
     0
281
     0
  0
CLASS
  1
MATERIAL
  2
AcDbMaterial
  3
ObjectDBX Classes
 90
     1153
280
     0
281
     0
  0
CLASS
  1
SCALE
  2
AcDbScale
  3
ObjectDBX Classes
 90
     1153
280
     0
281
     0
  0
CLASS
  1
TABLESTYLE
  2
AcDbTableStyle
  3
ObjectDBX Classes
 90
     4095
280
     0
281
     0
  0
CLASS
  1
MLEADERSTYLE
  2
AcDbMLeaderStyle
  3
ACDB_MLEADERSTYLE_CLASS
 90
     4095
280
     0
281
     0
  0
CLASS
  1
SUN
  2
AcDbSun
  3
SCENEOE
 90
     1153
280
     0
281
     0
  0
CLASS
  1
ACDBPLACEHOLDER
  2
AcDbPlaceHolder
  3
ObjectDBX Classes
 90
        0
280
     0
281
     0
  0
CLASS
  1
LAYOUT
  2
AcDbLayout
  3
ObjectDBX Classes
 90
        0
280
     0
281
     0
  0
ENDSEC
  0
SECTION
  2
TABLES
  0
TABLE
  2
VPORT
  5
8
330
0
100
AcDbSymbolTable
 70
     1
  0
VPORT
  5
29
330
8
100
AcDbSymbolTableRecord
100
AcDbViewportTableRecord
  2
*Active
 70
     0
 10
0.0
 20
0.0
 11
1.0
 21
1.0
 12
210.0
 22
148.5
 13
0.0
 23
0.0
 14
10.0
 24
10.0
 15
10.0
 25
10.0
 16
0.0
 26
0.0
 36
1.0
 17
0.0
 27
0.0
 37
0.0
 40
297.0
 41
1.4141414141
 42
50.0
 43
0.0
 44
0.0
 50
0.0
 51
0.0
 71
     0
 72
  2000
 73
     1
 74
     3
 75
     0
 76
     0
 77
     0
 78
     0
281
     0
 65
     1
110
0.0
120
0.0
130
0.0
111
1.0
121
0.0
131
0.0
112
0.0
122
1.0
132
0.0
 79
     0
146
0.0
  0
ENDTAB
  0
TABLE
  2
LTYPE
  5
5
330
0
100
AcDbSymbolTable
 70
     6
  0
LTYPE
  5
14
330
5
100
AcDbSymbolTableRecord
100
AcDbLinetypeTableRecord
  2
ByBlock
 70
     0
  3

 72
    65
 73
     0
 40
0.0
  0
LTYPE
  5
15
330
5
100
AcDbSymbolTableRecord
100
AcDbLinetypeTableRecord
  2
ByLayer
 70
     0
  3

 72
    65
 73
     0
 40
0.0
  0
LTYPE
  5
16
330
5
100
AcDbSymbolTableRecord
100
AcDbLinetypeTableRecord
  2
Continuous
 70
     0
  3
Solid line
 72
    65
 73
     0
 40
0.0
  0
LTYPE
  5
6E
330
5
100
AcDbSymbolTableRecord
100
AcDbLinetypeTableRecord
  2
HIDDEN
 70
     0
  3
Hidden __ __ __ __ __ __ __ __ __ __ __ __ __ __
 72
    65
 73
     2
 40
1.905
 49
1.27
 74
     0
 49
-0.635
 74
     0
  0
LTYPE
  5
6F
330
5
100
AcDbSymbolTableRecord
100
AcDbLinetypeTableRecord
  2
PHANTOM
 70
     0
  3
Phantom ______  __  __  ______  __  __  ______
 72
    65
 73
     6
 40
12.7
 49
6.35
 74
     0
 49
-1.27
 74
     0
 49
1.27
 74
     0
 49
-1.27
 74
     0
 49
1.27
 74
     0
 49
-1.27
 74
     0
  0
LTYPE
  5
70
330
5
100
AcDbSymbolTableRecord
100
AcDbLinetypeTableRecord
  2
CENTER
 70
     0
  3
Center ____ _ ____ _ ____ _ ____ _ ____ _ ____
 72
    65
 73
     4
 40
10.16
 49
6.35
 74
     0
 49
-1.27
 74
     0
 49
1.27
 74
     0
 49
-1.27
 74
     0
  0
LTYPE
  5
71
330
5
100
AcDbSymbolTableRecord
100
AcDbLinetypeTableRecord
  2
CENTERX2
 70
     0
  3
Center (2x) ________  __  ________  __  _____
 72
    65
 73
     4
 40
20.32
 49
12.7
 74
     0
 49
-2.54
 74
     0
 49
2.54
 74
     0
 49
-2.54
 74
     0
  0
LTYPE
  5
72
330
5
100
AcDbSymbolTableRecord
100
AcDbLinetypeTableRecord
  2
DOT2
 70
     0
  3
Dot (.5x) ........................................
 72
    65
 73
     2
 40
0.635
 49
0.0
 74
     0
 49
-0.635
 74
     0
  0
ENDTAB
  0
TABLE
  2
LAYER
  5
2
330
0
100
AcDbSymbolTable
 70
     8
  0
LAYER
  5
10
330
2
100
AcDbSymbolTableRecord
100
AcDbLayerTableRecord
  2
0
 70
     0
 62
     7
  6
Continuous
370
    -3
390
F
  0
LAYER
  5
73
330
2
100
AcDbSymbolTableRecord
100
AcDbLayerTableRecord
  2
FORMAT
 70
     0
 62
     7
  6
Continuous
370
    -3
390
F
  0
LAYER
  5
74
330
2
100
AcDbSymbolTableRecord
100
AcDbLayerTableRecord
  2
太線
 70
     0
 62
     7
  6
Continuous
370
    35
390
F
  0
LAYER
  5
75
330
2
100
AcDbSymbolTableRecord
100
AcDbLayerTableRecord
  2
非表示
 70
     0
 62
    -3
  6
Continuous
290
     0
370
    -3
390
F
  0
LAYER
  5
76
330
2
100
AcDbSymbolTableRecord
100
AcDbLayerTableRecord
  2
設変0
 70
     0
 62
     7
  6
Continuous
370
    -3
390
F
  0
LAYER
  5
77
330
2
100
AcDbSymbolTableRecord
100
AcDbLayerTableRecord
  2
作図用
 70
     0
 62
     7
  6
Continuous
370
    -3
390
F
  0
LAYER
  5
78
330
2
100
AcDbSymbolTableRecord
100
AcDbLayerTableRecord
  2
太線灰
 70
     0
 62
     9
  6
Continuous
370
    50
390
F
  0
LAYER
  5
79
330
2
100
AcDbSymbolTableRecord
100
AcDbLayerTableRecord
  2
灰
 70
     0
 62
     9
  6
Continuous
370
    -3
390
F
  0
ENDTAB
  0
TABLE
  2
STYLE
  5
3
330
0
100
AcDbSymbolTable
 70
    29
  0
STYLE
  5
11
330
3
100
AcDbSymbolTableRecord
100
AcDbTextStyleTableRecord
  2
Standard
 70
     0
 40
0.0
 41
1.0
 50
0.0
 71
     0
 42
3.5
  3
txt
  4
bigfont
  0
STYLE
  5
101
330
3
100
AcDbSymbolTableRecord
100
AcDbTextStyleTableRecord
  2
SLDTEXTSTYLE0
 70
     0
 40
0.0
 41
0.7
 50
0.0
 71
     0
 42
3.5
  3
TXT
  4
bigfont
  0
STYLE
  5
104
330
3
100
AcDbSymbolTableRecord
100
AcDbTextStyleTableRecord
  2
SLDTEXTSTYLE1
 70
     0
 40
0.0
 41
0.9347633011
 50
0.0
 71
     0
 42
3.5
  3
TXT
  4
bigfont
  0
STYLE
  5
106
330
3
100
AcDbSymbolTableRecord
100
AcDbTextStyleTableRecord
  2
SLDTEXTSTYLE2
 70
     0
 40
0.0
 41
0.8381134104
 50
0.0
 71
     0
 42
3.5
  3
TXT
  4
bigfont
  0
STYLE
  5
108
330
3
100
AcDbSymbolTableRecord
100
AcDbTextStyleTableRecord
  2
SLDTEXTSTYLE3
 70
     0
 40
0.0
 41
0.8368171345
 50
0.0
 71
     0
 42
3.5
  3
TXT
  4
bigfont
  0
STYLE
  5
10A
330
3
100
AcDbSymbolTableRecord
100
AcDbTextStyleTableRecord
  2
SLDTEXTSTYLE4
 70
     0
 40
0.0
 41
0.84
 50
0.0
 71
     0
 42
3.5
  3
TXT
  4
bigfont
  0
STYLE
  5
112
330
3
100
AcDbSymbolTableRecord
100
AcDbTextStyleTableRecord
  2
SLDTEXTSTYLE5
 70
     0
 40
0.0
 41
0.466666669
 50
0.0
 71
     0
 42
3.5
  3
TXT
  4
bigfont
  0
STYLE
  5
116
330
3
100
AcDbSymbolTableRecord
100
AcDbTextStyleTableRecord
  2
SLDTEXTSTYLE6
 70
     0
 40
0.0
 41
0.8288540274
 50
0.0
 71
     0
 42
3.5
  3
TXT
  4
bigfont
  0
STYLE
  5
118
330
3
100
AcDbSymbolTableRecord
100
AcDbTextStyleTableRecord
  2
SLDTEXTSTYLE7
 70
     0
 40
0.0
 41
0.8088321234
 50
0.0
 71
     0
 42
3.5
  3
TXT
  4
bigfont
  0
STYLE
  5
11A
330
3
100
AcDbSymbolTableRecord
100
AcDbTextStyleTableRecord
  2
SLDTEXTSTYLE8
 70
     0
 40
0.0
 41
0.780339084
 50
0.0
 71
     0
 42
3.5
  3
TXT
  4
bigfont
  0
STYLE
  5
11C
330
3
100
AcDbSymbolTableRecord
100
AcDbTextStyleTableRecord
  2
SLDTEXTSTYLE9
 70
     0
 40
0.0
 41
0.8293860372
 50
0.0
 71
     0
 42
3.5
  3
TXT
  4
bigfont
  0
STYLE
  5
11E
330
3
100
AcDbSymbolTableRecord
100
AcDbTextStyleTableRecord
  2
SLDTEXTSTYLE10
 70
     0
 40
0.0
 41
0.9381829933
 50
0.0
 71
     0
 42
3.5
  3
TXT
  4
bigfont
  0
STYLE
  5
120
330
3
100
AcDbSymbolTableRecord
100
AcDbTextStyleTableRecord
  2
SLDTEXTSTYLE11
 70
     0
 40
0.0
 41
0.851741268
 50
0.0
 71
     0
 42
3.5
  3
TXT
  4
bigfont
  0
STYLE
  5
123
330
3
100
AcDbSymbolTableRecord
100
AcDbTextStyleTableRecord
  2
SLDTEXTSTYLE12
 70
     0
 40
0.0
 41
0.719248152
 50
0.0
 71
     0
 42
3.5
  3
TXT
  4
bigfont
  0
STYLE
  5
125
330
3
100
AcDbSymbolTableRecord
100
AcDbTextStyleTableRecord
  2
SLDTEXTSTYLE13
 70
     0
 40
0.0
 41
0.8121071616
 50
0.0
 71
     0
 42
3.5
  3
TXT
  4
bigfont
  0
STYLE
  5
127
330
3
100
AcDbSymbolTableRecord
100
AcDbTextStyleTableRecord
  2
SLDTEXTSTYLE14
 70
     0
 40
0.0
 41
0.7706230224
 50
0.0
 71
     0
 42
3.5
  3
TXT
  4
bigfont
  0
STYLE
  5
129
330
3
100
AcDbSymbolTableRecord
100
AcDbTextStyleTableRecord
  2
SLDTEXTSTYLE15
 70
     0
 40
0.0
 41
0.7973422044
 50
0.0
 71
     0
 42
3.5
  3
TXT
  4
bigfont
  0
STYLE
  5
12B
330
3
100
AcDbSymbolTableRecord
100
AcDbTextStyleTableRecord
  2
SLDTEXTSTYLE16
 70
     0
 40
0.0
 41
0.858372984
 50
0.0
 71
     0
 42
3.5
  3
TXT
  4
bigfont
  0
STYLE
  5
12D
330
3
100
AcDbSymbolTableRecord
100
AcDbTextStyleTableRecord
  2
SLDTEXTSTYLE17
 70
     0
 40
0.0
 41
0.8213352588
 50
0.0
 71
     0
 42
3.5
  3
TXT
  4
bigfont
  0
STYLE
  5
12F
330
3
100
AcDbSymbolTableRecord
100
AcDbTextStyleTableRecord
  2
SLDTEXTSTYLE18
 70
     0
 40
0.0
 41
0.7910772324
 50
0.0
 71
     0
 42
3.5
  3
TXT
  4
bigfont
  0
STYLE
  5
131
330
3
100
AcDbSymbolTableRecord
100
AcDbTextStyleTableRecord
  2
SLDTEXTSTYLE19
 70
     0
 40
0.0
 41
0.7599353412
 50
0.0
 71
     0
 42
3.5
  3
TXT
  4
bigfont
  0
STYLE
  5
134
330
3
100
AcDbSymbolTableRecord
100
AcDbTextStyleTableRecord
  2
SLDTEXTSTYLE20
 70
     0
 40
0.0
 41
0.7790601336
 50
0.0
 71
     0
 42
3.5
  3
TXT
  4
bigfont
  0
STYLE
  5
136
330
3
100
AcDbSymbolTableRecord
100
AcDbTextStyleTableRecord
  2
SLDTEXTSTYLE21
 70
     0
 40
0.0
 41
0.7251541332
 50
0.0
 71
     0
 42
3.5
  3
TXT
  4
bigfont
  0
STYLE
  5
139
330
3
100
AcDbSymbolTableRecord
100
AcDbTextStyleTableRecord
  2
SLDTEXTSTYLE22
 70
     0
 40
0.0
 41
0.8180131428
 50
0.0
 71
     0
 42
3.5
  3
TXT
  4
bigfont
  0
STYLE
  5
13B
330
3
100
AcDbSymbolTableRecord
100
AcDbTextStyleTableRecord
  2
SLDTEXTSTYLE23
 70
     0
 40
0.0
 41
0.7218730344
 50
0.0
 71
     0
 42
3.5
  3
TXT
  4
bigfont
  0
STYLE
  5
13E
330
3
100
AcDbSymbolTableRecord
100
AcDbTextStyleTableRecord
  2
SLDTEXTSTYLE24
 70
     0
 40
0.0
 41
0.8339245488
 50
0.0
 71
     0
 42
3.5
  3
TXT
  4
bigfont
  0
STYLE
  5
140
330
3
100
AcDbSymbolTableRecord
100
AcDbTextStyleTableRecord
  2
SLDTEXTSTYLE25
 70
     0
 40
0.0
 41
0.7566825756
 50
0.0
 71
     0
 42
3.5
  3
TXT
  4
bigfont
  0
STYLE
  5
151
330
3
100
AcDbSymbolTableRecord
100
AcDbTextStyleTableRecord
  2
SLDTEXTSTYLE26
 70
     0
 40
0.0
 41
0.860070624
 50
0.0
 71
     0
 42
3.5
  3
TXT
  4
bigfont
  0
STYLE
  5
153
330
3
100
AcDbSymbolTableRecord
100
AcDbTextStyleTableRecord
  2
SLDTEXTSTYLE27
 70
     0
 40
0.0
 41
1.031377368
 50
0.0
 71
     0
 42
3.5
  3
TXT
  4
bigfont
  0
ENDTAB
  0
TABLE
  2
VIEW
  5
6
330
0
100
AcDbSymbolTable
 70
     0
  0
ENDTAB
  0
TABLE
  2
UCS
  5
7
330
0
100
AcDbSymbolTable
 70
     0
  0
ENDTAB
  0
TABLE
  2
APPID
  5
9
330
0
100
AcDbSymbolTable
 70
     1
  0
APPID
  5
12
330
9
100
AcDbSymbolTableRecord
100
AcDbRegAppTableRecord
  2
ACAD
 70
     0
  0
ENDTAB
  0
TABLE
  2
DIMSTYLE
  5
A
330
0
100
AcDbSymbolTable
 70
     3
100
AcDbDimStyleTable
  0
DIMSTYLE
105
27
330
A
100
AcDbSymbolTableRecord
100
AcDbDimStyleTableRecord
  2
ISO-25
 70
     0
 41
2.5
 42
0.625
 43
3.75
 44
1.25
 73
     0
 74
     0
 77
     1
 78
     8
140
2.5
141
2.5
143
0.0393700787
147
0.625
171
     3
172
     1
178
     0
271
     2
272
     2
274
     3
278
    44
283
     0
284
     8
340
11
  0
DIMSTYLE
105
1B0
102
{ACAD_REACTORS
330
1AF
330
1C0
102
}
330
A
100
AcDbSymbolTableRecord
100
AcDbDimStyleTableRecord
  2
SLDDIMSTYLE0
 70
     0
 41
3.0
 44
0.0
 45
0.000000001
 73
     0
 74
     0
 77
     1
 78
    12
 79
     3
140
3.5
147
0.875
173
     1
178
     0
271
     2
272
     2
276
     2
284
    12
340
101
341
1B1
343
1B1
344
1B1
  0
DIMSTYLE
105
1D1
330
A
100
AcDbSymbolTableRecord
100
AcDbDimStyleTableRecord
  2
SLDDIMSTYLE1
 70
     0
 41
3.0
 44
0.0
 45
0.000000001
146
3.0
147
0.0
173
     1
178
     0
271
     0
272
     0
276
     2
340
11
341
1B1
343
1B1
344
1B1
  0
ENDTAB
  0
TABLE
  2
BLOCK_RECORD
  5
1
330
0
100
AcDbSymbolTable
 70
    12
  0
BLOCK_RECORD
  5
1F
330
1
100
AcDbSymbolTableRecord
100
AcDbBlockTableRecord
  2
*Model_Space
340
22
  0
BLOCK_RECORD
  5
1B
330
1
100
AcDbSymbolTableRecord
100
AcDbBlockTableRecord
  2
*Paper_Space
340
1E
  0
BLOCK_RECORD
  5
23
330
1
100
AcDbSymbolTableRecord
100
AcDbBlockTableRecord
  2
*Paper_Space0
340
26
  0
BLOCK_RECORD
  5
161
330
1
100
AcDbSymbolTableRecord
100
AcDbBlockTableRecord
  2
SW_NOTE_0
340
0
102
{BLKREFS
331
168
102
}
  0
BLOCK_RECORD
  5
169
330
1
100
AcDbSymbolTableRecord
100
AcDbBlockTableRecord
  2
SW_NOTE_1
340
0
102
{BLKREFS
331
170
102
}
  0
BLOCK_RECORD
  5
171
330
1
100
AcDbSymbolTableRecord
100
AcDbBlockTableRecord
  2
SW_NOTE_2
340
0
102
{BLKREFS
331
178
102
}
  0
BLOCK_RECORD
  5
179
330
1
100
AcDbSymbolTableRecord
100
AcDbBlockTableRecord
  2
SW_NOTE_3
340
0
102
{BLKREFS
331
180
102
}
  0
BLOCK_RECORD
  5
1B1
330
1
100
AcDbSymbolTableRecord
100
AcDbBlockTableRecord
  2
_OPEN30
340
0
102
{BLKREFS
331
1BA
331
1BB
331
1C4
331
1C5
102
}
  0
BLOCK_RECORD
  5
1B7
330
1
100
AcDbSymbolTableRecord
100
AcDbBlockTableRecord
  2
_D
340
0
  0
BLOCK_RECORD
  5
1C1
330
1
100
AcDbSymbolTableRecord
100
AcDbBlockTableRecord
  2
_D_1
340
0
  0
BLOCK_RECORD
  5
1CB
330
1
100
AcDbSymbolTableRecord
100
AcDbBlockTableRecord
  2
SW_NOTE_4
340
0
102
{BLKREFS
331
1D0
102
}
  0
BLOCK_RECORD
  5
37A
330
1
100
AcDbSymbolTableRecord
100
AcDbBlockTableRecord
  2
SW_NOTE_5
340
0
102
{BLKREFS
331
37F
102
}
  0
BLOCK_RECORD
  5
381
330
1
100
AcDbSymbolTableRecord
100
AcDbBlockTableRecord
  2
SW_NOTE_6
340
0
102
{BLKREFS
331
386
102
}
  0
BLOCK_RECORD
  5
388
330
1
100
AcDbSymbolTableRecord
100
AcDbBlockTableRecord
  2
SW_CENTERMARKSYMBOL_0
340
0
102
{BLKREFS
331
393
102
}
  0
ENDTAB
  0
ENDSEC
  0
SECTION
  2
BLOCKS
  0
BLOCK
  5
20
330
1F
100
AcDbEntity
  8
0
100
AcDbBlockBegin
  2
*Model_Space
 70
     0
 10
0.0
 20
0.0
 30
0.0
  3
*Model_Space
  1

  0
ENDBLK
  5
21
330
1F
100
AcDbEntity
  8
0
100
AcDbBlockEnd
  0
BLOCK
  5
1C
330
1B
100
AcDbEntity
 67
     1
  8
0
100
AcDbBlockBegin
  2
*Paper_Space
 70
     0
 10
0.0
 20
0.0
 30
0.0
  3
*Paper_Space
  1

  0
ENDBLK
  5
1D
330
1B
100
AcDbEntity
 67
     1
  8
0
100
AcDbBlockEnd
  0
BLOCK
  5
24
330
23
100
AcDbEntity
  8
0
100
AcDbBlockBegin
  2
*Paper_Space0
 70
     0
 10
0.0
 20
0.0
 30
0.0
  3
*Paper_Space0
  1

  0
ENDBLK
  5
25
330
23
100
AcDbEntity
  8
0
100
AcDbBlockEnd
  0
BLOCK
  5
162
330
161
100
AcDbEntity
  8
0
100
AcDbBlockBegin
  2
SW_NOTE_0
 70
     0
 10
0.0
 20
0.0
 30
0.0
  3
SW_NOTE_0
  1

  0
LINE
  5
164
330
161
100
AcDbEntity
  8
FORMAT
 62
     0
100
AcDbLine
 10
-1.62941074
 20
0.0
 30
0.0
 11
0.6933063269
 21
4.0230639715
 31
0.0
  0
LINE
  5
165
330
161
100
AcDbEntity
  8
FORMAT
 62
     0
100
AcDbLine
 10
0.6933063269
 20
4.0230639715
 30
0.0
 11
3.0160233938
 21
0.0
 31
0.0
  0
LINE
  5
166
330
161
100
AcDbEntity
  8
FORMAT
 62
     0
100
AcDbLine
 10
3.0160233938
 20
0.0
 30
0.0
 11
-1.62941074
 21
0.0
 31
0.0
  0
MTEXT
  5
167
330
161
100
AcDbEntity
  8
FORMAT
 62
     0
100
AcDbMText
 10
0.0
 20
2.7285267159
 30
0.0
 40
2.1166666667
 41
0.0
 71
     1
 72
     1
  1
0
  7
SLDTEXTSTYLE0
 73
     1
 44
1.0
  0
ENDBLK
  5
163
330
161
100
AcDbEntity
  8
0
100
AcDbBlockEnd
  0
BLOCK
  5
16A
330
169
100
AcDbEntity
  8
0
100
AcDbBlockBegin
  2
SW_NOTE_1
 70
     0
 10
0.0
 20
0.0
 30
0.0
  3
SW_NOTE_1
  1

  0
LINE
  5
16C
330
169
100
AcDbEntity
  8
FORMAT
 62
     0
100
AcDbLine
 10
-1.62941074
 20
0.0
 30
0.0
 11
0.6538638263
 21
3.9547475565
 31
0.0
  0
LINE
  5
16D
330
169
100
AcDbEntity
  8
FORMAT
 62
     0
100
AcDbLine
 10
0.6538638263
 20
3.9547475565
 30
0.0
 11
2.9371383926
 21
0.0
 31
0.0
  0
LINE
  5
16E
330
169
100
AcDbEntity
  8
FORMAT
 62
     0
100
AcDbLine
 10
2.9371383926
 20
0.0
 30
0.0
 11
-1.62941074
 21
0.0
 31
0.0
  0
MTEXT
  5
16F
330
169
100
AcDbEntity
  8
FORMAT
 62
     0
100
AcDbMText
 10
0.0
 20
2.7285267159
 30
0.0
 40
2.1166666667
 41
0.0
 71
     1
 72
     1
  1
1
  7
SLDTEXTSTYLE0
 73
     1
 44
1.0
  0
ENDBLK
  5
16B
330
169
100
AcDbEntity
  8
0
100
AcDbBlockEnd
  0
BLOCK
  5
172
330
171
100
AcDbEntity
  8
0
100
AcDbBlockBegin
  2
SW_NOTE_2
 70
     0
 10
0.0
 20
0.0
 30
0.0
  3
SW_NOTE_2
  1

  0
LINE
  5
174
330
171
100
AcDbEntity
  8
FORMAT
 62
     0
100
AcDbLine
 10
-1.62941074
 20
0.0
 30
0.0
 11
0.6876717089
 21
4.0133045268
 31
0.0
  0
LINE
  5
175
330
171
100
AcDbEntity
  8
FORMAT
 62
     0
100
AcDbLine
 10
0.6876717089
 20
4.0133045268
 30
0.0
 11
3.0047541578
 21
0.0
 31
0.0
  0
LINE
  5
176
330
171
100
AcDbEntity
  8
FORMAT
 62
     0
100
AcDbLine
 10
3.0047541578
 20
0.0
 30
0.0
 11
-1.62941074
 21
0.0
 31
0.0
  0
MTEXT
  5
177
330
171
100
AcDbEntity
  8
FORMAT
 62
     0
100
AcDbMText
 10
0.0
 20
2.7285267159
 30
0.0
 40
2.1166666667
 41
0.0
 71
     1
 72
     1
  1
2
  7
SLDTEXTSTYLE0
 73
     1
 44
1.0
  0
ENDBLK
  5
173
330
171
100
AcDbEntity
  8
0
100
AcDbBlockEnd
  0
BLOCK
  5
17A
330
179
100
AcDbEntity
  8
0
100
AcDbBlockBegin
  2
SW_NOTE_3
 70
     0
 10
0.0
 20
0.0
 30
0.0
  3
SW_NOTE_3
  1

  0
LINE
  5
17C
330
179
100
AcDbEntity
  8
FORMAT
 62
     0
100
AcDbLine
 10
-1.62941074
 20
0.0
 30
0.0
 11
0.6876717089
 21
4.0133045268
 31
0.0
  0
LINE
  5
17D
330
179
100
AcDbEntity
  8
FORMAT
 62
     0
100
AcDbLine
 10
0.6876717089
 20
4.0133045268
 30
0.0
 11
3.0047541578
 21
0.0
 31
0.0
  0
LINE
  5
17E
330
179
100
AcDbEntity
  8
FORMAT
 62
     0
100
AcDbLine
 10
3.0047541578
 20
0.0
 30
0.0
 11
-1.62941074
 21
0.0
 31
0.0
  0
MTEXT
  5
17F
330
179
100
AcDbEntity
  8
FORMAT
 62
     0
100
AcDbMText
 10
0.0
 20
2.7285267159
 30
0.0
 40
2.1166666667
 41
0.0
 71
     1
 72
     1
  1
3
  7
SLDTEXTSTYLE0
 73
     1
 44
1.0
  0
ENDBLK
  5
17B
330
179
100
AcDbEntity
  8
0
100
AcDbBlockEnd
  0
BLOCK
  5
1B2
330
1B1
100
AcDbEntity
  8
0
100
AcDbBlockBegin
  2
_OPEN30
 70
     0
 10
0.0
 20
0.0
 30
0.0
  3
_OPEN30
  1

  0
LINE
  5
1B4
330
1B1
100
AcDbEntity
  8
0
  6
ByBlock
 62
     0
370
    -2
100
AcDbLine
 10
-1.0
 20
0.267949
 30
0.0
 11
0.0
 21
0.0
 31
0.0
  0
LINE
  5
1B5
330
1B1
100
AcDbEntity
  8
0
  6
ByBlock
 62
     0
370
    -2
100
AcDbLine
 10
0.0
 20
0.0
 30
0.0
 11
-1.0
 21
-0.267949
 31
0.0
  0
LINE
  5
1B6
330
1B1
100
AcDbEntity
  8
0
  6
ByBlock
 62
     0
370
    -2
100
AcDbLine
 10
0.0
 20
0.0
 30
0.0
 11
-1.0
 21
0.0
 31
0.0
  0
ENDBLK
  5
1B3
330
1B1
100
AcDbEntity
  8
0
100
AcDbBlockEnd
  0
BLOCK
  5
1B8
330
1B7
100
AcDbEntity
  8
0
100
AcDbBlockBegin
  2
_D
 70
     0
 10
0.0
 20
0.0
 30
0.0
  3
_D
  1

  0
INSERT
  5
1BA
330
1B7
100
AcDbEntity
  8
FORMAT
100
AcDbBlockReference
  2
_OPEN30
 10
189.965623007
 20
138.829060588
 30
0.0
 41
3.0
 42
3.0
 50
180.0
  0
INSERT
  5
1BB
330
1B7
100
AcDbEntity
  8
FORMAT
100
AcDbBlockReference
  2
_OPEN30
 10
272.865623007
 20
138.829060588
 30
0.0
 41
3.0
 42
3.0
 50
0.0
  0
LINE
  5
1BC
330
1B7
100
AcDbEntity
  8
FORMAT
100
AcDbLine
 10
189.965623007
 20
154.9103073364
 30
0.0
 11
189.965623007
 21
137.829060588
 31
0.0
  0
LINE
  5
1BD
330
1B7
100
AcDbEntity
  8
FORMAT
100
AcDbLine
 10
272.865623007
 20
164.5048217078
 30
0.0
 11
272.865623007
 21
137.829060588
 31
0.0
  0
LINE
  5
1BE
330
1B7
100
AcDbEntity
  8
FORMAT
100
AcDbLine
 10
189.965623007
 20
138.829060588
 30
0.0
 11
272.865623007
 21
138.829060588
 31
0.0
  0
MTEXT
  5
1BF
330
1B7
100
AcDbEntity
  8
FORMAT
100
AcDbMText
 10
224.3524283633
 20
143.3407974444
 30
0.0
 40
3.5
 41
0.0
 71
     1
 72
     1
  1
約83mm
  7
SLDTEXTSTYLE0
 73
     1
 44
1.0
  0
ENDBLK
  5
1B9
330
1B7
100
AcDbEntity
  8
0
100
AcDbBlockEnd
  0
BLOCK
  5
1C2
330
1C1
100
AcDbEntity
  8
0
100
AcDbBlockBegin
  2
_D_1
 70
     0
 10
0.0
 20
0.0
 30
0.0
  3
_D_1
  1

  0
INSERT
  5
1C4
330
1C1
100
AcDbEntity
  8
FORMAT
100
AcDbBlockReference
  2
_OPEN30
 10
272.865623007
 20
138.829060588
 30
0.0
 41
3.0
 42
3.0
 50
180.0
  0
INSERT
  5
1C5
330
1C1
100
AcDbEntity
  8
FORMAT
100
AcDbBlockReference
  2
_OPEN30
 10
334.815623007
 20
138.829060588
 30
0.0
 41
3.0
 42
3.0
 50
0.0
  0
LINE
  5
1C6
330
1C1
100
AcDbEntity
  8
FORMAT
100
AcDbLine
 10
272.865623007
 20
164.5048217078
 30
0.0
 11
272.865623007
 21
137.829060588
 31
0.0
  0
LINE
  5
1C7
330
1C1
100
AcDbEntity
  8
FORMAT
100
AcDbLine
 10
334.815623007
 20
165.7603073364
 30
0.0
 11
334.815623007
 21
137.829060588
 31
0.0
  0
LINE
  5
1C8
330
1C1
100
AcDbEntity
  8
FORMAT
100
AcDbLine
 10
272.865623007
 20
138.829060588
 30
0.0
 11
334.815623007
 21
138.829060588
 31
0.0
  0
MTEXT
  5
1C9
330
1C1
100
AcDbEntity
  8
FORMAT
100
AcDbMText
 10
292.6381926544
 20
147.4144084393
 30
0.0
 40
3.5
 41
0.0
 71
     1
 72
     1
  1
指定長±5％
  7
SLDTEXTSTYLE0
 73
     1
 44
1.0
  0
MTEXT
  5
1CA
330
1C1
100
AcDbEntity
  8
FORMAT
100
AcDbMText
 10
287.3906220801
 20
143.3407974444
 30
0.0
 40
3.5
 41
0.0
 71
     1
 72
     1
  1
(2m未満は±10cm)
  7
SLDTEXTSTYLE0
 73
     1
 44
1.0
  0
ENDBLK
  5
1C3
330
1C1
100
AcDbEntity
  8
0
100
AcDbBlockEnd
  0
BLOCK
  5
1CC
330
1CB
100
AcDbEntity
  8
0
100
AcDbBlockBegin
  2
SW_NOTE_4
 70
     0
 10
0.0
 20
0.0
 30
0.0
  3
SW_NOTE_4
  1

  0
LINE
  5
1CE
330
1CB
100
AcDbEntity
  8
FORMAT
 62
     0
100
AcDbLine
 10
20.2555685699
 20
0.0
 30
0.0
 11
0.0
 21
0.0
 31
0.0
  0
MTEXT
  5
1CF
330
1CB
100
AcDbEntity
  8
FORMAT
 62
     0
100
AcDbMText
 10
0.4198503033
 20
4.5936247601
 30
0.0
 40
3.5
 41
0.0
 71
     1
 72
     1
  1
嵌合確認穴
  7
SLDTEXTSTYLE0
 73
     1
 44
1.0
  0
ENDBLK
  5
1CD
330
1CB
100
AcDbEntity
  8
0
100
AcDbBlockEnd
  0
BLOCK
  5
37B
330
37A
100
AcDbEntity
  8
0
100
AcDbBlockBegin
  2
SW_NOTE_5
 70
     0
 10
0.0
 20
0.0
 30
0.0
  3
SW_NOTE_5
  1

  0
LINE
  5
37D
330
37A
100
AcDbEntity
  8
FORMAT
 62
     0
100
AcDbLine
 10
-24.4229015499
 20
0.0
 30
0.0
 11
0.0
 21
0.0
 31
0.0
  0
MTEXT
  5
37E
330
37A
100
AcDbEntity
  8
FORMAT
 62
     0
100
AcDbMText
 10
-24.8453549619
 20
4.5920852609
 30
0.0
 40
3.5
 41
0.0
 71
     1
 72
     1
  1
直径：約39mm
  7
SLDTEXTSTYLE0
 73
     1
 44
1.0
  0
ENDBLK
  5
37C
330
37A
100
AcDbEntity
  8
0
100
AcDbBlockEnd
  0
BLOCK
  5
382
330
381
100
AcDbEntity
  8
0
100
AcDbBlockBegin
  2
SW_NOTE_6
 70
     0
 10
0.0
 20
0.0
 30
0.0
  3
SW_NOTE_6
  1

  0
LINE
  5
384
330
381
100
AcDbEntity
  8
FORMAT
 62
     0
100
AcDbLine
 10
27.6055681914
 20
0.0
 30
0.0
 11
0.0
 21
0.0
 31
0.0
  0
MTEXT
  5
385
330
381
100
AcDbEntity
  8
FORMAT
 62
     0
100
AcDbMText
 10
0.4718635322
 20
4.5624750352
 30
0.0
 40
3.5
 41
0.0
 71
     1
 72
     1
  1
端子（代表 3極）
  7
SLDTEXTSTYLE0
 73
     1
 44
1.0
  0
ENDBLK
  5
383
330
381
100
AcDbEntity
  8
0
100
AcDbBlockEnd
  0
BLOCK
  5
389
330
388
100
AcDbEntity
  8
0
100
AcDbBlockBegin
  2
SW_CENTERMARKSYMBOL_0
 70
     0
 10
0.0
 20
0.0
 30
0.0
  3
SW_CENTERMARKSYMBOL_0
  1

  0
LINE
  5
38B
330
388
100
AcDbEntity
  8
FORMAT
 62
     0
100
AcDbLine
 10
0.0
 20
0.0
 30
0.0
 11
0.0
 21
2.5
 31
0.0
  0
LINE
  5
38C
330
388
100
AcDbEntity
  8
FORMAT
 62
     0
100
AcDbLine
 10
0.0
 20
0.0
 30
0.0
 11
-2.5
 21
0.0
 31
0.0
  0
LINE
  5
38D
330
388
100
AcDbEntity
  8
FORMAT
 62
     0
100
AcDbLine
 10
0.0
 20
0.0
 30
0.0
 11
0.0
 21
-2.5
 31
0.0
  0
LINE
  5
38E
330
388
100
AcDbEntity
  8
FORMAT
 62
     0
100
AcDbLine
 10
0.0
 20
0.0
 30
0.0
 11
2.5
 21
0.0
 31
0.0
  0
LINE
  5
38F
330
388
100
AcDbEntity
  8
FORMAT
 62
     0
100
AcDbLine
 10
0.0
 20
5.0
 30
0.0
 11
0.0
 21
21.6
 31
0.0
  0
LINE
  5
390
330
388
100
AcDbEntity
  8
FORMAT
 62
     0
100
AcDbLine
 10
-5.0
 20
0.0
 30
0.0
 11
-21.6
 21
0.0
 31
0.0
  0
LINE
  5
391
330
388
100
AcDbEntity
  8
FORMAT
 62
     0
100
AcDbLine
 10
0.0
 20
-5.0
 30
0.0
 11
0.0
 21
-21.6
 31
0.0
  0
LINE
  5
392
330
388
100
AcDbEntity
  8
FORMAT
 62
     0
100
AcDbLine
 10
5.0
 20
0.0
 30
0.0
 11
21.6
 21
0.0
 31
0.0
  0
ENDBLK
  5
38A
330
388
100
AcDbEntity
  8
0
100
AcDbBlockEnd
  0
ENDSEC
  0
SECTION
  2
ENTITIES
  0
LINE
  5
7A
330
1F
100
AcDbEntity
  8
0
  6
Continuous
 62
     7
370
    35
100
AcDbLine
 10
374.8999
 20
45.0
 30
0.0
 11
374.8999
 21
25.0
 31
0.0
  0
LINE
  5
7B
330
1F
100
AcDbEntity
  8
0
  6
Continuous
 62
     7
370
    18
100
AcDbLine
 10
248.0
 20
5.0
 30
0.0
 11
248.0
 21
10.0
 31
0.0
  0
LINE
  5
7C
330
1F
100
AcDbEntity
  8
0
  6
Continuous
 62
     7
370
    18
100
AcDbLine
 10
313.0
 20
5.0
 30
0.0
 11
313.0
 21
10.0
 31
0.0
  0
LINE
  5
7D
330
1F
100
AcDbEntity
  8
0
  6
Continuous
 62
     7
370
    18
100
AcDbLine
 10
312.0
 20
5.0
 30
0.0
 11
312.0
 21
10.0
 31
0.0
  0
LINE
  5
7E
330
1F
100
AcDbEntity
  8
0
  6
Continuous
 62
     7
370
    18
100
AcDbLine
 10
311.0
 20
5.0
 30
0.0
 11
311.0
 21
10.0
 31
0.0
  0
LINE
  5
7F
330
1F
100
AcDbEntity
  8
0
  6
Continuous
 62
     7
370
    18
100
AcDbLine
 10
310.0
 20
5.0
 30
0.0
 11
310.0
 21
10.0
 31
0.0
  0
LINE
  5
80
330
1F
100
AcDbEntity
  8
0
  6
Continuous
 62
     7
370
    18
100
AcDbLine
 10
309.0
 20
5.0
 30
0.0
 11
309.0
 21
10.0
 31
0.0
  0
LINE
  5
81
330
1F
100
AcDbEntity
  8
0
  6
Continuous
 62
     7
370
    18
100
AcDbLine
 10
308.0
 20
5.0
 30
0.0
 11
308.0
 21
10.0
 31
0.0
  0
LINE
  5
82
330
1F
100
AcDbEntity
  8
0
  6
Continuous
 62
     7
370
    18
100
AcDbLine
 10
304.0
 20
5.0
 30
0.0
 11
304.0
 21
10.0
 31
0.0
  0
LINE
  5
83
330
1F
100
AcDbEntity
  8
0
  6
Continuous
 62
     7
370
    18
100
AcDbLine
 10
303.0
 20
5.0
 30
0.0
 11
303.0
 21
10.0
 31
0.0
  0
LINE
  5
84
330
1F
100
AcDbEntity
  8
0
  6
Continuous
 62
     7
370
    18
100
AcDbLine
 10
302.0
 20
5.0
 30
0.0
 11
302.0
 21
10.0
 31
0.0
  0
LINE
  5
85
330
1F
100
AcDbEntity
  8
0
  6
Continuous
 62
     7
370
    18
100
AcDbLine
 10
301.0
 20
5.0
 30
0.0
 11
301.0
 21
10.0
 31
0.0
  0
LINE
  5
86
330
1F
100
AcDbEntity
  8
0
  6
Continuous
 62
     7
370
    18
100
AcDbLine
 10
300.0
 20
5.0
 30
0.0
 11
300.0
 21
10.0
 31
0.0
  0
LINE
  5
87
330
1F
100
AcDbEntity
  8
0
  6
Continuous
 62
     7
370
    18
100
AcDbLine
 10
299.0
 20
5.0
 30
0.0
 11
299.0
 21
10.0
 31
0.0
  0
LINE
  5
88
330
1F
100
AcDbEntity
  8
0
  6
Continuous
 62
     7
370
    18
100
AcDbLine
 10
298.0
 20
5.0
 30
0.0
 11
298.0
 21
10.0
 31
0.0
  0
LINE
  5
89
330
1F
100
AcDbEntity
  8
0
  6
Continuous
 62
     7
370
    18
100
AcDbLine
 10
294.0
 20
5.0
 30
0.0
 11
294.0
 21
10.0
 31
0.0
  0
LINE
  5
8A
330
1F
100
AcDbEntity
  8
0
  6
Continuous
 62
     7
370
    18
100
AcDbLine
 10
293.0
 20
5.0
 30
0.0
 11
293.0
 21
10.0
 31
0.0
  0
LINE
  5
8B
330
1F
100
AcDbEntity
  8
0
  6
Continuous
 62
     7
370
    18
100
AcDbLine
 10
292.0
 20
5.0
 30
0.0
 11
292.0
 21
10.0
 31
0.0
  0
LINE
  5
8C
330
1F
100
AcDbEntity
  8
0
  6
Continuous
 62
     7
370
    18
100
AcDbLine
 10
291.0
 20
5.0
 30
0.0
 11
291.0
 21
10.0
 31
0.0
  0
LINE
  5
8D
330
1F
100
AcDbEntity
  8
0
  6
Continuous
 62
     7
370
    18
100
AcDbLine
 10
290.0
 20
5.0
 30
0.0
 11
290.0
 21
10.0
 31
0.0
  0
LINE
  5
8E
330
1F
100
AcDbEntity
  8
0
  6
Continuous
 62
     7
370
    18
100
AcDbLine
 10
289.0
 20
5.0
 30
0.0
 11
289.0
 21
10.0
 31
0.0
  0
LINE
  5
8F
330
1F
100
AcDbEntity
  8
0
  6
Continuous
 62
     7
370
    18
100
AcDbLine
 10
288.0
 20
5.0
 30
0.0
 11
288.0
 21
10.0
 31
0.0
  0
LINE
  5
90
330
1F
100
AcDbEntity
  8
0
  6
Continuous
 62
     7
370
    18
100
AcDbLine
 10
284.0
 20
5.0
 30
0.0
 11
284.0
 21
10.0
 31
0.0
  0
LINE
  5
91
330
1F
100
AcDbEntity
  8
0
  6
Continuous
 62
     7
370
    18
100
AcDbLine
 10
283.0
 20
5.0
 30
0.0
 11
283.0
 21
10.0
 31
0.0
  0
LINE
  5
92
330
1F
100
AcDbEntity
  8
0
  6
Continuous
 62
     7
370
    18
100
AcDbLine
 10
282.0
 20
5.0
 30
0.0
 11
282.0
 21
10.0
 31
0.0
  0
LINE
  5
93
330
1F
100
AcDbEntity
  8
0
  6
Continuous
 62
     7
370
    18
100
AcDbLine
 10
281.0
 20
5.0
 30
0.0
 11
281.0
 21
10.0
 31
0.0
  0
LINE
  5
94
330
1F
100
AcDbEntity
  8
0
  6
Continuous
 62
     7
370
    18
100
AcDbLine
 10
280.0
 20
5.0
 30
0.0
 11
280.0
 21
10.0
 31
0.0
  0
LINE
  5
95
330
1F
100
AcDbEntity
  8
0
  6
Continuous
 62
     7
370
    18
100
AcDbLine
 10
279.0
 20
5.0
 30
0.0
 11
279.0
 21
10.0
 31
0.0
  0
LINE
  5
96
330
1F
100
AcDbEntity
  8
0
  6
Continuous
 62
     7
370
    18
100
AcDbLine
 10
278.0
 20
5.0
 30
0.0
 11
278.0
 21
10.0
 31
0.0
  0
LINE
  5
97
330
1F
100
AcDbEntity
  8
0
  6
Continuous
 62
     7
370
    18
100
AcDbLine
 10
274.0
 20
5.0
 30
0.0
 11
274.0
 21
10.0
 31
0.0
  0
LINE
  5
98
330
1F
100
AcDbEntity
  8
0
  6
Continuous
 62
     7
370
    18
100
AcDbLine
 10
273.0
 20
5.0
 30
0.0
 11
273.0
 21
10.0
 31
0.0
  0
LINE
  5
99
330
1F
100
AcDbEntity
  8
0
  6
Continuous
 62
     7
370
    18
100
AcDbLine
 10
272.0
 20
5.0
 30
0.0
 11
272.0
 21
10.0
 31
0.0
  0
LINE
  5
9A
330
1F
100
AcDbEntity
  8
0
  6
Continuous
 62
     7
370
    18
100
AcDbLine
 10
271.0
 20
5.0
 30
0.0
 11
271.0
 21
10.0
 31
0.0
  0
LINE
  5
9B
330
1F
100
AcDbEntity
  8
0
  6
Continuous
 62
     7
370
    18
100
AcDbLine
 10
270.0
 20
5.0
 30
0.0
 11
270.0
 21
10.0
 31
0.0
  0
LINE
  5
9C
330
1F
100
AcDbEntity
  8
0
  6
Continuous
 62
     7
370
    18
100
AcDbLine
 10
269.0
 20
5.0
 30
0.0
 11
269.0
 21
10.0
 31
0.0
  0
LINE
  5
9D
330
1F
100
AcDbEntity
  8
0
  6
Continuous
 62
     7
370
    18
100
AcDbLine
 10
268.0
 20
5.0
 30
0.0
 11
268.0
 21
10.0
 31
0.0
  0
LINE
  5
9E
330
1F
100
AcDbEntity
  8
0
  6
Continuous
 62
     7
370
    18
100
AcDbLine
 10
264.0
 20
5.0
 30
0.0
 11
264.0
 21
10.0
 31
0.0
  0
LINE
  5
9F
330
1F
100
AcDbEntity
  8
0
  6
Continuous
 62
     7
370
    18
100
AcDbLine
 10
263.0
 20
5.0
 30
0.0
 11
263.0
 21
10.0
 31
0.0
  0
LINE
  5
A0
330
1F
100
AcDbEntity
  8
0
  6
Continuous
 62
     7
370
    18
100
AcDbLine
 10
262.0
 20
5.0
 30
0.0
 11
262.0
 21
10.0
 31
0.0
  0
LINE
  5
A1
330
1F
100
AcDbEntity
  8
0
  6
Continuous
 62
     7
370
    18
100
AcDbLine
 10
261.0
 20
5.0
 30
0.0
 11
261.0
 21
10.0
 31
0.0
  0
LINE
  5
A2
330
1F
100
AcDbEntity
  8
0
  6
Continuous
 62
     7
370
    18
100
AcDbLine
 10
260.0
 20
5.0
 30
0.0
 11
260.0
 21
10.0
 31
0.0
  0
LINE
  5
A3
330
1F
100
AcDbEntity
  8
0
  6
Continuous
 62
     7
370
    18
100
AcDbLine
 10
259.0
 20
5.0
 30
0.0
 11
259.0
 21
10.0
 31
0.0
  0
LINE
  5
A4
330
1F
100
AcDbEntity
  8
0
  6
Continuous
 62
     7
370
    18
100
AcDbLine
 10
258.0
 20
5.0
 30
0.0
 11
258.0
 21
10.0
 31
0.0
  0
LINE
  5
A5
330
1F
100
AcDbEntity
  8
0
  6
Continuous
 62
     7
370
    18
100
AcDbLine
 10
254.0
 20
5.0
 30
0.0
 11
254.0
 21
10.0
 31
0.0
  0
LINE
  5
A6
330
1F
100
AcDbEntity
  8
0
  6
Continuous
 62
     7
370
    18
100
AcDbLine
 10
253.0
 20
5.0
 30
0.0
 11
253.0
 21
10.0
 31
0.0
  0
LINE
  5
A7
330
1F
100
AcDbEntity
  8
0
  6
Continuous
 62
     7
370
    18
100
AcDbLine
 10
252.0
 20
5.0
 30
0.0
 11
252.0
 21
10.0
 31
0.0
  0
LINE
  5
A8
330
1F
100
AcDbEntity
  8
0
  6
Continuous
 62
     7
370
    18
100
AcDbLine
 10
251.0
 20
5.0
 30
0.0
 11
251.0
 21
10.0
 31
0.0
  0
LINE
  5
A9
330
1F
100
AcDbEntity
  8
0
  6
Continuous
 62
     7
370
    18
100
AcDbLine
 10
250.0
 20
5.0
 30
0.0
 11
250.0
 21
10.0
 31
0.0
  0
LINE
  5
AA
330
1F
100
AcDbEntity
  8
0
  6
Continuous
 62
     7
370
    18
100
AcDbLine
 10
249.0
 20
5.0
 30
0.0
 11
249.0
 21
10.0
 31
0.0
  0
LINE
  5
AB
330
1F
100
AcDbEntity
  8
0
  6
Continuous
 62
     7
370
    18
100
AcDbLine
 10
240.0
 20
5.0
 30
0.0
 11
240.0
 21
10.0
 31
0.0
  0
LINE
  5
AC
330
1F
100
AcDbEntity
  8
0
  6
Continuous
 62
     7
370
    18
100
AcDbLine
 10
239.0
 20
5.0
 30
0.0
 11
239.0
 21
10.0
 31
0.0
  0
LINE
  5
AD
330
1F
100
AcDbEntity
  8
0
  6
Continuous
 62
     7
370
    18
100
AcDbLine
 10
243.0
 20
5.0
 30
0.0
 11
243.0
 21
10.0
 31
0.0
  0
LINE
  5
AE
330
1F
100
AcDbEntity
  8
0
  6
Continuous
 62
     7
370
    18
100
AcDbLine
 10
242.0
 20
5.0
 30
0.0
 11
242.0
 21
10.0
 31
0.0
  0
LINE
  5
AF
330
1F
100
AcDbEntity
  8
0
  6
Continuous
 62
     7
370
    18
100
AcDbLine
 10
241.0
 20
5.0
 30
0.0
 11
241.0
 21
10.0
 31
0.0
  0
LINE
  5
B0
330
1F
100
AcDbEntity
  8
0
  6
Continuous
 62
     7
370
    18
100
AcDbLine
 10
314.0
 20
5.0
 30
0.0
 11
314.0
 21
10.0
 31
0.0
  0
LINE
  5
B1
330
1F
100
AcDbEntity
  8
0
  6
Continuous
 62
     7
370
    18
100
AcDbLine
 10
244.0
 20
5.0
 30
0.0
 11
244.0
 21
10.0
 31
0.0
  0
LINE
  5
B2
330
1F
100
AcDbEntity
  8
0
  6
Continuous
 62
     7
370
    18
100
AcDbLine
 10
307.0
 20
5.0
 30
0.0
 11
307.0
 21
10.0
 31
0.0
  0
LINE
  5
B3
330
1F
100
AcDbEntity
  8
0
  6
Continuous
 62
     7
370
    18
100
AcDbLine
 10
297.0
 20
5.0
 30
0.0
 11
297.0
 21
10.0
 31
0.0
  0
LINE
  5
B4
330
1F
100
AcDbEntity
  8
0
  6
Continuous
 62
     7
370
    18
100
AcDbLine
 10
287.0
 20
5.0
 30
0.0
 11
287.0
 21
10.0
 31
0.0
  0
LINE
  5
B5
330
1F
100
AcDbEntity
  8
0
  6
Continuous
 62
     7
370
    18
100
AcDbLine
 10
277.0
 20
5.0
 30
0.0
 11
277.0
 21
10.0
 31
0.0
  0
LINE
  5
B6
330
1F
100
AcDbEntity
  8
0
  6
Continuous
 62
     7
370
    18
100
AcDbLine
 10
267.0
 20
5.0
 30
0.0
 11
267.0
 21
10.0
 31
0.0
  0
LINE
  5
B7
330
1F
100
AcDbEntity
  8
0
  6
Continuous
 62
     7
370
    18
100
AcDbLine
 10
257.0
 20
5.0
 30
0.0
 11
257.0
 21
10.0
 31
0.0
  0
LINE
  5
B8
330
1F
100
AcDbEntity
  8
0
  6
Continuous
 62
     7
370
    18
100
AcDbLine
 10
247.0
 20
5.0
 30
0.0
 11
247.0
 21
10.0
 31
0.0
  0
LINE
  5
B9
330
1F
100
AcDbEntity
  8
0
  6
Continuous
 62
     7
370
    18
100
AcDbLine
 10
238.0
 20
5.0
 30
0.0
 11
238.0
 21
10.0
 31
0.0
  0
LINE
  5
BA
330
1F
100
AcDbEntity
  8
0
  6
Continuous
 62
     7
370
    18
100
AcDbLine
 10
237.0
 20
5.0
 30
0.0
 11
237.0
 21
10.0
 31
0.0
  0
LINE
  5
BB
330
1F
100
AcDbEntity
  8
0
  6
Continuous
 62
     7
370
    18
100
AcDbLine
 10
266.0
 20
5.0
 30
0.0
 11
266.0
 21
10.0
 31
0.0
  0
LINE
  5
BC
330
1F
100
AcDbEntity
  8
0
  6
Continuous
 62
     7
370
    18
100
AcDbLine
 10
256.0
 20
5.0
 30
0.0
 11
256.0
 21
10.0
 31
0.0
  0
LINE
  5
BD
330
1F
100
AcDbEntity
  8
0
  6
Continuous
 62
     7
370
    18
100
AcDbLine
 10
306.0
 20
5.0
 30
0.0
 11
306.0
 21
10.0
 31
0.0
  0
LINE
  5
BE
330
1F
100
AcDbEntity
  8
0
  6
Continuous
 62
     7
370
    18
100
AcDbLine
 10
296.0
 20
5.0
 30
0.0
 11
296.0
 21
10.0
 31
0.0
  0
LINE
  5
BF
330
1F
100
AcDbEntity
  8
0
  6
Continuous
 62
     7
370
    18
100
AcDbLine
 10
286.0
 20
5.0
 30
0.0
 11
286.0
 21
10.0
 31
0.0
  0
LINE
  5
C0
330
1F
100
AcDbEntity
  8
0
  6
Continuous
 62
     7
370
    18
100
AcDbLine
 10
276.0
 20
5.0
 30
0.0
 11
276.0
 21
10.0
 31
0.0
  0
LINE
  5
C1
330
1F
100
AcDbEntity
  8
0
  6
Continuous
 62
     7
370
    18
100
AcDbLine
 10
246.0
 20
5.0
 30
0.0
 11
246.0
 21
10.0
 31
0.0
  0
LINE
  5
C2
330
1F
100
AcDbEntity
  8
0
  6
Continuous
 62
     7
370
    18
100
AcDbLine
 10
236.0
 20
5.0
 30
0.0
 11
236.0
 21
10.0
 31
0.0
  0
LINE
  5
C3
330
1F
100
AcDbEntity
  8
0
  6
Continuous
 62
     7
370
    18
100
AcDbLine
 10
295.0
 20
5.0
 30
0.0
 11
295.0
 21
15.0
 31
0.0
  0
LINE
  5
C4
330
1F
100
AcDbEntity
  8
0
  6
Continuous
 62
     7
370
    18
100
AcDbLine
 10
265.0
 20
5.0
 30
0.0
 11
265.0
 21
15.0
 31
0.0
  0
LINE
  5
C5
330
1F
100
AcDbEntity
  8
0
  6
Continuous
 62
     7
370
    18
100
AcDbLine
 10
305.0
 20
5.0
 30
0.0
 11
305.0
 21
15.0
 31
0.0
  0
LINE
  5
C6
330
1F
100
AcDbEntity
  8
0
  6
Continuous
 62
     7
370
    18
100
AcDbLine
 10
285.0
 20
5.0
 30
0.0
 11
285.0
 21
15.0
 31
0.0
  0
LINE
  5
C7
330
1F
100
AcDbEntity
  8
0
  6
Continuous
 62
     7
370
    18
100
AcDbLine
 10
255.0
 20
5.0
 30
0.0
 11
255.0
 21
15.0
 31
0.0
  0
LINE
  5
C8
330
1F
100
AcDbEntity
  8
0
  6
Continuous
 62
     7
370
    18
100
AcDbLine
 10
245.0
 20
5.0
 30
0.0
 11
245.0
 21
15.0
 31
0.0
  0
LINE
  5
C9
330
1F
100
AcDbEntity
  8
0
  6
Continuous
 62
     7
370
    18
100
AcDbLine
 10
235.0
 20
5.0
 30
0.0
 11
235.0
 21
15.0
 31
0.0
  0
LINE
  5
CA
330
1F
100
AcDbEntity
  8
0
  6
Continuous
 62
     7
370
    18
100
AcDbLine
 10
315.0
 20
5.0
 30
0.0
 11
315.0
 21
15.0
 31
0.0
  0
LINE
  5
CB
330
1F
100
AcDbEntity
  8
0
  6
Continuous
 62
     7
370
    18
100
AcDbLine
 10
275.0
 20
5.0
 30
0.0
 11
275.0
 21
15.0
 31
0.0
  0
LINE
  5
CC
330
1F
100
AcDbEntity
  8
0
  6
Continuous
 62
     7
370
    18
100
AcDbLine
 10
0.099999964
 20
50.0
 30
0.0
 11
0.099999964
 21
0.099999964
 31
0.0
  0
LINE
  5
CD
330
1F
100
AcDbEntity
  8
0
  6
Continuous
 62
     7
370
    18
100
AcDbLine
 10
0.099999964
 20
0.099999964
 30
0.0
 11
50.0
 21
0.099999964
 31
0.0
  0
LINE
  5
CE
330
1F
100
AcDbEntity
  8
0
  6
Continuous
 62
     7
370
    18
100
AcDbLine
 10
0.099999964
 20
296.8999
 30
0.0
 11
0.099999964
 21
247.0
 31
0.0
  0
LINE
  5
CF
330
1F
100
AcDbEntity
  8
0
  6
Continuous
 62
     7
370
    18
100
AcDbLine
 10
0.099999964
 20
296.8999
 30
0.0
 11
50.0
 21
296.8999
 31
0.0
  0
LINE
  5
D0
330
1F
100
AcDbEntity
  8
0
  6
Continuous
 62
     7
370
    18
100
AcDbLine
 10
370.0
 20
296.8999
 30
0.0
 11
419.8999
 21
296.8999
 31
0.0
  0
LINE
  5
D1
330
1F
100
AcDbEntity
  8
0
  6
Continuous
 62
     7
370
    18
100
AcDbLine
 10
419.8999
 20
296.8999
 30
0.0
 11
419.8999
 21
247.0
 31
0.0
  0
LINE
  5
D2
330
1F
100
AcDbEntity
  8
0
  6
Continuous
 62
     7
370
    18
100
AcDbLine
 10
370.0
 20
0.099999964
 30
0.0
 11
419.8999
 21
0.099999964
 31
0.0
  0
LINE
  5
D3
330
1F
100
AcDbEntity
  8
0
  6
Continuous
 62
     7
370
    18
100
AcDbLine
 10
419.8999
 20
50.0
 30
0.0
 11
419.8999
 21
0.099999964
 31
0.0
  0
LINE
  5
D4
330
1F
100
AcDbEntity
  8
灰
100
AcDbLine
 10
145.0
 20
20.0
 30
0.0
 11
15.0
 21
20.0
 31
0.0
  0
LINE
  5
D5
330
1F
100
AcDbEntity
  8
灰
100
AcDbLine
 10
145.0
 20
25.0
 30
0.0
 11
15.0
 21
25.0
 31
0.0
  0
LINE
  5
D6
330
1F
100
AcDbEntity
  8
0
  6
Continuous
 62
     7
370
    18
100
AcDbLine
 10
383.8999
 20
28.0
 30
0.0
 11
396.8999
 21
28.0
 31
0.0
  0
LINE
  5
D7
330
1F
100
AcDbEntity
  8
灰
100
AcDbLine
 10
15.0
 20
30.0
 30
0.0
 11
145.0
 21
30.0
 31
0.0
  0
LINE
  5
D8
330
1F
100
AcDbEntity
  8
灰
100
AcDbLine
 10
15.0
 20
35.0
 30
0.0
 11
145.0
 21
35.0
 31
0.0
  0
LINE
  5
D9
330
1F
100
AcDbEntity
  8
太線灰
100
AcDbLine
 10
145.0
 20
40.0
 30
0.0
 11
15.0
 21
40.0
 31
0.0
  0
LINE
  5
DA
330
1F
100
AcDbEntity
  8
0
  6
HIDDEN
 62
     7
370
    18
100
AcDbLine
 10
210.0
 20
55.0
 30
0.0
 11
275.0
 21
55.0
 31
0.0
  0
LINE
  5
DB
330
1F
100
AcDbEntity
  8
灰
100
AcDbLine
 10
24.82
 20
40.0
 30
0.0
 11
24.82
 21
15.0
 31
0.0
  0
LINE
  5
DC
330
1F
100
AcDbEntity
  8
灰
100
AcDbLine
 10
49.82
 20
40.0
 30
0.0
 11
49.82
 21
15.0
 31
0.0
  0
LINE
  5
DD
330
1F
100
AcDbEntity
  8
灰
100
AcDbLine
 10
102.82
 20
40.0
 30
0.0
 11
102.82
 21
15.0
 31
0.0
  0
LINE
  5
DE
330
1F
100
AcDbEntity
  8
灰
100
AcDbLine
 10
130.32
 20
40.0
 30
0.0
 11
130.32
 21
15.0
 31
0.0
  0
LINE
  5
DF
330
1F
100
AcDbEntity
  8
0
  6
Continuous
 62
     7
370
    35
100
AcDbLine
 10
145.0
 20
15.0
 30
0.0
 11
145.0
 21
75.0
 31
0.0
  0
LINE
  5
E0
330
1F
100
AcDbEntity
  8
0
  6
Continuous
 62
     7
370
    50
100
AcDbLine
 10
15.0
 20
282.0
 30
0.0
 11
15.0
 21
15.0
 31
0.0
  0
LINE
  5
E1
330
1F
100
AcDbEntity
  8
0
  6
HIDDEN
 62
     7
370
    18
100
AcDbLine
 10
210.0
 20
50.0
 30
0.0
 11
275.0
 21
50.0
 31
0.0
  0
LINE
  5
E2
330
1F
100
AcDbEntity
  8
0
  6
Continuous
 62
     7
370
    35
100
AcDbLine
 10
339.94995
 20
65.0
 30
0.0
 11
339.94995
 21
75.0
 31
0.0
  0
LINE
  5
E3
330
1F
100
AcDbEntity
  8
0
  6
Continuous
 62
     7
370
    50
100
AcDbLine
 10
145.0
 20
75.0
 30
0.0
 11
404.8999
 21
75.0
 31
0.0
  0
LINE
  5
E4
330
1F
100
AcDbEntity
  8
0
  6
Continuous
 62
     7
370
    35
100
AcDbLine
 10
210.0
 20
70.0
 30
0.0
 11
210.0
 21
45.0
 31
0.0
  0
LINE
  5
E5
330
1F
100
AcDbEntity
  8
0
  6
Continuous
 62
     7
370
    35
100
AcDbLine
 10
170.0
 20
35.0
 30
0.0
 11
170.0
 21
45.0
 31
0.0
  0
LINE
  5
E6
330
1F
100
AcDbEntity
  8
0
  6
Continuous
 62
     7
370
    35
100
AcDbLine
 10
205.0
 20
35.0
 30
0.0
 11
205.0
 21
45.0
 31
0.0
  0
LINE
  5
E7
330
1F
100
AcDbEntity
  8
0
  6
Continuous
 62
     7
370
    35
100
AcDbLine
 10
230.0
 20
35.0
 30
0.0
 11
230.0
 21
45.0
 31
0.0
  0
LINE
  5
E8
330
1F
100
AcDbEntity
  8
0
  6
Continuous
 62
     7
370
    35
100
AcDbLine
 10
245.0
 20
35.0
 30
0.0
 11
245.0
 21
45.0
 31
0.0
  0
LINE
  5
E9
330
1F
100
AcDbEntity
  8
0
  6
Continuous
 62
     7
370
    35
100
AcDbLine
 10
260.0
 20
35.0
 30
0.0
 11
260.0
 21
45.0
 31
0.0
  0
LINE
  5
EA
330
1F
100
AcDbEntity
  8
0
  6
Continuous
 62
     7
370
    18
100
AcDbLine
 10
175.0
 20
15.0
 30
0.0
 11
175.0
 21
35.0
 31
0.0
  0
LINE
  5
EB
330
1F
100
AcDbEntity
  8
0
  6
Continuous
 62
     7
370
    18
100
AcDbLine
 10
200.0
 20
15.0
 30
0.0
 11
200.0
 21
35.0
 31
0.0
  0
LINE
  5
EC
330
1F
100
AcDbEntity
  8
0
  6
Continuous
 62
     7
370
    18
100
AcDbLine
 10
225.0
 20
15.0
 30
0.0
 11
225.0
 21
35.0
 31
0.0
  0
LINE
  5
ED
330
1F
100
AcDbEntity
  8
0
  6
Continuous
 62
     7
370
    18
100
AcDbLine
 10
250.0
 20
15.0
 30
0.0
 11
250.0
 21
35.0
 31
0.0
  0
LINE
  5
EE
330
1F
100
AcDbEntity
  8
0
  6
Continuous
 62
     7
370
    35
100
AcDbLine
 10
145.0
 20
70.0
 30
0.0
 11
275.0
 21
70.0
 31
0.0
  0
LINE
  5
EF
330
1F
100
AcDbEntity
  8
0
  6
Continuous
 62
     7
370
    18
100
AcDbLine
 10
145.0
 20
65.0
 30
0.0
 11
275.0
 21
65.0
 31
0.0
  0
LINE
  5
F0
330
1F
100
AcDbEntity
  8
0
  6
Continuous
 62
     7
370
    35
100
AcDbLine
 10
145.0
 20
60.0
 30
0.0
 11
275.0
 21
60.0
 31
0.0
  0
LINE
  5
F1
330
1F
100
AcDbEntity
  8
0
  6
Continuous
 62
     7
370
    35
100
AcDbLine
 10
145.0
 20
55.0
 30
0.0
 11
210.0
 21
55.0
 31
0.0
  0
LINE
  5
F2
330
1F
100
AcDbEntity
  8
0
  6
Continuous
 62
     7
370
    35
100
AcDbLine
 10
145.0
 20
50.0
 30
0.0
 11
210.0
 21
50.0
 31
0.0
  0
LINE
  5
F3
330
1F
100
AcDbEntity
  8
0
  6
Continuous
 62
     7
370
    35
100
AcDbLine
 10
145.0
 20
45.0
 30
0.0
 11
275.0
 21
45.0
 31
0.0
  0
LINE
  5
F4
330
1F
100
AcDbEntity
  8
0
  6
Continuous
 62
     7
370
    18
100
AcDbLine
 10
145.0
 20
40.0
 30
0.0
 11
275.0
 21
40.0
 31
0.0
  0
LINE
  5
F5
330
1F
100
AcDbEntity
  8
0
  6
Continuous
 62
     7
370
    35
100
AcDbLine
 10
145.0
 20
35.0
 30
0.0
 11
275.0
 21
35.0
 31
0.0
  0
LINE
  5
F6
330
1F
100
AcDbEntity
  8
0
  6
Continuous
 62
     7
370
    35
100
AcDbLine
 10
145.0
 20
30.0
 30
0.0
 11
275.0
 21
30.0
 31
0.0
  0
LINE
  5
F7
330
1F
100
AcDbEntity
  8
0
  6
Continuous
 62
     7
370
    18
100
AcDbLine
 10
145.0
 20
20.0
 30
0.0
 11
275.0
 21
20.0
 31
0.0
  0
LINE
  5
F8
330
1F
100
AcDbEntity
  8
0
  6
HIDDEN
 62
     7
370
    35
100
AcDbLine
 10
290.46899
 20
55.0
 30
0.0
 11
404.8999
 21
55.0
 31
0.0
  0
LINE
  5
F9
330
1F
100
AcDbEntity
  8
0
  6
Continuous
 62
     7
370
    35
100
AcDbLine
 10
275.0
 20
45.0
 30
0.0
 11
404.8999
 21
45.0
 31
0.0
  0
LINE
  5
FA
330
1F
100
AcDbEntity
  8
0
  6
Continuous
 62
     7
370
    35
100
AcDbLine
 10
275.0
 20
25.0
 30
0.0
 11
404.8999
 21
25.0
 31
0.0
  0
LINE
  5
FB
330
1F
100
AcDbEntity
  8
0
  6
Continuous
 62
     7
370
    35
100
AcDbLine
 10
275.0
 20
65.0
 30
0.0
 11
404.8999
 21
65.0
 31
0.0
  0
LINE
  5
FC
330
1F
100
AcDbEntity
  8
0
  6
Continuous
 62
     7
370
    35
100
AcDbLine
 10
275.0
 20
35.0
 30
0.0
 11
404.8999
 21
35.0
 31
0.0
  0
LINE
  5
FD
330
1F
100
AcDbEntity
  8
0
  6
Continuous
 62
     7
370
    35
100
AcDbLine
 10
275.0
 20
15.0
 30
0.0
 11
275.0
 21
75.0
 31
0.0
  0
LINE
  5
FE
330
1F
100
AcDbEntity
  8
0
  6
Continuous
 62
     7
370
    50
100
AcDbLine
 10
15.0
 20
282.0
 30
0.0
 11
404.8999
 21
282.0
 31
0.0
  0
LINE
  5
FF
330
1F
100
AcDbEntity
  8
0
  6
Continuous
 62
     7
370
    50
100
AcDbLine
 10
404.8999
 20
282.0
 30
0.0
 11
404.8999
 21
15.0
 31
0.0
  0
LINE
  5
100
330
1F
100
AcDbEntity
  8
0
  6
Continuous
 62
     7
370
    50
100
AcDbLine
 10
15.0
 20
15.0
 30
0.0
 11
404.8999
 21
15.0
 31
0.0
  0
MTEXT
  5
102
330
1F
100
AcDbEntity
  8
FORMAT
100
AcDbMText
 10
251.3084010082
 20
87.9687942208
 30
0.0
 40
4.2333333333
 41
0.0
 71
     1
 72
     1
  1
※コネクタ寸法は、2～5極まで同一寸法です。
  7
SLDTEXTSTYLE0
 73
     1
 44
1.0
  0
MTEXT
  5
103
330
1F
100
AcDbEntity
  8
FORMAT
100
AcDbMText
 10
251.3084010082
 20
96.8251215063
 30
0.0
 40
4.2333333333
 41
0.0
 71
     1
 72
     1
  1
※コネクタ色は、電源用：黒　制御及び複合用：灰　となります。
  7
SLDTEXTSTYLE0
 73
     1
 44
1.0
  0
MTEXT
  5
105
330
1F
100
AcDbEntity
  8
0
  6
Continuous
 62
     7
370
     0
100
AcDbMText
 10
375.410020225
 20
33.9493166522
 30
0.0
 40
2.6000004
 41
0.0
 71
     1
 72
     1
  1
SET DWG NO.
  7
SLDTEXTSTYLE1
 73
     1
 44
1.0
  0
MTEXT
  5
107
330
1F
100
AcDbEntity
  8
0
  6
Continuous
 62
     7
370
     0
100
AcDbMText
 10
276.47336
 20
39.1785177399
 30
0.0
 40
2.7999992
 41
0.0
 71
     1
 72
     1
  1
CH. CODE
  7
SLDTEXTSTYLE2
 73
     1
 44
1.0
  0
MTEXT
  5
109
330
1F
100
AcDbEntity
  8
0
  6
Continuous
 62
     7
370
     0
100
AcDbMText
 10
276.38037
 20
44.1004537399
 30
0.0
 40
2.7999992
 41
0.0
 71
     1
 72
     1
  1
PART NO.
  7
SLDTEXTSTYLE3
 73
     1
 44
1.0
  0
MTEXT
  5
10B
330
1F
100
AcDbEntity
  8
0
  6
Continuous
 62
     7
370
     0
100
AcDbMText
 10
267.06445
 20
39.1690916888
 30
0.0
 40
3.0819824219
 41
0.0
 71
     1
 72
     1
  1
3
  7
SLDTEXTSTYLE4
 73
     1
 44
1.0
  0
MTEXT
  5
10C
330
1F
100
AcDbEntity
  8
0
  6
Continuous
 62
     7
370
     0
100
AcDbMText
 10
318.04688
 20
14.4453388795
 30
0.0
 40
5.0
 41
0.0
 71
     1
 72
     1
  1
3
  7
SLDTEXTSTYLE0
 73
     1
 44
1.0
  0
MTEXT
  5
10D
330
1F
100
AcDbEntity
  8
0
  6
Continuous
 62
     7
370
     0
100
AcDbMText
 10
218.04688
 20
14.4453388795
 30
0.0
 40
5.0
 41
0.0
 71
     1
 72
     1
  1
2
  7
SLDTEXTSTYLE0
 73
     1
 44
1.0
  0
MTEXT
  5
10E
330
1F
100
AcDbEntity
  8
0
  6
Continuous
 62
     7
370
     0
100
AcDbMText
 10
405.44678
 20
112.9453388795
 30
0.0
 40
5.0
 41
0.0
 71
     1
 72
     1
  1
A
  7
SLDTEXTSTYLE0
 73
     1
 44
1.0
  0
MTEXT
  5
10F
330
1F
100
AcDbEntity
  8
0
  6
Continuous
 62
     7
370
     0
100
AcDbMText
 10
405.44678
 20
212.9453388795
 30
0.0
 40
5.0
 41
0.0
 71
     1
 72
     1
  1
B
  7
SLDTEXTSTYLE0
 73
     1
 44
1.0
  0
MTEXT
  5
110
330
1F
100
AcDbEntity
  8
0
  6
Continuous
 62
     7
370
     0
100
AcDbMText
 10
318.04688
 20
288.4453388795
 30
0.0
 40
5.0
 41
0.0
 71
     1
 72
     1
  1
3
  7
SLDTEXTSTYLE0
 73
     1
 44
1.0
  0
MTEXT
  5
111
330
1F
100
AcDbEntity
  8
0
  6
Continuous
 62
     7
370
     0
100
AcDbMText
 10
218.04688
 20
288.4453388795
 30
0.0
 40
5.0
 41
0.0
 71
     1
 72
     1
  1
2
  7
SLDTEXTSTYLE0
 73
     1
 44
1.0
  0
MTEXT
  5
113
330
1F
100
AcDbEntity
  8
0
  6
Continuous
 62
     7
370
     0
100
AcDbMText
 10
118.04688
 20
288.4453388795
 30
0.0
 40
5.0
 41
0.0
 71
     1
 72
     1
  1
1
  7
SLDTEXTSTYLE5
 73
     1
 44
1.0
  0
MTEXT
  5
114
330
1F
100
AcDbEntity
  8
0
  6
Continuous
 62
     7
370
     0
100
AcDbMText
 10
10.546875
 20
212.9453388795
 30
0.0
 40
5.0
 41
0.0
 71
     1
 72
     1
  1
B
  7
SLDTEXTSTYLE0
 73
     1
 44
1.0
  0
MTEXT
  5
115
330
1F
100
AcDbEntity
  8
0
  6
Continuous
 62
     7
370
     0
100
AcDbMText
 10
10.546875
 20
112.9453388795
 30
0.0
 40
5.0
 41
0.0
 71
     1
 72
     1
  1
A
  7
SLDTEXTSTYLE0
 73
     1
 44
1.0
  0
MTEXT
  5
117
330
1F
100
AcDbEntity
  8
0
  6
Continuous
 62
     7
370
     0
100
AcDbMText
 10
211.40288
 20
59.2414134143
 30
0.0
 40
3.199995
 41
0.0
 71
     1
 72
     1
  1
TRIAL PART NO.
  7
SLDTEXTSTYLE6
 73
     1
 44
1.0
  0
MTEXT
  5
119
330
1F
100
AcDbEntity
  8
0
  6
Continuous
 62
     7
370
     0
100
AcDbMText
 10
276.22412
 20
34.3027534143
 30
0.0
 40
3.199995
 41
0.0
 71
     1
 72
     1
  1
DWG NO.
  7
SLDTEXTSTYLE7
 73
     1
 44
1.0
  0
MTEXT
  5
11B
330
1F
100
AcDbEntity
  8
0
  6
Continuous
 62
     7
370
     0
100
AcDbMText
 10
276.22412
 20
63.0649764143
 30
0.0
 40
3.199995
 41
0.0
 71
     1
 72
     1
  1
NAME
  7
SLDTEXTSTYLE8
 73
     1
 44
1.0
  0
MTEXT
  5
11D
330
1F
100
AcDbEntity
  8
0
  6
Continuous
 62
     7
370
     0
100
AcDbMText
 10
340.89746
 20
74.5688674143
 30
0.0
 40
3.199995
 41
0.0
 71
     1
 72
     1
  1
TREAT.
  7
SLDTEXTSTYLE9
 73
     1
 44
1.0
  0
MTEXT
  5
11F
330
1F
100
AcDbEntity
  8
0
  6
Continuous
 62
     7
370
     0
100
AcDbMText
 10
340.89746
 20
69.7688734143
 30
0.0
 40
3.199995
 41
0.0
 71
     1
 72
     1
  1
& FIN.
  7
SLDTEXTSTYLE10
 73
     1
 44
1.0
  0
MTEXT
  5
121
330
1F
100
AcDbEntity
  8
0
  6
Continuous
 62
     7
370
     0
100
AcDbMText
 10
276.05688
 20
74.7688794143
 30
0.0
 40
3.199995
 41
0.0
 71
     1
 72
     1
  1
MATL.
  7
SLDTEXTSTYLE11
 73
     1
 44
1.0
  0
MTEXT
  5
122
330
1F
100
AcDbEntity
  8
0
  6
Continuous
 62
     7
370
     0
100
AcDbMText
 10
276.05688
 20
69.9688854143
 30
0.0
 40
3.199995
 41
0.0
 71
     1
 72
     1
  1
SPEC.
  7
SLDTEXTSTYLE11
 73
     1
 44
1.0
  0
MTEXT
  5
124
330
1F
100
AcDbEntity
  8
0
  6
Continuous
 62
     7
370
     0
100
AcDbMText
 10
254.31299
 20
34.3454474143
 30
0.0
 40
3.199995
 41
0.0
 71
     1
 72
     1
  1
DRAWN
  7
SLDTEXTSTYLE12
 73
     1
 44
1.0
  0
MTEXT
  5
126
330
1F
100
AcDbEntity
  8
0
  6
Continuous
 62
     7
370
     0
100
AcDbMText
 10
229.41702
 20
34.3454474143
 30
0.0
 40
3.199995
 41
0.0
 71
     1
 72
     1
  1
DESIGN
  7
SLDTEXTSTYLE13
 73
     1
 44
1.0
  0
MTEXT
  5
128
330
1F
100
AcDbEntity
  8
0
  6
Continuous
 62
     7
370
     0
100
AcDbMText
 10
260.89722
 20
44.2633554143
 30
0.0
 40
3.199995
 41
0.0
 71
     1
 72
     1
  1
ANGLE
  7
SLDTEXTSTYLE14
 73
     1
 44
1.0
  0
MTEXT
  5
12A
330
1F
100
AcDbEntity
  8
0
  6
Continuous
 62
     7
370
     0
100
AcDbMText
 10
249.25284
 20
44.2633554143
 30
0.0
 40
3.199995
 41
0.0
 71
     1
 72
     1
  1
SCL
  7
SLDTEXTSTYLE15
 73
     1
 44
1.0
  0
MTEXT
  5
12C
330
1F
100
AcDbEntity
  8
0
  6
Continuous
 62
     7
370
     0
100
AcDbMText
 10
231.44109
 20
44.2633554143
 30
0.0
 40
3.199995
 41
0.0
 71
     1
 72
     1
  1
UNIT
  7
SLDTEXTSTYLE16
 73
     1
 44
1.0
  0
MTEXT
  5
12E
330
1F
100
AcDbEntity
  8
0
  6
Continuous
 62
     7
370
     0
100
AcDbMText
 10
211.40288
 20
69.3617294143
 30
0.0
 40
3.199995
 41
0.0
 71
     1
 72
     1
  1
CUSTOMER DWG NO.
  7
SLDTEXTSTYLE17
 73
     1
 44
1.0
  0
MTEXT
  5
130
330
1F
100
AcDbEntity
  8
0
  6
Continuous
 62
     7
370
     0
100
AcDbMText
 10
206.54512
 20
44.2633554143
 30
0.0
 40
3.199995
 41
0.0
 71
     1
 72
     1
  1
DWG DATE
  7
SLDTEXTSTYLE18
 73
     1
 44
1.0
  0
MTEXT
  5
132
330
1F
100
AcDbEntity
  8
0
  6
Continuous
 62
     7
370
     0
100
AcDbMText
 10
202.48497
 20
34.3454474143
 30
0.0
 40
3.199995
 41
0.0
 71
     1
 72
     1
  1
CHECKED
  7
SLDTEXTSTYLE19
 73
     1
 44
1.0
  0
MTEXT
  5
133
330
1F
100
AcDbEntity
  8
0
  6
Continuous
 62
     7
370
     0
100
AcDbMText
 10
177.38661
 20
34.3454474143
 30
0.0
 40
3.199995
 41
0.0
 71
     1
 72
     1
  1
CHECKED
  7
SLDTEXTSTYLE19
 73
     1
 44
1.0
  0
MTEXT
  5
135
330
1F
100
AcDbEntity
  8
0
  6
Continuous
 62
     7
370
     0
100
AcDbMText
 10
174.36255
 20
44.2633554143
 30
0.0
 40
3.199995
 41
0.0
 71
     1
 72
     1
  1
DWG SOURCE
  7
SLDTEXTSTYLE20
 73
     1
 44
1.0
  0
MTEXT
  5
137
330
1F
100
AcDbEntity
  8
0
  6
Continuous
 62
     7
370
     0
100
AcDbMText
 10
149.26418
 20
34.3454474143
 30
0.0
 40
3.199995
 41
0.0
 71
     1
 72
     1
  1
APPROVED
  7
SLDTEXTSTYLE21
 73
     1
 44
1.0
  0
MTEXT
  5
138
330
1F
100
AcDbEntity
  8
0
  6
Continuous
 62
     7
370
     0
100
AcDbMText
 10
147.24011
 20
44.2633554143
 30
0.0
 40
3.199995
 41
0.0
 71
     1
 72
     1
  1
DWG TYPE
  7
SLDTEXTSTYLE18
 73
     1
 44
1.0
  0
MTEXT
  5
13A
330
1F
100
AcDbEntity
  8
0
  6
Continuous
 62
     7
370
     0
100
AcDbMText
 10
146.4305
 20
49.3235054143
 30
0.0
 40
3.199995
 41
0.0
 71
     1
 72
     1
  1
VENDOR NO.
  7
SLDTEXTSTYLE22
 73
     1
 44
1.0
  0
MTEXT
  5
13C
330
1F
100
AcDbEntity
  8
0
  6
Continuous
 62
     7
370
     0
100
AcDbMText
 10
146.4305
 20
54.3836714143
 30
0.0
 40
3.199995
 41
0.0
 71
     1
 72
     1
  1
VENDOR
  7
SLDTEXTSTYLE23
 73
     1
 44
1.0
  0
MTEXT
  5
13D
330
1F
100
AcDbEntity
  8
0
  6
Continuous
 62
     7
370
     0
100
AcDbMText
 10
146.4305
 20
59.2414134143
 30
0.0
 40
3.199995
 41
0.0
 71
     1
 72
     1
  1
OFFICE
  7
SLDTEXTSTYLE13
 73
     1
 44
1.0
  0
MTEXT
  5
13F
330
1F
100
AcDbEntity
  8
0
  6
Continuous
 62
     7
370
     0
100
AcDbMText
 10
146.4305
 20
69.3617294143
 30
0.0
 40
3.199995
 41
0.0
 71
     1
 72
     1
  1
CUSTOMER PART NO.
  7
SLDTEXTSTYLE24
 73
     1
 44
1.0
  0
MTEXT
  5
141
330
1F
100
AcDbEntity
  8
0
  6
Continuous
 62
     7
370
     0
100
AcDbMText
 10
146.4305
 20
74.2194864143
 30
0.0
 40
3.199995
 41
0.0
 71
     1
 72
     1
  1
CUSTOMER
  7
SLDTEXTSTYLE25
 73
     1
 44
1.0
  0
MTEXT
  5
142
330
1F
100
AcDbEntity
  8
0
  6
Continuous
 62
     7
370
     0
100
AcDbMText
 10
249.5068390142
 20
39.3843808466
 30
0.0
 40
3.175
 41
0.0
 71
     1
 72
     1
  1
1:1
  7
SLDTEXTSTYLE4
 73
     1
 44
1.0
  0
MTEXT
  5
143
330
1F
100
AcDbEntity
  8
0
  6
Continuous
 62
     7
370
     0
100
AcDbMText
 10
232.9907856572
 20
39.4785758094
 30
0.0
 40
3.175
 41
0.0
 71
     1
 72
     1
  1
ｍｍ
  7
SLDTEXTSTYLE0
 73
     1
 44
1.0
  0
MTEXT
  5
144
330
1F
100
AcDbEntity
  8
0
  6
Continuous
 62
     7
370
     0
100
AcDbMText
 10
181.9568909487
 20
39.2365913784
 30
0.0
 40
3.175
 41
0.0
 71
     1
 72
     1
  1
NEW
  7
SLDTEXTSTYLE4
 73
     1
 44
1.0
  0
MTEXT
  5
145
330
1F
100
AcDbEntity
  8
0
  6
Continuous
 62
     7
370
     0
100
AcDbMText
 10
207.235725888
 20
39.4513035665
 30
0.0
 40
3.175
 41
0.0
 71
     1
 72
     1
  1
2020.2.13
  7
SLDTEXTSTYLE0
 73
     1
 44
1.0
  0
MTEXT
  5
146
330
1F
100
AcDbEntity
  8
0
  6
Continuous
 62
     7
370
     0
100
AcDbMText
 10
156.5368702922
 20
39.4433859858
 30
0.0
 40
3.175
 41
0.0
 71
     1
 72
     1
  1
R
  7
SLDTEXTSTYLE0
 73
     1
 44
1.0
  0
MTEXT
  5
147
330
1F
100
AcDbEntity
  8
0
  6
Continuous
 62
     7
370
     0
100
AcDbMText
 10
229.5791610766
 20
26.7706336468
 30
0.0
 40
2.9104166667
 41
0.0
 71
     1
 72
     1
  1
W.IIZUKA
  7
SLDTEXTSTYLE0
 73
     1
 44
1.0
  0
MTEXT
  5
148
330
1F
100
AcDbEntity
  8
0
  6
Continuous
 62
     7
370
     0
100
AcDbMText
 10
253.2790334005
 20
19.5472190798
 30
0.0
 40
3.175
 41
0.0
 71
     1
 72
     1
  1
2020.2.13
  7
SLDTEXTSTYLE0
 73
     1
 44
1.0
  0
MTEXT
  5
149
330
1F
100
AcDbEntity
  8
0
  6
Continuous
 62
     7
370
     0
100
AcDbMText
 10
252.3641048452
 20
26.7706336468
 30
0.0
 40
2.9104166667
 41
0.0
 71
     1
 72
     1
  1
Y.KOBAYASHI
  7
SLDTEXTSTYLE0
 73
     1
 44
1.0
  0
MTEXT
  5
14A
330
1F
100
AcDbEntity
  8
0
  6
Continuous
 62
     7
370
     0
100
AcDbMText
 10
299.1431374184
 20
32.8773898714
 30
0.0
 40
4.7625
 41
0.0
 71
     1
 72
     1
  1
YDR79020001:R
  7
SLDTEXTSTYLE0
 73
     1
 44
1.0
  0
MTEXT
  5
14B
330
1F
100
AcDbEntity
  8
0
  6
Continuous
 62
     7
370
     0
100
AcDbMText
 10
299.1442735221
 20
42.9025089624
 30
0.0
 40
4.7625
 41
0.0
 71
     1
 72
     1
  1
NP-E / NP-C
  7
SLDTEXTSTYLE0
 73
     1
 44
1.0
  0
MTEXT
  5
14C
330
1F
100
AcDbEntity
  8
0
  6
Continuous
 62
     7
370
     0
100
AcDbMText
 10
299.1431374184
 20
71.9166448562
 30
0.0
 40
3.175
 41
0.0
 71
     1
 72
     1
  1
-
  7
SLDTEXTSTYLE0
 73
     1
 44
1.0
  0
MTEXT
  5
14D
330
1F
100
AcDbEntity
  8
0
  6
Continuous
 62
     7
370
     0
100
AcDbMText
 10
290.232828364
 20
60.9668172747
 30
0.0
 40
4.2333333333
 41
0.0
 71
     1
 72
     1
  1
EGy防水コネクタ プラグ
  7
SLDTEXTSTYLE0
 73
     1
 44
1.0
  0
MTEXT
  5
14E
330
1F
100
AcDbEntity
  8
0
  6
Continuous
 62
     7
370
     0
100
AcDbMText
 10
366.2698338047
 20
71.9166448562
 30
0.0
 40
3.175
 41
0.0
 71
     1
 72
     1
  1
-
  7
SLDTEXTSTYLE0
 73
     1
 44
1.0
  0
MTEXT
  5
14F
330
1F
100
AcDbEntity
  8
0
  6
Continuous
 62
     7
370
     0
100
AcDbMText
 10
204.9132770883
 20
26.7706336468
 30
0.0
 40
2.9104166667
 41
0.0
 71
     1
 72
     1
  1
W.IIZUKA
  7
SLDTEXTSTYLE0
 73
     1
 44
1.0
  0
MTEXT
  5
150
330
1F
100
AcDbEntity
  8
0
  6
Continuous
 62
     7
370
     0
100
AcDbMText
 10
152.1485244476
 20
26.7706336468
 30
0.0
 40
2.9104166667
 41
0.0
 71
     1
 72
     1
  1
K.TAZAWA
  7
SLDTEXTSTYLE0
 73
     1
 44
1.0
  0
MTEXT
  5
152
330
1F
100
AcDbEntity
  8
0
  6
Continuous
 62
     7
370
     0
100
AcDbMText
 10
284.67188
 20
22.9453388795
 30
0.0
 40
5.0
 41
0.0
 71
     1
 72
     1
  1
YAZAKI Energy System Corporation
  7
SLDTEXTSTYLE26
 73
     1
 44
1.0
  0
MTEXT
  5
154
330
1F
100
AcDbEntity
  8
0
  6
Continuous
 62
     7
370
     0
100
AcDbMText
 10
375.5809958965
 20
43.8754193167
 30
0.0
 40
2.6000004
 41
0.0
 71
     1
 72
     1
  1
SHEET
  7
SLDTEXTSTYLE27
 73
     1
 44
1.0
  0
MTEXT
  5
155
330
1F
100
AcDbEntity
  8
0
  6
Continuous
 62
     7
370
     0
100
AcDbMText
 10
386.3423960176
 20
39.9950967188
 30
0.0
 40
3.5
 41
0.0
 71
     1
 72
     1
  1
1/1
  7
SLDTEXTSTYLE0
 73
     1
 44
1.0
  0
MTEXT
  5
156
330
1F
100
AcDbEntity
  8
FORMAT
100
AcDbMText
 10
404.8999
 20
15.1562711291
 30
0.0
 40
4.0
 41
0.0
 71
     1
 72
     1
  1
A3
  7
SLDTEXTSTYLE0
 73
     1
 44
1.0
  0
MTEXT
  5
157
330
1F
100
AcDbEntity
  8
FORMAT
100
AcDbMText
 10
181.6231438227
 20
26.7706336468
 30
0.0
 40
2.9104166667
 41
0.0
 71
     1
 72
     1
  1
T.SATOU
  7
SLDTEXTSTYLE0
 73
     1
 44
1.0
  0
MTEXT
  5
158
330
1F
100
AcDbEntity
  8
FORMAT
100
AcDbMText
 10
203.2055821294
 20
19.4311705041
 30
0.0
 40
3.175
 41
0.0
 71
     1
 72
     1
  1
2020.2.13
  7
SLDTEXTSTYLE0
 73
     1
 44
1.0
  0
MTEXT
  5
159
330
1F
100
AcDbEntity
  8
FORMAT
100
AcDbMText
 10
227.8714661177
 20
19.4765462527
 30
0.0
 40
3.175
 41
0.0
 71
     1
 72
     1
  1
2020.2.13
  7
SLDTEXTSTYLE0
 73
     1
 44
1.0
  0
MTEXT
  5
15A
330
1F
100
AcDbEntity
  8
FORMAT
100
AcDbMText
 10
178.4976843954
 20
19.4311705041
 30
0.0
 40
3.175
 41
0.0
 71
     1
 72
     1
  1
2020.2.13
  7
SLDTEXTSTYLE0
 73
     1
 44
1.0
  0
MTEXT
  5
15B
330
1F
100
AcDbEntity
  8
FORMAT
100
AcDbMText
 10
150.5829823755
 20
19.4311705041
 30
0.0
 40
3.175
 41
0.0
 71
     1
 72
     1
  1
2020.2.13
  7
SLDTEXTSTYLE0
 73
     1
 44
1.0
  0
MTEXT
  5
15C
330
1F
100
AcDbEntity
  8
FORMAT
100
AcDbMText
 10
16.9151998388
 20
19.3940410861
 30
0.0
 40
3.175
 41
0.0
 71
     1
 72
     1
  1
LET
  7
SLDTEXTSTYLE0
 73
     1
 44
1.0
  0
MTEXT
  5
15D
330
1F
100
AcDbEntity
  8
FORMAT
100
AcDbMText
 10
32.9086530529
 20
19.3940410861
 30
0.0
 40
3.175
 41
0.0
 71
     1
 72
     1
  1
DATE
  7
SLDTEXTSTYLE0
 73
     1
 44
1.0
  0
MTEXT
  5
15E
330
1F
100
AcDbEntity
  8
FORMAT
100
AcDbMText
 10
61.4063333249
 20
19.3940410861
 30
0.0
 40
3.175
 41
0.0
 71
     1
 72
     1
  1
REVISION RECORD
  7
SLDTEXTSTYLE0
 73
     1
 44
1.0
  0
MTEXT
  5
15F
330
1F
100
AcDbEntity
  8
FORMAT
100
AcDbMText
 10
114.4693587201
 20
19.4311703877
 30
0.0
 40
3.175
 41
0.0
 71
     1
 72
     1
  1
No.
  7
SLDTEXTSTYLE0
 73
     1
 44
1.0
  0
MTEXT
  5
160
330
1F
100
AcDbEntity
  8
FORMAT
100
AcDbMText
 10
133.6310870931
 20
19.4311703877
 30
0.0
 40
3.175
 41
0.0
 71
     1
 72
     1
  1
CHKD
  7
SLDTEXTSTYLE0
 73
     1
 44
1.0
  0
INSERT
  5
168
330
1F
100
AcDbEntity
  8
FORMAT
100
AcDbBlockReference
  2
SW_NOTE_0
 10
19.3189885731
 20
20.652292546
 30
0.0
  0
INSERT
  5
170
330
1F
100
AcDbEntity
  8
FORMAT
100
AcDbBlockReference
  2
SW_NOTE_1
 10
19.3584310154
 20
25.6780073488
 30
0.0
  0
INSERT
  5
178
330
1F
100
AcDbEntity
  8
FORMAT
100
AcDbBlockReference
  2
SW_NOTE_2
 10
19.3246230747
 20
30.6519606388
 30
0.0
  0
INSERT
  5
180
330
1F
100
AcDbEntity
  8
FORMAT
100
AcDbBlockReference
  2
SW_NOTE_3
 10
19.3246230747
 20
35.7363708748
 30
0.0
  0
MTEXT
  5
181
330
1F
100
AcDbEntity
  8
FORMAT
100
AcDbMText
 10
28.7350207447
 20
24.5471351288
 30
0.0
 40
3.175
 41
0.0
 71
     1
 72
     1
  1
2020.2.13
  7
SLDTEXTSTYLE0
 73
     1
 44
1.0
  0
MTEXT
  5
182
330
1F
100
AcDbEntity
  8
FORMAT
100
AcDbMText
 10
73.7451052754
 20
24.5471350124
 30
0.0
 40
3.175
 41
0.0
 71
     1
 72
     1
  1
NEW
  7
SLDTEXTSTYLE0
 73
     1
 44
1.0
  0
LINE
  5
183
330
1F
100
AcDbEntity
  8
0
  6
Continuous
 62
     7
370
    25
100
AcDbLine
 10
223.365623007
 20
157.0103073364
 30
0.0
 11
232.2638989057
 21
157.0103073364
 31
0.0
  0
LINE
  5
184
330
1F
100
AcDbEntity
  8
0
  6
Continuous
 62
     7
370
    25
100
AcDbLine
 10
232.2638989057
 20
191.0103073364
 30
0.0
 11
223.365623007
 21
191.0103073364
 31
0.0
  0
ARC
  5
185
330
1F
100
AcDbEntity
  8
0
  6
Continuous
 62
     7
370
    25
100
AcDbCircle
 10
232.2638989057
 20
180.5103073364
 30
0.0
 40
23.50000000000006
100
AcDbArc
 50
270.0
 51
290.9315460509
  0
ARC
  5
186
330
1F
100
AcDbEntity
  8
0
  6
Continuous
 62
     7
370
    25
100
AcDbCircle
 10
232.2638989057
 20
167.5103073364
 30
0.0
 40
23.50000000000003
100
AcDbArc
 50
69.0684539491
 51
90.0
  0
ARC
  5
187
330
1F
100
AcDbEntity
  8
0
  6
Continuous
 62
     7
370
    25
100
AcDbCircle
 10
272.865623007
 20
74.3603073364
 30
0.0
 40
90.15000000000012
100
AcDbArc
 50
90.6286004272
 51
110.9315460509
  0
ARC
  5
188
330
1F
100
AcDbEntity
  8
0
  6
Continuous
 62
     7
370
    25
100
AcDbCircle
 10
272.865623007
 20
273.6603073364
 30
0.0
 40
90.15000000000009
100
AcDbArc
 50
249.0684539491
 51
269.3713995728
  0
ARC
  5
189
330
1F
100
AcDbEntity
  8
0
  6
Continuous
 62
     7
370
    25
100
AcDbCircle
 10
271.865623007
 20
165.5048217078
 30
0.0
 40
1.0
100
AcDbArc
 50
270.6286004272
 51
360.0
  0
ARC
  5
18A
330
1F
100
AcDbEntity
  8
0
  6
Continuous
 62
     7
370
    25
100
AcDbCircle
 10
271.865623007
 20
182.515792965
 30
0.0
 40
1.0
100
AcDbArc
 50
0.0
 51
89.3713995728
  0
LINE
  5
18B
330
1F
100
AcDbEntity
  8
0
  6
Continuous
 62
     7
370
    25
100
AcDbLine
 10
272.865623007
 20
166.7603073364
 30
0.0
 11
334.815623007
 21
166.7603073364
 31
0.0
  0
LINE
  5
18C
330
1F
100
AcDbEntity
  8
0
  6
Continuous
 62
     7
370
    25
100
AcDbLine
 10
334.815623007
 20
181.2603073364
 30
0.0
 11
272.865623007
 21
181.2603073364
 31
0.0
  0
LINE
  5
18D
330
1F
100
AcDbEntity
  8
0
  6
Continuous
 62
     7
370
    25
100
AcDbLine
 10
190.965623007
 20
154.9103073364
 30
0.0
 11
217.865623007
 21
154.9103073364
 31
0.0
  0
LINE
  5
18E
330
1F
100
AcDbEntity
  8
0
  6
Continuous
 62
     7
370
    25
100
AcDbLine
 10
217.865623007
 20
193.1103073364
 30
0.0
 11
190.965623007
 21
193.1103073364
 31
0.0
  0
ARC
  5
18F
330
1F
100
AcDbEntity
  8
0
  6
Continuous
 62
     7
370
    25
100
AcDbCircle
 10
190.965623007
 20
192.1103073364
 30
0.0
 40
1.0
100
AcDbArc
 50
90.0
 51
180.0
  0
ARC
  5
190
330
1F
100
AcDbEntity
  8
0
  6
Continuous
 62
     7
370
    25
100
AcDbCircle
 10
190.965623007
 20
155.9103073364
 30
0.0
 40
1.0
100
AcDbArc
 50
180.0
 51
270.0
  0
ARC
  5
191
330
1F
100
AcDbEntity
  8
0
  6
Continuous
 62
     7
370
    25
100
AcDbCircle
 10
217.865623007
 20
191.6103073364
 30
0.0
 40
1.500000000000012
100
AcDbArc
 50
11.5369590328
 51
90.0
  0
ARC
  5
192
330
1F
100
AcDbEntity
  8
0
  6
Continuous
 62
     7
370
    25
100
AcDbCircle
 10
217.865623007
 20
156.4103073364
 30
0.0
 40
1.500000000000012
100
AcDbArc
 50
270.0
 51
348.4630409672
  0
ARC
  5
193
330
1F
100
AcDbEntity
  8
0
  6
Continuous
 62
     7
370
    25
100
AcDbCircle
 10
219.8252148012
 20
192.0103073364
 30
0.0
 40
0.5
100
AcDbArc
 50
191.5369590328
 51
270.0
  0
ARC
  5
194
330
1F
100
AcDbEntity
  8
0
  6
Continuous
 62
     7
370
    25
100
AcDbCircle
 10
219.8252148012
 20
156.0103073364
 30
0.0
 40
0.5000000000000004
100
AcDbArc
 50
90.0
 51
168.4630409672
  0
LINE
  5
195
330
1F
100
AcDbEntity
  8
0
  6
Continuous
 62
     7
370
    25
100
AcDbLine
 10
222.865623007
 20
156.5103073364
 30
0.0
 11
223.365623007
 21
157.0103073364
 31
0.0
  0
LINE
  5
196
330
1F
100
AcDbEntity
  8
0
  6
Continuous
 62
     7
370
    25
100
AcDbLine
 10
223.365623007
 20
191.0103073364
 30
0.0
 11
222.865623007
 21
191.5103073364
 31
0.0
  0
LINE
  5
197
330
1F
100
AcDbEntity
  8
0
  6
Continuous
 62
     7
370
    25
100
AcDbLine
 10
219.8252148012
 20
156.5103073364
 30
0.0
 11
222.865623007
 21
156.5103073364
 31
0.0
  0
LINE
  5
198
330
1F
100
AcDbEntity
  8
0
  6
Continuous
 62
     7
370
    25
100
AcDbLine
 10
222.865623007
 20
191.5103073364
 30
0.0
 11
219.8252148012
 21
191.5103073364
 31
0.0
  0
LINE
  5
199
330
1F
100
AcDbEntity
  8
0
  6
Continuous
 62
     7
370
    25
100
AcDbLine
 10
223.365623007
 20
157.0103073364
 30
0.0
 11
223.365623007
 21
191.0103073364
 31
0.0
  0
LINE
  5
19A
330
1F
100
AcDbEntity
  8
0
  6
Continuous
 62
     7
370
    25
100
AcDbLine
 10
272.865623007
 20
176.6262367732
 30
0.0
 11
272.865623007
 21
165.5048217078
 31
0.0
  0
LINE
  5
19B
330
1F
100
AcDbEntity
  8
0
  6
Continuous
 62
     7
370
    25
100
AcDbLine
 10
272.865623007
 20
182.515792965
 30
0.0
 11
272.865623007
 21
176.6262367732
 31
0.0
  0
LINE
  5
19C
330
1F
100
AcDbEntity
  8
0
  6
Continuous
 62
     7
370
    25
100
AcDbLine
 10
334.815623007
 20
181.2603073364
 30
0.0
 11
334.815623007
 21
166.7603073364
 31
0.0
  0
SPLINE
  5
19D
330
1F
100
AcDbEntity
  8
0
  6
Continuous
 62
     7
370
    25
100
AcDbSpline
210
0.0
220
0.0
230
1.0
 70
    11
 71
     3
 72
    39
 73
    35
 74
     0
 42
0.000000001
 43
0.00000001
 40
0.0
 40
0.0
 40
0.0
 40
0.0
 40
0.0304993323579265
 40
0.0611999844900794
 40
0.0919573965673937
 40
0.1231500801770881
 40
0.1544852522814815
 40
0.1861555624656609
 40
0.2180416877784074
 40
0.2499177739451137
 40
0.2819640413154047
 40
0.3137305308887962
 40
0.3454470174298458
 40
0.3768512255476632
 40
0.4079157978436251
 40
0.4388318534293573
 40
0.4693580993872064
 40
0.5000080170440478
 40
0.5306574508681914
 40
0.5611935101148214
 40
0.5921079169638848
 40
0.6231958946120391
 40
0.6545750669154045
 40
0.6862919486322475
 40
0.7180402017137913
 40
0.7500859215384147
 40
0.7819658054981081
 40
0.8138610547780736
 40
0.8455523065397313
 40
0.8768808897925107
 40
0.9080759489429894
 40
0.9388183872385882
 40
0.9695133987489768
 40
1.0
 40
1.0
 40
1.0
 40
1.0
 10
196.965623006993
 20
170.6448294961666
 30
0.0
 10
196.7550950785443
 20
170.6574312998187
 30
0.0
 10
196.332649570407
 20
170.6827180890181
 30
0.0
 10
195.7255794232281
 20
170.8840576975478
 30
0.0
 10
195.1670274383906
 20
171.1960079598577
 30
0.0
 10
194.6790571065831
 20
171.6172701159706
 30
0.0
 10
194.2783927225481
 20
172.1295413580808
 30
0.0
 10
193.9803954845978
 20
172.7139723477212
 30
0.0
 10
193.7966422005565
 20
173.3486482747689
 30
0.0
 10
193.7343341909113
 20
174.0097595977189
 30
0.0
 10
193.7962598745138
 20
174.6701312246691
 30
0.0
 10
193.9799875957907
 20
175.3054807733206
 30
0.0
 10
194.2776538553198
 20
175.8900254106196
 30
0.0
 10
194.6781746392299
 20
176.4024753584634
 30
0.0
 10
195.1664605714628
 20
176.8238006130154
 30
0.0
 10
195.724098983487
 20
177.1374852538444
 30
0.0
 10
196.3319204760844
 20
177.331835334968
 30
0.0
 10
196.9657876120798
 20
177.3978213981124
 30
0.0
 10
197.5997145295296
 20
177.331760531729
 30
0.0
 10
198.2075626439669
 20
177.1373097515785
 30
0.0
 10
198.765338687582
 20
176.8234299521415
 30
0.0
 10
199.2535174832675
 20
176.4020038590605
 30
0.0
 10
199.6539185133435
 20
175.8894814319953
 30
0.0
 10
199.9513727159456
 20
175.3051589900585
 30
0.0
 10
200.1350131794436
 20
174.6699221454348
 30
0.0
 10
200.1969139881645
 20
174.0096521395779
 30
0.0
 10
200.1345759498728
 20
173.3484566600562
 30
0.0
 10
199.9507118213804
 20
172.7135670674007
 30
0.0
 10
199.6525428017402
 20
172.129035384734
 30
0.0
 10
199.2517001721699
 20
171.6167606577262
 30
0.0
 10
198.7637424551654
 20
171.1956837524048
 30
0.0
 10
198.2052503655093
 20
170.8838907760296
 30
0.0
 10
197.5983806428395
 20
170.6826896249794
 30
0.0
 10
197.1760626881891
 20
170.6574208470821
 30
0.0
 10
196.965623006993
 20
170.6448294961666
 30
0.0
  0
SPLINE
  5
19E
330
1F
100
AcDbEntity
  8
0
  6
Continuous
 62
     7
370
    25
100
AcDbSpline
210
0.0
220
0.0
230
1.0
 70
    11
 71
     3
 72
    31
 73
    27
 74
     0
 42
0.000000001
 43
0.00000001
 40
0.0
 40
0.0
 40
0.0
 40
0.0
 40
0.0312527380785608
 40
0.0626222508892711
 40
0.1250005534173377
 40
0.1873643725632637
 40
0.2187115340711144
 40
0.2499169695969251
 40
0.2812845479299145
 40
0.3124867843736898
 40
0.3749233071874395
 40
0.4373656244220864
 40
0.4685722680872889
 40
0.4999917855648394
 40
0.5314118247105064
 40
0.5626085347911748
 40
0.6250297289026753
 40
0.6874910148229529
 40
0.7187112506297209
 40
0.7500793731501985
 40
0.7812810796452423
 40
0.8126192045280293
 40
0.8749685376157931
 40
0.9373590164360012
 40
0.9687342211354044
 40
1.0
 40
1.0
 40
1.0
 40
1.0
 10
196.965623006993
 20
171.5103073363748
 30
0.0
 10
197.1294298974201
 20
171.5196942052538
 30
0.0
 10
197.4576557368307
 20
171.5385030167101
 30
0.0
 10
198.0857191736058
 20
171.735838580732
 30
0.0
 10
198.779363320043
 20
172.1955258908766
 30
0.0
 10
199.2423888729489
 20
172.8900498721454
 30
0.0
 10
199.4329897566932
 20
173.5175649395763
 30
0.0
 10
199.4818575407764
 20
174.0098240270935
 30
0.0
 10
199.4333300907658
 20
174.5013678717234
 30
0.0
 10
199.2429133587928
 20
175.1295126142556
 30
0.0
 10
198.7803772722346
 20
175.8234383273978
 30
0.0
 10
198.0869279335575
 20
176.286563901693
 30
0.0
 10
197.4586916110247
 20
176.4776427638866
 30
0.0
 10
196.9657509398642
 20
176.5266825576343
 30
0.0
 10
196.4728567939702
 20
176.4776983401426
 30
0.0
 10
195.8447499352761
 20
176.2867484140784
 30
0.0
 10
195.1512349222943
 20
175.8238102401866
 30
0.0
 10
194.6884725274952
 20
175.1298745933685
 30
0.0
 10
194.4979373416681
 20
174.5015241924847
 30
0.0
 10
194.4493901270797
 20
174.0099039794355
 30
0.0
 10
194.4982343770406
 20
173.5177079444001
 30
0.0
 10
194.6887467168973
 20
172.8903170743701
 30
0.0
 10
195.1516290333736
 20
172.1957829727109
 30
0.0
 10
195.8452230742387
 20
171.7359731458368
 30
0.0
 10
196.4734229250827
 20
171.538524129334
 30
0.0
 10
196.80174749345
 20
171.5197019740571
 30
0.0
 10
196.965623006993
 20
171.5103073363748
 30
0.0
  0
LINE
  5
19F
330
1F
100
AcDbEntity
  8
0
  6
Continuous
 62
     7
370
    25
100
AcDbLine
 10
189.965623007
 20
158.2117428088
 30
0.0
 11
189.965623007
 21
155.9103073364
 31
0.0
  0
LINE
  5
1A0
330
1F
100
AcDbEntity
  8
0
  6
Continuous
 62
     7
370
    25
100
AcDbLine
 10
189.965623007
 20
158.2117428088
 30
0.0
 11
189.965623007
 21
158.4617428088
 31
0.0
  0
LINE
  5
1A1
330
1F
100
AcDbEntity
  8
0
  6
Continuous
 62
     7
370
    25
100
AcDbLine
 10
189.965623007
 20
189.5588718639
 30
0.0
 11
189.965623007
 21
158.4617428088
 31
0.0
  0
LINE
  5
1A2
330
1F
100
AcDbEntity
  8
0
  6
Continuous
 62
     7
370
    25
100
AcDbLine
 10
189.965623007
 20
189.5588718639
 30
0.0
 11
189.965623007
 21
189.8088718639
 31
0.0
  0
LINE
  5
1A3
330
1F
100
AcDbEntity
  8
0
  6
Continuous
 62
     7
370
    25
100
AcDbLine
 10
189.965623007
 20
192.1103073364
 30
0.0
 11
189.965623007
 21
189.8088718639
 31
0.0
  0
LINE
  5
1A4
330
1F
100
AcDbEntity
  8
0
  6
Continuous
 62
     7
370
    25
100
AcDbLine
 10
222.865623007
 20
156.5103073364
 30
0.0
 11
222.865623007
 21
191.5103073364
 31
0.0
  0
LINE
  5
1A5
330
1F
100
AcDbEntity
  8
0
  6
Continuous
 62
     8
370
    25
100
AcDbLine
 10
232.2638989057
 20
179.238791913
 30
0.0
 11
232.2638989057
 21
191.0103073364
 31
0.0
  0
LINE
  5
1A6
330
1F
100
AcDbEntity
  8
0
  6
Continuous
 62
     8
370
    25
100
AcDbLine
 10
232.2638989057
 20
157.0103073364
 30
0.0
 11
232.2638989057
 21
179.238791913
 31
0.0
  0
LINE
  5
1A7
330
1F
100
AcDbEntity
  8
0
  6
Continuous
 62
     8
370
    25
100
AcDbLine
 10
240.6593279983
 20
178.7618268206
 30
0.0
 11
240.6593279983
 21
158.5611212387
 31
0.0
  0
LINE
  5
1A8
330
1F
100
AcDbEntity
  8
0
  6
Continuous
 62
     8
370
    25
100
AcDbLine
 10
240.6593279983
 20
189.459493434
 30
0.0
 11
240.6593279983
 21
178.7618268206
 31
0.0
  0
LINE
  5
1A9
330
1F
100
AcDbEntity
  8
0
  6
Continuous
 62
     8
370
    25
100
AcDbLine
 10
271.876593934
 20
176.9337761799
 30
0.0
 11
271.876593934
 21
183.5157327825
 31
0.0
  0
LINE
  5
1AA
330
1F
100
AcDbEntity
  8
0
  6
Continuous
 62
     8
370
    25
100
AcDbLine
 10
271.876593934
 20
164.5048818902
 30
0.0
 11
271.876593934
 21
176.9337761799
 31
0.0
  0
LINE
  5
1AB
330
1F
100
AcDbEntity
  8
0
  6
Continuous
 62
     8
370
    25
100
AcDbLine
 10
217.865623007
 20
154.9103073364
 30
0.0
 11
217.865623007
 21
193.1103073364
 31
0.0
  0
LINE
  5
1AC
330
1F
100
AcDbEntity
  8
0
  6
Continuous
 62
     8
370
    25
100
AcDbLine
 10
190.965623007
 20
193.1103073364
 30
0.0
 11
190.965623007
 21
154.9103073364
 31
0.0
  0
LINE
  5
1AD
330
1F
100
AcDbEntity
  8
0
  6
Continuous
 62
     8
370
    25
100
AcDbLine
 10
219.3353168527
 20
156.1103073364
 30
0.0
 11
219.3353168527
 21
191.9103073364
 31
0.0
  0
LINE
  5
1AE
330
1F
100
AcDbEntity
  8
0
  6
Continuous
 62
     8
370
    25
100
AcDbLine
 10
219.8252148012
 20
191.5103073364
 30
0.0
 11
219.8252148012
 21
156.5103073364
 31
0.0
  0
DIMENSION
  5
1AF
330
1F
100
AcDbEntity
  8
FORMAT
100
AcDbDimension
  2
_D
 10
272.865623007
 20
138.829060588
 30
0.0
 11
231.415623007
 21
138.829060588
 31
0.0
 70
   160
  1
約83mm
 71
     2
 42
-1.0
  3
SLDDIMSTYLE0
100
AcDbAlignedDimension
 13
189.965623007
 23
155.9103073364
 33
0.0
 14
272.865623007
 24
165.5048217078
 34
0.0
 50
0.0
100
AcDbRotatedDimension
  0
DIMENSION
  5
1C0
330
1F
100
AcDbEntity
  8
FORMAT
100
AcDbDimension
  2
_D_1
 10
334.815623007
 20
138.829060588
 30
0.0
 11
303.840623007
 21
138.829060588
 31
0.0
 70
   160
  1
指定長±5％\P(2m未満は±10cm)
 71
     2
 42
-1.0
  3
SLDDIMSTYLE0
100
AcDbAlignedDimension
 13
272.865623007
 23
165.5048217078
 33
0.0
 14
334.815623007
 24
166.7603073364
 34
0.0
 50
0.0
100
AcDbRotatedDimension
  0
INSERT
  5
1D0
330
1F
100
AcDbEntity
  8
FORMAT
100
AcDbBlockReference
  2
SW_NOTE_4
 10
213.8419572553
 20
202.5866143669
 30
0.0
  0
LEADER
  5
1D2
330
1F
100
AcDbEntity
  8
FORMAT
100
AcDbLeader
  3
SLDDIMSTYLE1
 76
     2
 10
198.8468471954
 20
176.7375159306
 30
0.0
 10
213.8419572553
 20
202.5866143669
 30
0.0
  0
CIRCLE
  5
1D3
330
1F
100
AcDbEntity
  8
0
  6
Continuous
 62
     7
370
    25
100
AcDbCircle
 10
96.5979160214
 20
173.9918284702
 30
0.0
 40
11.49999999999997
  0
ARC
  5
1D4
330
1F
100
AcDbEntity
  8
0
  6
Continuous
 62
     7
370
    25
100
AcDbCircle
 10
96.5739172123
 20
174.0103073364
 30
0.0
 40
12.57735026918962
100
AcDbArc
 50
270.0
 51
286.1558564549
  0
ARC
  5
1D5
330
1F
100
AcDbEntity
  8
0
  6
Continuous
 62
     7
370
    25
100
AcDbCircle
 10
96.5739172123
 20
174.0103073364
 30
0.0
 40
12.57735026918962
100
AcDbArc
 50
253.8439497189
 51
270.0
  0
ARC
  5
1D6
330
1F
100
AcDbEntity
  8
0
  6
Continuous
 62
     7
370
    25
100
AcDbCircle
 10
96.5739172123
 20
174.0103073364
 30
0.0
 40
12.57735026918965
100
AcDbArc
 50
73.8492292118
 51
106.1505339274
  0
ARC
  5
1D7
330
1F
100
AcDbEntity
  8
0
  6
Continuous
 62
     7
370
    25
100
AcDbCircle
 10
96.5739172123
 20
174.0103073364
 30
0.0
 40
12.57735026918964
100
AcDbArc
 50
133.8411093756
 51
166.1528188817
  0
ARC
  5
1D8
330
1F
100
AcDbEntity
  8
0
  6
Continuous
 62
     7
370
    25
100
AcDbCircle
 10
96.5739172123
 20
174.0103073364
 30
0.0
 40
12.57735026918965
100
AcDbArc
 50
13.8554369191
 51
46.153617518
  0
ARC
  5
1D9
330
1F
100
AcDbEntity
  8
0
  6
Continuous
 62
     7
370
    25
100
AcDbCircle
 10
96.5739172123
 20
174.0103073364
 30
0.0
 40
12.57735026918962
100
AcDbArc
 50
193.8554617695
 51
226.1536028855
  0
ARC
  5
1DA
330
1F
100
AcDbEntity
  8
0
  6
Continuous
 62
     7
370
    25
100
AcDbCircle
 10
96.5739172123
 20
174.0103073364
 30
0.0
 40
12.57735026918962
100
AcDbArc
 50
313.841161701
 51
346.1528271233
  0
ARC
  5
1DB
330
1F
100
AcDbEntity
  8
0
  6
Continuous
 62
     7
370
    25
100
AcDbCircle
 10
96.5739172123
 20
174.0103073364
 30
0.0
 40
10.1
100
AcDbArc
 50
259.681335946
 51
172.318664054
  0
SPLINE
  5
1DC
330
1F
100
AcDbEntity
  8
0
  6
Continuous
 62
     7
370
    25
100
AcDbSpline
210
0.0
220
0.0
230
1.0
 70
     8
 71
     3
 72
    12
 73
     8
 74
     0
 42
0.000000001
 43
0.00000001
 40
0.0
 40
0.0
 40
0.0
 40
0.0
 40
0.2500000000000006
 40
0.2500000000000006
 40
0.5000000000000012
 40
0.5000000000000012
 40
1.0
 40
1.0
 40
1.0
 40
1.0
 10
86.56454660272041
 20
175.3603073363748
 30
0.0
 10
86.43262964142842
 20
175.3691232108025
 30
0.0
 10
86.30323801406561
 20
175.3775926190841
 30
0.0
 10
86.06117122485107
 20
175.3931718625479
 30
0.0
 10
85.95032978187929
 20
175.4001643218992
 30
0.0
 10
85.67326941917216
 20
175.4174449940233
 30
0.0
 10
85.56430727409769
 20
175.4239865816578
 30
0.0
 10
85.56430727409767
 20
175.4239865816578
 30
0.0
  0
ARC
  5
1DD
330
1F
100
AcDbEntity
  8
0
  6
Continuous
 62
     7
370
    25
100
AcDbCircle
 10
96.5739172123
 20
174.0103073364
 30
0.0
 40
11.10000000000001
100
AcDbArc
 50
259.3169761169
 51
172.6830238831
  0
SPLINE
  5
1DE
330
1F
100
AcDbEntity
  8
0
  6
Continuous
 62
     7
370
    25
100
AcDbSpline
210
0.0
220
0.0
230
1.0
 70
     8
 71
     3
 72
    12
 73
     8
 74
     0
 42
0.000000001
 43
0.00000001
 40
0.0
 40
0.0
 40
0.0
 40
0.0
 40
0.2499999999999994
 40
0.2499999999999994
 40
0.4999999999999989
 40
0.4999999999999989
 40
1.0
 40
1.0
 40
1.0
 40
1.0
 10
94.51624949813673
 20
163.102695151388
 30
0.0
 10
94.51624949813673
 20
163.102695151388
 30
0.0
 10
94.52280773546414
 20
163.1279793727828
 30
0.0
 10
94.54801702516333
 20
163.2254275444311
 30
0.0
 10
94.56666183533484
 20
163.2975798723397
 30
0.0
 10
94.6357565636962
 20
163.5660795295221
 30
0.0
 10
94.70002826808987
 20
163.8173303516713
 30
0.0
 10
94.76477788794418
 20
164.0736572517107
 30
0.0
  0
SPLINE
  5
1DF
330
1F
100
AcDbEntity
  8
0
  6
Continuous
 62
     7
370
    25
100
AcDbSpline
210
0.0
220
0.0
230
1.0
 70
    24
 71
     3
 72
    10
 73
     6
 74
     0
 42
0.000000001
 43
0.00000001
 40
0.0
 40
0.0
 40
0.0
 40
0.0
 40
0.5
 40
0.5
 40
1.0
 40
1.0
 40
1.0
 40
1.0
 10
86.06023564969256
 20
174.8603073363748
 30
0.0
 10
86.06023564969256
 20
174.8603073363748
 30
0.0
 10
86.11554821661522
 20
174.8603073363748
 30
0.0
 10
86.3020925582032
 20
174.8603073363748
 30
0.0
 10
86.43192522812241
 20
174.8603073363748
 30
0.0
 10
86.56454660272041
 20
174.8603073363748
 30
0.0
  0
ARC
  5
1E0
330
1F
100
AcDbEntity
  8
0
  6
Continuous
 62
     7
370
    25
100
AcDbCircle
 10
86.0602356497
 20
175.3603073364
 30
0.0
 40
0.5
100
AcDbArc
 50
172.6830238831
 51
270.0
  0
LINE
  5
1E1
330
1F
100
AcDbEntity
  8
0
  6
Continuous
 62
     7
370
    25
100
AcDbLine
 10
86.5645466027
 20
174.8603073364
 30
0.0
 11
86.5645466027
 21
175.3603073364
 31
0.0
  0
LINE
  5
1E2
330
1F
100
AcDbEntity
  8
0
  6
Continuous
 62
     7
370
    25
100
AcDbLine
 10
94.7647778879
 20
164.0736572517
 30
0.0
 11
94.2892496298
 21
164.2281657489
 31
0.0
  0
ARC
  5
1E3
330
1F
100
AcDbEntity
  8
0
  6
Continuous
 62
     7
370
    25
100
AcDbCircle
 10
94.608937233
 20
163.5940290336
 30
0.0
 40
0.4999999999999972
100
AcDbArc
 50
162.0
 51
259.3169761169
  0
SPLINE
  5
1E4
330
1F
100
AcDbEntity
  8
0
  6
Continuous
 62
     7
370
    25
100
AcDbSpline
210
0.0
220
0.0
230
1.0
 70
    24
 71
     3
 72
    10
 73
     6
 74
     0
 42
0.000000001
 43
0.00000001
 40
0.0
 40
0.0
 40
0.0
 40
0.0
 40
0.5
 40
0.5
 40
1.0
 40
1.0
 40
1.0
 40
1.0
 10
94.2892496297966
 20
164.2281657488982
 30
0.0
 10
94.24827320270832
 20
164.1020532738364
 30
0.0
 10
94.20802662067003
 20
163.9781870308695
 30
0.0
 10
94.15046311002064
 20
163.8010247618019
 30
0.0
 10
94.13340897486157
 20
163.748537530782
 30
0.0
 10
94.13340897486157
 20
163.748537530782
 30
0.0
  0
SPLINE
  5
1E5
330
1F
100
AcDbEntity
  8
0
  6
Continuous
 62
     7
370
    25
100
AcDbSpline
210
0.0
220
0.0
230
1.0
 70
     8
 71
     3
 72
     8
 73
     4
 74
     0
 42
0.000000001
 43
0.00000001
 40
0.0
 40
0.0
 40
0.0
 40
0.0
 40
1.0
 40
1.0
 40
1.0
 40
1.0
 10
95.25209834853759
 20
165.5734754106077
 30
0.0
 10
95.22525032092517
 20
165.5707233044008
 30
0.0
 10
95.1986501068316
 20
165.5715958012593
 30
0.0
 10
95.17232803555743
 20
165.5759699125088
 30
0.0
  0
LINE
  5
1E6
330
1F
100
AcDbEntity
  8
0
  6
Continuous
 62
     7
370
    25
100
AcDbLine
 10
95.2520983485
 20
165.5734754106
 30
0.0
 11
94.7647778879
 21
164.0736572517
 31
0.0
  0
LINE
  5
1E7
330
1F
100
AcDbEntity
  8
0
  6
Continuous
 62
     7
370
    25
100
AcDbLine
 10
94.2892496298
 20
164.2281657489
 30
0.0
 11
94.7533087899
 21
165.6563929861
 31
0.0
  0
SPLINE
  5
1E8
330
1F
100
AcDbEntity
  8
0
  6
Continuous
 62
     7
370
    25
100
AcDbSpline
210
0.0
220
0.0
230
1.0
 70
     8
 71
     3
 72
    10
 73
     6
 74
     0
 42
0.000000001
 43
0.00000001
 40
0.0
 40
0.0
 40
0.0
 40
0.0
 40
0.5
 40
0.5
 40
1.0
 40
1.0
 40
1.0
 40
1.0
 10
94.75330878985254
 20
165.6563929860778
 30
0.0
 10
94.75330878985254
 20
165.6563929860778
 30
0.0
 10
94.79608595579775
 20
165.6468226688744
 30
0.0
 10
94.94866067293239
 20
165.6158388635437
 30
0.0
 10
95.056383008023
 20
165.5952372583029
 30
0.0
 10
95.17232803555743
 20
165.5759699125088
 30
0.0
  0
ARC
  5
1E9
330
1F
100
AcDbEntity
  8
0
  6
Continuous
 62
     7
370
    25
100
AcDbCircle
 10
92.8844113735
 20
181.3893348242
 30
0.0
 40
0.3000000000000296
100
AcDbArc
 50
116.5650020727
 51
233.7272554221
  0
LINE
  5
1EA
330
1F
100
AcDbEntity
  8
0
  6
Continuous
 62
     7
370
    25
100
AcDbLine
 10
93.9155122344
 20
180.2605592657
 30
0.0
 11
92.7069224532
 21
181.1474718812
 31
0.0
  0
ARC
  5
1EB
330
1F
100
AcDbEntity
  8
0
  6
Continuous
 62
     7
370
    25
100
AcDbCircle
 10
94.0930011547
 20
180.5024222087
 30
0.0
 40
0.2999999999999838
100
AcDbArc
 50
233.7272554221
 51
290.9140049893
  0
ARC
  5
1EC
330
1F
100
AcDbEntity
  8
0
  6
Continuous
 62
     7
370
    25
100
AcDbCircle
 10
96.5739172123
 20
174.0103073364
 30
0.0
 40
6.650000000000051
100
AcDbArc
 50
105.0859950107
 51
110.9140049893
  0
ARC
  5
1ED
330
1F
100
AcDbEntity
  8
0
  6
Continuous
 62
     7
370
    25
100
AcDbCircle
 10
94.7650510864
 20
180.7207844683
 30
0.0
 40
0.2999999999999932
100
AcDbArc
 50
285.0859950107
 51
342.2727445779
  0
LINE
  5
1EE
330
1F
100
AcDbEntity
  8
0
  6
Continuous
 62
     7
370
    25
100
AcDbLine
 10
95.5072616269
 20
182.0573572349
 30
0.0
 11
95.0508061102
 21
180.629438607
 31
0.0
  0
ARC
  5
1EF
330
1F
100
AcDbEntity
  8
0
  6
Continuous
 62
     7
370
    25
100
AcDbCircle
 10
95.2215066032
 20
182.1487030962
 30
0.0
 40
0.300000000000008
100
AcDbArc
 50
342.2727445779
 51
99.4349979273
  0
ARC
  5
1F0
330
1F
100
AcDbEntity
  8
0
  6
Continuous
 62
     7
370
    25
100
AcDbCircle
 10
96.5739172123
 20
174.0103073364
 30
0.0
 40
8.550000000000033
100
AcDbArc
 50
99.4349979273
 51
116.5650020727
  0
ARC
  5
1F1
330
1F
100
AcDbEntity
  8
0
  6
Continuous
 62
     7
370
    25
100
AcDbCircle
 10
102.4516693834
 20
179.799480802
 30
0.0
 40
0.2999999999999986
100
AcDbArc
 50
44.5650020727
 51
161.7272554221
  0
LINE
  5
1F2
330
1F
100
AcDbEntity
  8
0
  6
Continuous
 62
     7
370
    25
100
AcDbLine
 10
101.6967677221
 20
178.4700347789
 30
0.0
 11
102.1667969628
 21
179.8935430365
 31
0.0
  0
ARC
  5
1F3
330
1F
100
AcDbEntity
  8
0
  6
Continuous
 62
     7
370
    25
100
AcDbCircle
 10
101.9816401427
 20
178.3759725443
 30
0.0
 40
0.3000000000000164
100
AcDbArc
 50
161.7272554221
 51
218.9140049893
  0
ARC
  5
1F4
330
1F
100
AcDbEntity
  8
0
  6
Continuous
 62
     7
370
    25
100
AcDbCircle
 10
96.5739172123
 20
174.0103073364
 30
0.0
 40
6.649999999999999
100
AcDbArc
 50
33.0859950107
 51
38.9140049893
  0
ARC
  5
1F5
330
1F
100
AcDbEntity
  8
0
  6
Continuous
 62
     7
370
    25
100
AcDbCircle
 10
102.3969898427
 20
177.8042927266
 30
0.0
 40
0.3000000000000135
100
AcDbArc
 50
213.0859950107
 51
270.2727445779
  0
LINE
  5
1F6
330
1F
100
AcDbEntity
  8
0
  6
Continuous
 62
     7
370
    25
100
AcDbLine
 10
103.8975017522
 20
177.5114322547
 30
0.0
 11
102.3984179245
 21
177.5042961257
 31
0.0
  0
ARC
  5
1F7
330
1F
100
AcDbEntity
  8
0
  6
Continuous
 62
     7
370
    25
100
AcDbCircle
 10
103.8960736703
 20
177.8114288557
 30
0.0
 40
0.3000000000000331
100
AcDbArc
 50
270.2727445779
 51
27.4349979273
  0
ARC
  5
1F8
330
1F
100
AcDbEntity
  8
0
  6
Continuous
 62
     7
370
    25
100
AcDbCircle
 10
96.5739172123
 20
174.0103073364
 30
0.0
 40
8.550000000000015
100
AcDbArc
 50
27.4349979273
 51
44.5650020727
  0
ARC
  5
1F9
330
1F
100
AcDbEntity
  8
0
  6
Continuous
 62
     7
370
    25
100
AcDbCircle
 10
103.8960736703
 20
170.2091858171
 30
0.0
 40
0.3000000000000331
100
AcDbArc
 50
332.5650020727
 51
89.7272554221
  0
LINE
  5
1FA
330
1F
100
AcDbEntity
  8
0
  6
Continuous
 62
     7
370
    25
100
AcDbLine
 10
102.3984179245
 20
170.5163185471
 30
0.0
 11
103.8975017522
 21
170.509182418
 31
0.0
  0
ARC
  5
1FB
330
1F
100
AcDbEntity
  8
0
  6
Continuous
 62
     7
370
    25
100
AcDbCircle
 10
102.3969898427
 20
170.2163219461
 30
0.0
 40
0.3000000000000048
100
AcDbArc
 50
89.7272554221
 51
146.9140049893
  0
ARC
  5
1FC
330
1F
100
AcDbEntity
  8
0
  6
Continuous
 62
     7
370
    25
100
AcDbCircle
 10
96.5739172123
 20
174.0103073364
 30
0.0
 40
6.649999999999982
100
AcDbArc
 50
321.0859950107
 51
326.9140049893
  0
ARC
  5
1FD
330
1F
100
AcDbEntity
  8
0
  6
Continuous
 62
     7
370
    25
100
AcDbCircle
 10
101.9816401427
 20
169.6446421284
 30
0.0
 40
0.3000000000000054
100
AcDbArc
 50
141.0859950107
 51
198.2727445779
  0
LINE
  5
1FE
330
1F
100
AcDbEntity
  8
0
  6
Continuous
 62
     7
370
    25
100
AcDbLine
 10
102.1667969628
 20
168.1270716363
 30
0.0
 11
101.6967677221
 21
169.5505798939
 31
0.0
  0
ARC
  5
1FF
330
1F
100
AcDbEntity
  8
0
  6
Continuous
 62
     7
370
    25
100
AcDbCircle
 10
102.4516693834
 20
168.2211338708
 30
0.0
 40
0.2999999999999986
100
AcDbArc
 50
198.2727445779
 51
315.4349979273
  0
ARC
  5
200
330
1F
100
AcDbEntity
  8
0
  6
Continuous
 62
     7
370
    25
100
AcDbCircle
 10
96.5739172123
 20
174.0103073364
 30
0.0
 40
8.54999999999999
100
AcDbArc
 50
315.4349979273
 51
332.5650020727
  0
ARC
  5
201
330
1F
100
AcDbEntity
  8
0
  6
Continuous
 62
     7
370
    25
100
AcDbCircle
 10
102.5739172123
 20
174.0103073364
 30
0.0
 40
3.700000000000008
100
AcDbArc
 50
164.3981355341
 51
195.6018644659
  0
ARC
  5
202
330
1F
100
AcDbEntity
  8
0
  6
Continuous
 62
     7
370
    25
100
AcDbCircle
 10
98.2397250432
 20
175.220587569
 30
0.0
 40
0.7999999999999962
100
AcDbArc
 50
344.3981355341
 51
87.6018644659
  0
ARC
  5
203
330
1F
100
AcDbEntity
  8
0
  6
Continuous
 62
     7
370
    25
100
AcDbCircle
 10
98.4280191786
 20
179.7166464341
 30
0.0
 40
3.700000000000007
100
AcDbArc
 50
236.3981355341
 51
267.6018644659
  0
ARC
  5
204
330
1F
100
AcDbEntity
  8
0
  6
Continuous
 62
     7
370
    25
100
AcDbCircle
 10
95.9376352396
 20
175.9685818887
 30
0.0
 40
0.8000000000000123
100
AcDbArc
 50
56.3981355341
 51
159.6018644659
  0
ARC
  5
205
330
1F
100
AcDbEntity
  8
0
  6
Continuous
 62
     7
370
    25
100
AcDbCircle
 10
91.7198152461
 20
177.5370188501
 30
0.0
 40
3.700000000000003
100
AcDbArc
 50
323.9635073858
 51
339.6018644659
  0
LINE
  5
206
330
1F
100
AcDbEntity
  8
0
  6
Continuous
 62
     7
370
    25
100
AcDbLine
 10
88.7610273159
 20
175.3603073364
 30
0.0
 11
94.7117923492
 21
175.3603073364
 31
0.0
  0
LINE
  5
207
330
1F
100
AcDbEntity
  8
0
  6
Continuous
 62
     7
370
    25
100
AcDbLine
 10
88.5911032664
 20
175.4825327645
 30
0.0
 11
88.7610273159
 21
175.3603073364
 31
0.0
  0
ARC
  5
208
330
1F
100
AcDbEntity
  8
0
  6
Continuous
 62
     7
370
    25
100
AcDbCircle
 10
88.4159250311
 20
175.2389910106
 30
0.0
 40
0.3000000000000174
100
AcDbArc
 50
54.2727445779
 51
156.1472337401
  0
LINE
  5
209
330
1F
100
AcDbEntity
  8
0
  6
Continuous
 62
     7
370
    25
100
AcDbLine
 10
86.5645466027
 20
175.3603073364
 30
0.0
 11
88.14154874
 21
175.3603073364
 31
0.0
  0
LINE
  5
20A
330
1F
100
AcDbEntity
  8
0
  6
Continuous
 62
     7
370
    25
100
AcDbLine
 10
95.4435277561
 20
166.1626345469
 30
0.0
 11
95.5072616269
 21
165.9632574379
 31
0.0
  0
LINE
  5
20B
330
1F
100
AcDbEntity
  8
0
  6
Continuous
 62
     7
370
    25
100
AcDbLine
 10
97.282415281
 20
171.8221484088
 30
0.0
 11
95.4435277561
 21
166.1626345469
 31
0.0
  0
ARC
  5
20C
330
1F
100
AcDbEntity
  8
0
  6
Continuous
 62
     7
370
    25
100
AcDbCircle
 10
98.4280191786
 20
168.3039682386
 30
0.0
 40
3.700000000000004
100
AcDbArc
 50
92.3981355341
 51
108.0364926142
  0
ARC
  5
20D
330
1F
100
AcDbEntity
  8
0
  6
Continuous
 62
     7
370
    25
100
AcDbCircle
 10
98.2397250432
 20
172.8000271037
 30
0.0
 40
0.7999999999999902
100
AcDbArc
 50
272.3981355341
 51
15.6018644659
  0
CIRCLE
  5
20E
330
1F
100
AcDbEntity
  8
0
  6
Continuous
 62
     7
370
    25
100
AcDbCircle
 10
91.7198152461
 20
177.5370188501
 30
0.0
 40
2.099999999999994
  0
CIRCLE
  5
20F
330
1F
100
AcDbEntity
  8
0
  6
Continuous
 62
     7
370
    25
100
AcDbCircle
 10
98.4280191786
 20
179.7166464341
 30
0.0
 40
2.100000000000023
  0
CIRCLE
  5
210
330
1F
100
AcDbEntity
  8
0
  6
Continuous
 62
     7
370
    25
100
AcDbCircle
 10
98.4280191786
 20
168.3039682386
 30
0.0
 40
2.100000000000023
  0
CIRCLE
  5
211
330
1F
100
AcDbEntity
  8
0
  6
Continuous
 62
     7
370
    25
100
AcDbCircle
 10
102.5739172123
 20
174.0103073364
 30
0.0
 40
2.099999999999966
  0
ARC
  5
212
330
1F
100
AcDbEntity
  8
0
  6
Continuous
 62
     7
370
    25
100
AcDbCircle
 10
95.2215066032
 20
165.8719115765
 30
0.0
 40
0.3000000000000169
100
AcDbArc
 50
275.85276626
 51
17.7272554221
  0
CIRCLE
  5
213
330
1F
100
AcDbEntity
  8
0
  6
Continuous
 62
     7
370
    25
100
AcDbCircle
 10
91.7198152461
 20
177.5370188501
 30
0.0
 40
1.599999999999966
  0
CIRCLE
  5
214
330
1F
100
AcDbEntity
  8
0
  6
Continuous
 62
     7
370
    25
100
AcDbCircle
 10
98.4280191786
 20
179.7166464341
 30
0.0
 40
1.599999999999994
  0
LINE
  5
215
330
1F
100
AcDbEntity
  8
0
  6
Continuous
 62
     7
370
    25
100
AcDbLine
 10
88.0662735902
 20
174.8603073364
 30
0.0
 11
86.5645466027
 21
174.8603073364
 31
0.0
  0
SPLINE
  5
216
330
1F
100
AcDbEntity
  8
0
  6
Continuous
 62
     7
370
    25
100
AcDbSpline
210
0.0
220
0.0
230
1.0
 70
     8
 71
     3
 72
     8
 73
     4
 74
     0
 42
0.000000001
 43
0.00000001
 40
0.0
 40
0.0
 40
0.0
 40
0.0
 40
1.0
 40
1.0
 40
1.0
 40
1.0
 10
88.11927076995765
 20
175.2836704169283
 30
0.0
 10
88.12324471030172
 20
175.3100558690473
 30
0.0
 10
88.13063483468787
 20
175.3356237923526
 30
0.0
 10
88.14154874002716
 20
175.3603073363748
 30
0.0
  0
SPLINE
  5
217
330
1F
100
AcDbEntity
  8
0
  6
Continuous
 62
     7
370
    25
100
AcDbSpline
210
0.0
220
0.0
230
1.0
 70
     8
 71
     3
 72
    10
 73
     6
 74
     0
 42
0.000000001
 43
0.00000001
 40
0.0
 40
0.0
 40
0.0
 40
0.0
 40
0.5
 40
0.5
 40
1.0
 40
1.0
 40
1.0
 40
1.0
 10
88.11927076995765
 20
175.2836704169283
 30
0.0
 10
88.10191756643466
 20
175.1684517470379
 30
0.0
 10
88.08802977982035
 20
175.0582469208952
 30
0.0
 10
88.07048654301344
 20
174.9048070525053
 30
0.0
 10
88.06627359024293
 20
174.8603073363748
 30
0.0
 10
88.06627359024293
 20
174.8603073363748
 30
0.0
  0
LINE
  5
218
330
1F
100
AcDbEntity
  8
0
  6
Continuous
 62
     7
370
    25
100
AcDbLine
 10
89.4561529219
 20
174.8603073364
 30
0.0
 11
88.7610273159
 21
175.3603073364
 31
0.0
  0
LINE
  5
219
330
1F
100
AcDbEntity
  8
0
  6
Continuous
 62
     7
370
    25
100
AcDbLine
 10
94.7117923492
 20
174.8603073364
 30
0.0
 11
94.7117923492
 21
175.3603073364
 31
0.0
  0
LINE
  5
21A
330
1F
100
AcDbEntity
  8
0
  6
Continuous
 62
     7
370
    25
100
AcDbLine
 10
94.7117923492
 20
174.8603073364
 30
0.0
 11
89.4561529219
 21
174.8603073364
 31
0.0
  0
LINE
  5
21B
330
1F
100
AcDbEntity
  8
0
  6
Continuous
 62
     7
370
    25
100
AcDbLine
 10
96.3803701621
 20
176.6349044746
 30
0.0
 11
96.1036608355
 21
176.2184528584
 31
0.0
  0
ARC
  5
21C
330
1F
100
AcDbEntity
  8
0
  6
Continuous
 62
     7
370
    25
100
AcDbCircle
 10
95.9376352396
 20
175.9685818887
 30
0.0
 40
0.2999999999999949
100
AcDbArc
 50
56.3981355341
 51
159.6018644659
  0
LINE
  5
21D
330
1F
100
AcDbEntity
  8
0
  6
Continuous
 62
     7
370
    25
100
AcDbLine
 10
95.1878005741
 20
176.2474151263
 30
0.0
 11
95.65644724
 21
176.0731443528
 31
0.0
  0
ARC
  5
21E
330
1F
100
AcDbEntity
  8
0
  6
Continuous
 62
     7
370
    25
100
AcDbCircle
 10
91.7198152461
 20
177.5370188501
 30
0.0
 40
4.199999999999999
100
AcDbArc
 50
323.9635073858
 51
339.6018644659
  0
LINE
  5
21F
330
1F
100
AcDbEntity
  8
0
  6
Continuous
 62
     7
370
    25
100
AcDbLine
 10
94.7117923492
 20
175.3603073364
 30
0.0
 11
95.1161135794
 21
175.0661571318
 31
0.0
  0
ARC
  5
220
330
1F
100
AcDbEntity
  8
0
  6
Continuous
 62
     7
370
    25
100
AcDbCircle
 10
94.7117923492
 20
175.3603073364
 30
0.0
 40
0.5000000000000051
100
AcDbArc
 50
270.0
 51
323.9635073858
  0
LINE
  5
221
330
1F
100
AcDbEntity
  8
0
  6
Continuous
 62
     7
370
    25
100
AcDbLine
 10
98.2731995562
 20
176.0198869228
 30
0.0
 11
98.2522779856
 21
175.5203248267
 31
0.0
  0
ARC
  5
222
330
1F
100
AcDbEntity
  8
0
  6
Continuous
 62
     7
370
    25
100
AcDbCircle
 10
98.4280191786
 20
179.7166464341
 30
0.0
 40
4.200000000000006
100
AcDbArc
 50
236.3981355341
 51
267.6018644659
  0
LINE
  5
223
330
1F
100
AcDbEntity
  8
0
  6
Continuous
 62
     7
370
    25
100
AcDbLine
 10
99.0102480955
 20
175.0054266388
 30
0.0
 11
98.5286711878
 21
175.1399022202
 31
0.0
  0
ARC
  5
224
330
1F
100
AcDbEntity
  8
0
  6
Continuous
 62
     7
370
    25
100
AcDbCircle
 10
98.2397250432
 20
175.220587569
 30
0.0
 40
0.2999999999999961
100
AcDbArc
 50
344.3981355341
 51
87.6018644659
  0
LINE
  5
225
330
1F
100
AcDbEntity
  8
0
  6
Continuous
 62
     7
370
    25
100
AcDbLine
 10
99.0102480955
 20
173.015188034
 30
0.0
 11
98.5286711878
 21
172.8807124526
 31
0.0
  0
ARC
  5
226
330
1F
100
AcDbEntity
  8
0
  6
Continuous
 62
     7
370
    25
100
AcDbCircle
 10
102.5739172123
 20
174.0103073364
 30
0.0
 40
4.200000000000009
100
AcDbArc
 50
164.3981355341
 51
195.6018644659
  0
CIRCLE
  5
227
330
1F
100
AcDbEntity
  8
0
  6
Continuous
 62
     7
370
    25
100
AcDbCircle
 10
102.5739172123
 20
174.0103073364
 30
0.0
 40
1.599999999999966
  0
LINE
  5
228
330
1F
100
AcDbEntity
  8
0
  6
Continuous
 62
     7
370
    25
100
AcDbLine
 10
97.282415281
 20
171.8221484088
 30
0.0
 11
97.1276039435
 21
172.2975781615
 31
0.0
  0
LINE
  5
229
330
1F
100
AcDbEntity
  8
0
  6
Continuous
 62
     7
370
    25
100
AcDbLine
 10
97.282415281
 20
171.8221484088
 30
0.0
 11
96.8068870228
 21
171.976656906
 31
0.0
  0
ARC
  5
22A
330
1F
100
AcDbEntity
  8
0
  6
Continuous
 62
     7
370
    25
100
AcDbCircle
 10
97.282415281
 20
171.8221484088
 30
0.0
 40
0.5000000000000059
100
AcDbArc
 50
108.0364926142
 51
162.0
  0
LINE
  5
22B
330
1F
100
AcDbEntity
  8
0
  6
Continuous
 62
     7
370
    25
100
AcDbLine
 10
95.4435277561
 20
166.1626345469
 30
0.0
 11
95.1828051235
 21
166.9782467813
 31
0.0
  0
LINE
  5
22C
330
1F
100
AcDbEntity
  8
0
  6
Continuous
 62
     7
370
    25
100
AcDbLine
 10
95.1828051235
 20
166.9782467813
 30
0.0
 11
96.8068870228
 21
171.976656906
 31
0.0
  0
LINE
  5
22D
330
1F
100
AcDbEntity
  8
0
  6
Continuous
 62
     7
370
    25
100
AcDbLine
 10
98.2731995562
 20
172.0007277499
 30
0.0
 11
98.2522779856
 21
172.500289846
 31
0.0
  0
ARC
  5
22E
330
1F
100
AcDbEntity
  8
0
  6
Continuous
 62
     7
370
    25
100
AcDbCircle
 10
98.2397250432
 20
172.8000271037
 30
0.0
 40
0.2999999999999955
100
AcDbArc
 50
272.3981355341
 51
15.6018644659
  0
ARC
  5
22F
330
1F
100
AcDbEntity
  8
0
  6
Continuous
 62
     7
370
    25
100
AcDbCircle
 10
98.4280191786
 20
168.3039682386
 30
0.0
 40
4.199999999999997
100
AcDbArc
 50
92.3981355341
 51
108.0364926142
  0
CIRCLE
  5
230
330
1F
100
AcDbEntity
  8
0
  6
Continuous
 62
     7
370
    25
100
AcDbCircle
 10
98.4280191786
 20
168.3039682386
 30
0.0
 40
1.600000000000023
  0
ARC
  5
231
330
1F
100
AcDbEntity
  8
0
  6
Continuous
 62
     7
370
    25
100
AcDbCircle
 10
96.686096963
 20
171.8132191754
 30
0.0
 40
0.5825410781861424
100
AcDbArc
 50
181.0876111488
 51
221.3309738018
  0
SPLINE
  5
232
330
1F
100
AcDbEntity
  8
0
  6
Continuous
 62
     7
370
    25
100
AcDbSpline
210
0.0
220
0.0
230
1.0
 70
     8
 71
     3
 72
    14
 73
    10
 74
     0
 42
0.000000001
 43
0.00000001
 40
0.0
 40
0.0
 40
0.0
 40
0.0
 40
0.25
 40
0.25
 40
0.5
 40
0.5
 40
0.75
 40
0.75
 40
1.0
 40
1.0
 40
1.0
 40
1.0
 10
96.806887022815
 20
171.9766569059679
 30
0.0
 10
96.806887022815
 20
171.9766569059679
 30
0.0
 10
96.77516765529371
 20
171.9526571564549
 30
0.0
 10
96.68778360018854
 20
171.8806840771468
 30
0.0
 10
96.63260699453241
 20
171.832719704215
 30
0.0
 10
96.52252275698797
 20
171.7291857941507
 30
0.0
 10
96.46570206543932
 20
171.6720977014688
 30
0.0
 10
96.35551312265717
 20
171.553944117622
 30
0.0
 10
96.30146044959446
 20
171.4922878856952
 30
0.0
 10
96.2486626554453
 20
171.4285045612279
 30
0.0
  0
SPLINE
  5
233
330
1F
100
AcDbEntity
  8
0
  6
Continuous
 62
     7
370
    25
100
AcDbSpline
210
0.0
220
0.0
230
1.0
 70
     8
 71
     3
 72
    14
 73
    10
 74
     0
 42
0.000000001
 43
0.00000001
 40
0.0
 40
0.0
 40
0.0
 40
0.0
 40
0.2499999999999998
 40
0.2499999999999998
 40
0.4999999999999999
 40
0.4999999999999999
 40
0.7499999999999999
 40
0.7499999999999999
 40
1.0
 40
1.0
 40
1.0
 40
1.0
 10
96.10366083554483
 20
171.8021618143346
 30
0.0
 10
96.21532260562168
 20
171.8763549546668
 30
0.0
 10
96.32784061289136
 20
171.94338192179
 30
0.0
 10
96.55124302612573
 20
172.0634619862656
 30
0.0
 10
96.66302321429701
 20
172.1166915176784
 30
0.0
 10
96.86476313497654
 20
172.2037502964706
 30
0.0
 10
96.95632486384292
 20
172.2383139959379
 30
0.0
 10
97.08906984534086
 20
172.2854472825388
 30
0.0
 10
97.12760394345028
 20
172.297578161507
 30
0.0
 10
97.12760394345028
 20
172.297578161507
 30
0.0
  0
ARC
  5
234
330
1F
100
AcDbEntity
  8
0
  6
Continuous
 62
     7
370
    25
100
AcDbCircle
 10
94.5190276493
 20
174.7959341991
 30
0.0
 40
0.5825410781857155
100
AcDbArc
 50
210.6690261982
 51
250.9123888512
  0
SPLINE
  5
235
330
1F
100
AcDbEntity
  8
0
  6
Continuous
 62
     7
370
    25
100
AcDbSpline
210
0.0
220
0.0
230
1.0
 70
     8
 71
     3
 72
    12
 73
     8
 74
     0
 42
0.000000001
 43
0.00000001
 40
0.0
 40
0.0
 40
0.0
 40
0.0
 40
0.4999999999999998
 40
0.4999999999999998
 40
0.7499999999999997
 40
0.7499999999999997
 40
1.0
 40
1.0
 40
1.0
 40
1.0
 10
94.01796767364462
 20
174.4987928042641
 30
0.0
 10
94.17192990971616
 20
174.5598032079658
 30
0.0
 10
94.32150288055784
 20
174.6295261448361
 30
0.0
 10
94.52168181852757
 20
174.7393905189729
 30
0.0
 10
94.58364234872121
 20
174.7766501853023
 30
0.0
 10
94.67894517850634
 20
174.8374123629441
 30
0.0
 10
94.71179234922381
 20
174.8603073363748
 30
0.0
 10
94.71179234922383
 20
174.8603073363748
 30
0.0
  0
SPLINE
  5
236
330
1F
100
AcDbEntity
  8
0
  6
Continuous
 62
     7
370
    25
100
AcDbSpline
210
0.0
220
0.0
230
1.0
 70
     8
 71
     3
 72
    16
 73
    12
 74
     0
 42
0.000000001
 43
0.00000001
 40
0.0
 40
0.0
 40
0.0
 40
0.0
 40
0.125
 40
0.125
 40
0.25
 40
0.25
 40
0.5000000000000001
 40
0.5000000000000001
 40
0.7500000000000002
 40
0.7500000000000002
 40
1.0
 40
1.0
 40
1.0
 40
1.0
 10
95.1161135793814
 20
175.0661571318133
 30
0.0
 10
95.1161135793814
 20
175.0661571318133
 30
0.0
 10
95.11039718089262
 20
175.0582485544694
 30
0.0
 10
95.08824324598729
 20
175.0282261435142
 30
0.0
 10
95.07148381677024
 20
175.005711464586
 30
0.0
 10
95.00818948072877
 20
174.9233256690435
 30
0.0
 10
94.94721268726207
 20
174.847030386202
 30
0.0
 10
94.80178192732969
 20
174.6815655489729
 30
0.0
 10
94.7172644090538
 20
174.592290759814
 30
0.0
 10
94.53388809067287
 20
174.4165831376304
 30
0.0
 10
94.43375263469532
 20
174.3288152361152
 30
0.0
 10
94.32852881250815
 20
174.2454214372918
 30
0.0
  0
SPLINE
  5
237
330
1F
100
AcDbEntity
  8
0
  6
Continuous
 62
     7
370
    25
100
AcDbSpline
210
0.0
220
0.0
230
1.0
 70
     8
 71
     3
 72
    10
 73
     6
 74
     0
 42
0.000000001
 43
0.00000001
 40
0.0
 40
0.0
 40
0.0
 40
0.0
 40
0.5
 40
0.5
 40
1.0
 40
1.0
 40
1.0
 40
1.0
 10
85.97969708999223
 20
174.3603073363748
 30
0.0
 10
85.98845742403515
 20
174.4928914895113
 30
0.0
 10
86.00823611496727
 20
174.6213596371113
 30
0.0
 10
86.04507665891528
 20
174.8053275150477
 30
0.0
 10
86.06023564969256
 20
174.8603073363748
 30
0.0
 10
86.06023564969256
 20
174.8603073363748
 30
0.0
  0
LINE
  5
238
330
1F
100
AcDbEntity
  8
0
  6
Continuous
 62
     7
370
    25
100
AcDbLine
 10
85.4799697257
 20
174.3768167703
 30
0.0
 11
85.97969709
 21
174.3603073364
 31
0.0
  0
SPLINE
  5
239
330
1F
100
AcDbEntity
  8
0
  6
Continuous
 62
     7
370
    25
100
AcDbSpline
210
0.0
220
0.0
230
1.0
 70
     8
 71
     3
 72
    14
 73
    10
 74
     0
 42
0.000000001
 43
0.00000001
 40
0.0
 40
0.0
 40
0.0
 40
0.0
 40
0.25
 40
0.25
 40
0.5
 40
0.5
 40
0.75
 40
0.75
 40
1.0
 40
1.0
 40
1.0
 40
1.0
 10
85.56430727409767
 20
175.4239865816578
 30
0.0
 10
85.56430727409767
 20
175.4239865816578
 30
0.0
 10
85.56043985023872
 20
175.3946121342675
 30
0.0
 10
85.54734989096475
 20
175.2861586153907
 30
0.0
 10
85.53806154515289
 20
175.2059279506118
 30
0.0
 10
85.51865789515479
 20
175.0107374388634
 30
0.0
 10
85.50852543154342
 20
174.8950886519615
 30
0.0
 10
85.49135719364811
 20
174.6448123962641
 30
0.0
 10
85.48443760570859
 20
174.512055924479
 30
0.0
 10
85.47996972573223
 20
174.376816770337
 30
0.0
  0
LINE
  5
23A
330
1F
100
AcDbEntity
  8
0
  6
Continuous
 62
     7
370
    25
100
AcDbLine
 10
93.4942700897
 20
163.3460786441
 30
0.0
 11
93.6329929331
 21
163.826449306
 31
0.0
  0
SPLINE
  5
23B
330
1F
100
AcDbEntity
  8
0
  6
Continuous
 62
     7
370
    25
100
AcDbSpline
210
0.0
220
0.0
230
1.0
 70
     8
 71
     3
 72
    10
 73
     6
 74
     0
 42
0.000000001
 43
0.00000001
 40
0.0
 40
0.0
 40
0.0
 40
0.0
 40
0.5
 40
0.5
 40
1.0
 40
1.0
 40
1.0
 40
1.0
 10
94.13340897486157
 20
163.748537530782
 30
0.0
 10
94.13340897486157
 20
163.748537530782
 30
0.0
 10
94.07661016782794
 20
163.7510985017655
 30
0.0
 10
93.89042253760145
 20
163.7728739856002
 30
0.0
 10
93.7617840823319
 20
163.7938129009775
 30
0.0
 10
93.6329929330641
 20
163.8264493059535
 30
0.0
  0
SPLINE
  5
23C
330
1F
100
AcDbEntity
  8
0
  6
Continuous
 62
     7
370
    25
100
AcDbSpline
210
0.0
220
0.0
230
1.0
 70
     8
 71
     3
 72
    14
 73
    10
 74
     0
 42
0.000000001
 43
0.00000001
 40
0.0
 40
0.0
 40
0.0
 40
0.0
 40
0.25
 40
0.25
 40
0.5
 40
0.5
 40
0.75
 40
0.75
 40
1.0
 40
1.0
 40
1.0
 40
1.0
 10
93.49427008970372
 20
163.3460786441412
 30
0.0
 10
93.6242807475183
 20
163.3085337864866
 30
0.0
 10
93.75436615868146
 20
163.2736578511776
 30
0.0
 10
93.9959729482361
 20
163.2130987302892
 30
0.0
 10
94.10979662796962
 20
163.1868285100853
 30
0.0
 10
94.30108485107088
 20
163.1450499894452
 30
0.0
 10
94.38006882164659
 20
163.1291292686768
 30
0.0
 10
94.4876817210711
 20
163.1079851811061
 30
0.0
 10
94.51624949813673
 20
163.102695151388
 30
0.0
 10
94.51624949813673
 20
163.102695151388
 30
0.0
  0
SPLINE
  5
23D
330
1F
100
AcDbEntity
  8
0
  6
Continuous
 62
     7
370
    25
100
AcDbSpline
210
0.0
220
0.0
230
1.0
 70
     8
 71
     3
 72
     8
 73
     4
 74
     0
 42
0.000000001
 43
0.00000001
 40
0.0
 40
0.0
 40
0.0
 40
0.0
 40
1.0
 40
1.0
 40
1.0
 40
1.0
 10
94.85459533089156
 20
167.5861548947209
 30
0.0
 10
94.94976553320451
 20
167.5563916778166
 30
0.0
 10
95.0220522898296
 20
167.4811259386713
 30
0.0
 10
95.0508061101856
 20
167.3911760657847
 30
0.0
  0
LINE
  5
23E
330
1F
100
AcDbEntity
  8
0
  6
Continuous
 62
     7
370
    25
100
AcDbLine
 10
94.8545953309
 20
167.5861548947
 30
0.0
 11
96.0482060039
 21
171.2597108128
 31
0.0
  0
SPLINE
  5
23F
330
1F
100
AcDbEntity
  8
0
  6
Continuous
 62
     7
370
    25
100
AcDbSpline
210
0.0
220
0.0
230
1.0
 70
     8
 71
     3
 72
     8
 73
     4
 74
     0
 42
0.000000001
 43
0.00000001
 40
0.0
 40
0.0
 40
0.0
 40
0.0
 40
1.0
 40
1.0
 40
1.0
 40
1.0
 10
96.24866265544522
 20
171.428504561228
 30
0.0
 10
96.19245514677124
 20
171.3606020698261
 30
0.0
 10
96.1283056486047
 20
171.2991559000681
 30
0.0
 10
96.04820600388952
 20
171.2597108128034
 30
0.0
  0
LINE
  5
240
330
1F
100
AcDbEntity
  8
0
  6
Continuous
 62
     7
370
    25
100
AcDbLine
 10
95.1828051235
 20
166.9782467813
 30
0.0
 11
95.0508061102
 21
167.3911760658
 31
0.0
  0
SPLINE
  5
241
330
1F
100
AcDbEntity
  8
0
  6
Continuous
 62
     7
370
    25
100
AcDbSpline
210
0.0
220
0.0
230
1.0
 70
     8
 71
     3
 72
     8
 73
     4
 74
     0
 42
0.000000001
 43
0.00000001
 40
0.0
 40
0.0
 40
0.0
 40
0.0
 40
1.0
 40
1.0
 40
1.0
 40
1.0
 10
93.79549076732934
 20
174.3603073363748
 30
0.0
 10
93.85749875662181
 20
174.4240315941775
 30
0.0
 10
93.9361582844718
 20
174.4663743100452
 30
0.0
 10
94.01796767364462
 20
174.4987928042641
 30
0.0
  0
LINE
  5
242
330
1F
100
AcDbEntity
  8
0
  6
Continuous
 62
     7
370
    25
100
AcDbLine
 10
93.7954907673
 20
174.3603073364
 30
0.0
 11
89.9328854908
 21
174.3603073364
 31
0.0
  0
SPLINE
  5
243
330
1F
100
AcDbEntity
  8
0
  6
Continuous
 62
     7
370
    25
100
AcDbSpline
210
0.0
220
0.0
230
1.0
 70
     8
 71
     3
 72
    10
 73
     6
 74
     0
 42
0.000000001
 43
0.00000001
 40
0.0
 40
0.0
 40
0.0
 40
0.0
 40
0.4999999999999998
 40
0.4999999999999998
 40
1.0
 40
1.0
 40
1.0
 40
1.0
 10
89.8080820703207
 20
174.6071666482744
 30
0.0
 10
89.84645845715923
 20
174.5795627256821
 30
0.0
 10
89.87763172573936
 20
174.5435206008462
 30
0.0
 10
89.92122182936052
 20
174.4591599133124
 30
0.0
 10
89.93343775197242
 20
174.4102441299034
 30
0.0
 10
89.93288549083866
 20
174.3603073363748
 30
0.0
  0
LINE
  5
244
330
1F
100
AcDbEntity
  8
0
  6
Continuous
 62
     7
370
    25
100
AcDbLine
 10
89.8080820703
 20
174.6071666483
 30
0.0
 11
89.4561529219
 21
174.8603073364
 31
0.0
  0
LINE
  5
245
330
1F
100
AcDbEntity
  8
0
  6
Continuous
 62
     7
370
    25
100
AcDbLine
 10
88.0310839586
 20
174.3603073364
 30
0.0
 11
85.97969709
 21
174.3603073364
 31
0.0
  0
SPLINE
  5
246
330
1F
100
AcDbEntity
  8
0
  6
Continuous
 62
     7
370
    25
100
AcDbSpline
210
0.0
220
0.0
230
1.0
 70
     8
 71
     3
 72
    10
 73
     6
 74
     0
 42
0.000000001
 43
0.00000001
 40
0.0
 40
0.0
 40
0.0
 40
0.0
 40
0.5
 40
0.5
 40
1.0
 40
1.0
 40
1.0
 40
1.0
 10
88.06627359024293
 20
174.8603073363748
 30
0.0
 10
88.06627359024293
 20
174.8603073363748
 30
0.0
 10
88.06052172461233
 20
174.8060117919053
 30
0.0
 10
88.04530554087948
 20
174.6217247620681
 30
0.0
 10
88.03649577095851
 20
174.4923993657513
 30
0.0
 10
88.0310839586348
 20
174.3603073363748
 30
0.0
  0
LINE
  5
247
330
1F
100
AcDbEntity
  8
0
  6
Continuous
 62
     7
370
    25
100
AcDbLine
 10
93.6329929331
 20
163.826449306
 30
0.0
 11
94.2669063375
 21
165.7774341548
 31
0.0
  0
SPLINE
  5
248
330
1F
100
AcDbEntity
  8
0
  6
Continuous
 62
     7
370
    25
100
AcDbSpline
210
0.0
220
0.0
230
1.0
 70
     8
 71
     3
 72
    10
 73
     6
 74
     0
 42
0.000000001
 43
0.00000001
 40
0.0
 40
0.0
 40
0.0
 40
0.0
 40
0.5
 40
0.5
 40
1.0
 40
1.0
 40
1.0
 40
1.0
 10
94.26690633751225
 20
165.7774341548183
 30
0.0
 10
94.39421189274977
 20
165.7417606670969
 30
0.0
 10
94.51960891928822
 20
165.7102543150704
 30
0.0
 10
94.6997287467812
 20
165.6677369701796
 30
0.0
 10
94.75330878985254
 20
165.6563929860778
 30
0.0
 10
94.75330878985254
 20
165.6563929860778
 30
0.0
  0
LINE
  5
249
330
1F
100
AcDbEntity
  8
0
  6
Continuous
 62
     7
370
    25
100
AcDbLine
 10
96.0482060039
 20
171.2597108128
 30
0.0
 11
95.9790992762
 21
171.7549120448
 31
0.0
  0
SPLINE
  5
24A
330
1F
100
AcDbEntity
  8
0
  6
Continuous
 62
     7
370
    25
100
AcDbSpline
210
0.0
220
0.0
230
1.0
 70
     8
 71
     3
 72
     8
 73
     4
 74
     0
 42
0.000000001
 43
0.00000001
 40
0.0
 40
0.0
 40
0.0
 40
0.0
 40
1.0
 40
1.0
 40
1.0
 40
1.0
 10
95.97909927621832
 20
171.7549120448199
 30
0.0
 10
96.02613195888071
 20
171.7614755882488
 30
0.0
 10
96.06814978550642
 20
171.7785666633974
 30
0.0
 10
96.10366083554496
 20
171.8021618143343
 30
0.0
  0
SPLINE
  5
24B
330
1F
100
AcDbEntity
  8
0
  6
Continuous
 62
     7
370
    25
100
AcDbSpline
210
0.0
220
0.0
230
1.0
 70
     8
 71
     3
 72
     8
 73
     4
 74
     0
 42
0.000000001
 43
0.00000001
 40
0.0
 40
0.0
 40
0.0
 40
0.0
 40
1.0
 40
1.0
 40
1.0
 40
1.0
 10
94.32852881250814
 20
174.2454214372918
 30
0.0
 10
94.29509660772621
 20
174.218925169604
 30
0.0
 10
94.26597735711647
 20
174.1844678014878
 30
0.0
 10
94.24509997263989
 20
174.1415573363748
 30
0.0
  0
LINE
  5
24C
330
1F
100
AcDbEntity
  8
0
  6
Continuous
 62
     7
370
    25
100
AcDbLine
 10
94.2450999726
 20
174.1415573364
 30
0.0
 11
93.7954907673
 21
174.3603073364
 31
0.0
  0
ARC
  5
24D
330
1F
100
AcDbEntity
  8
0
  6
Continuous
 62
     7
370
    25
100
AcDbCircle
 10
96.5739172123
 20
174.0103073364
 30
0.0
 40
10.6
100
AcDbArc
 50
178.1078142928
 51
253.8921857072
  0
ARC
  5
24E
330
1F
100
AcDbEntity
  8
0
  6
Continuous
 62
     7
370
    25
100
AcDbCircle
 10
96.5739172123
 20
174.0103073364
 30
0.0
 40
11.1
100
AcDbArc
 50
178.1078142928
 51
253.8921857072
  0
ARC
  5
24F
330
1F
100
AcDbEntity
  8
0
  6
Continuous
 62
     7
370
    25
100
AcDbCircle
 10
94.0930011547
 20
167.5181924641
 30
0.0
 40
0.3000000000000151
100
AcDbArc
 50
69.0859950107
 51
126.2727445779
  0
LINE
  5
250
330
1F
100
AcDbEntity
  8
0
  6
Continuous
 62
     7
370
    25
100
AcDbLine
 10
93.9155122344
 20
167.760055407
 30
0.0
 11
92.7069224532
 21
166.8731427916
 31
0.0
  0
ARC
  5
251
330
1F
100
AcDbEntity
  8
0
  6
Continuous
 62
     7
370
    25
100
AcDbCircle
 10
92.8844113735
 20
166.6312798486
 30
0.0
 40
0.3000000000000212
100
AcDbArc
 50
126.2727445779
 51
243.4349979273
  0
ARC
  5
252
330
1F
100
AcDbEntity
  8
0
  6
Continuous
 62
     7
370
    25
100
AcDbCircle
 10
88.4159250311
 20
172.7816236622
 30
0.0
 40
0.3000000000000117
100
AcDbArc
 50
188.5650020727
 51
305.7272554221
  0
LINE
  5
253
330
1F
100
AcDbEntity
  8
0
  6
Continuous
 62
     7
370
    25
100
AcDbLine
 10
88.5911032664
 20
172.5380819083
 30
0.0
 11
89.8080820703
 21
173.4134480245
 31
0.0
  0
ARC
  5
254
330
1F
100
AcDbEntity
  8
0
  6
Continuous
 62
     7
370
    25
100
AcDbCircle
 10
89.6329038351
 20
173.6569897784
 30
0.0
 40
0.2999999999999979
100
AcDbArc
 50
305.7272554221
 51
2.9140049893
  0
ARC
  5
255
330
1F
100
AcDbEntity
  8
0
  6
Continuous
 62
     7
370
    25
100
AcDbCircle
 10
96.5739172123
 20
174.0103073364
 30
0.0
 40
6.650000000000007
100
AcDbArc
 50
177.0859950107
 51
182.9140049893
  0
ARC
  5
256
330
1F
100
AcDbEntity
  8
0
  6
Continuous
 62
     7
370
    25
100
AcDbCircle
 10
94.5148654958
 20
174.0103073364
 30
0.0
 40
0.8000000000000015
100
AcDbArc
 50
154.0555202276
 51
231.6018644659
  0
ARC
  5
257
330
1F
100
AcDbEntity
  8
0
  6
Continuous
 62
     7
370
    25
100
AcDbCircle
 10
91.7198152461
 20
170.4835958226
 30
0.0
 40
3.700000000000005
100
AcDbArc
 50
20.3981355341
 51
51.6018644659
  0
ARC
  5
258
330
1F
100
AcDbEntity
  8
0
  6
Continuous
 62
     7
370
    25
100
AcDbCircle
 10
95.9376352396
 20
172.052032784
 30
0.0
 40
0.8000000000000043
100
AcDbArc
 50
200.3981355341
 51
277.9444797724
  0
ARC
  5
259
330
1F
100
AcDbEntity
  8
0
  6
Continuous
 62
     7
370
    25
100
AcDbCircle
 10
96.5739172123
 20
174.0103073364
 30
0.0
 40
6.649999999999991
100
AcDbArc
 50
249.0859950107
 51
254.9140049893
  0
CIRCLE
  5
25A
330
1F
100
AcDbEntity
  8
0
  6
Continuous
 62
     7
370
    25
100
AcDbCircle
 10
91.7198152461
 20
170.4835958226
 30
0.0
 40
2.100000000000023
  0
ARC
  5
25B
330
1F
100
AcDbEntity
  8
0
  6
Continuous
 62
     7
370
    25
100
AcDbCircle
 10
94.7650510864
 20
167.2998302044
 30
0.0
 40
0.3000000000000155
100
AcDbArc
 50
72.6336198222
 51
74.9140049893
  0
ARC
  5
25C
330
1F
100
AcDbEntity
  8
0
  6
Continuous
 62
     7
370
    25
100
AcDbCircle
 10
89.6329038351
 20
174.3636248944
 30
0.0
 40
0.3000000000000093
100
AcDbArc
 50
357.0859950107
 51
359.3663801778
  0
ARC
  5
25D
330
1F
100
AcDbEntity
  8
0
  6
Continuous
 62
     7
370
    25
100
AcDbCircle
 10
96.5739172123
 20
174.0103073364
 30
0.0
 40
8.550000000000002
100
AcDbArc
 50
177.6539031848
 51
188.5650020727
  0
ARC
  5
25E
330
1F
100
AcDbEntity
  8
0
  6
Continuous
 62
     7
370
    25
100
AcDbCircle
 10
96.5739172123
 20
174.0103073364
 30
0.0
 40
8.549999999999981
100
AcDbArc
 50
243.4349979273
 51
254.3460968152
  0
CIRCLE
  5
25F
330
1F
100
AcDbEntity
  8
0
  6
Continuous
 62
     7
370
    25
100
AcDbCircle
 10
91.7198152461
 20
170.4835958226
 30
0.0
 40
1.599999999999994
  0
ARC
  5
260
330
1F
100
AcDbEntity
  8
0
  6
Continuous
 62
     7
370
    25
100
AcDbCircle
 10
94.5148654958
 20
174.0103073364
 30
0.0
 40
0.3000000000000192
100
AcDbArc
 50
154.0555202276
 51
231.6018644659
  0
LINE
  5
261
330
1F
100
AcDbEntity
  8
0
  6
Continuous
 62
     7
370
    25
100
AcDbLine
 10
94.0179676736
 20
173.3833364006
 30
0.0
 11
94.3285288125
 21
173.7751932355
 31
0.0
  0
ARC
  5
262
330
1F
100
AcDbEntity
  8
0
  6
Continuous
 62
     7
370
    25
100
AcDbCircle
 10
91.7198152461
 20
170.4835958226
 30
0.0
 40
4.200000000000013
100
AcDbArc
 50
20.3981355341
 51
51.6018644659
  0
LINE
  5
263
330
1F
100
AcDbEntity
  8
0
  6
Continuous
 62
     7
370
    25
100
AcDbLine
 10
95.1878005741
 20
171.7731995464
 30
0.0
 11
95.65644724
 21
171.9474703199
 31
0.0
  0
ARC
  5
264
330
1F
100
AcDbEntity
  8
0
  6
Continuous
 62
     7
370
    25
100
AcDbCircle
 10
95.9376352396
 20
172.052032784
 30
0.0
 40
0.2999999999999949
100
AcDbArc
 50
200.3981355341
 51
277.9444797724
  0
ARC
  5
265
330
1F
100
AcDbEntity
  8
0
  6
Continuous
 62
     7
370
    25
100
AcDbCircle
 10
96.5739172123
 20
174.0103073364
 30
0.0
 40
13.0
100
AcDbArc
 50
225.6184982756
 51
254.3815017244
  0
ARC
  5
266
330
1F
100
AcDbEntity
  8
0
  6
Continuous
 62
     7
370
    25
100
AcDbCircle
 10
96.5739172123
 20
174.0103073364
 30
0.0
 40
13.00000000000001
100
AcDbArc
 50
165.6184982756
 51
194.3815017244
  0
ARC
  5
267
330
1F
100
AcDbEntity
  8
0
  6
Continuous
 62
     7
370
    25
100
AcDbCircle
 10
96.5739172123
 20
174.0103073364
 30
0.0
 40
13.00000000000003
100
AcDbArc
 50
105.6687768253
 51
134.3815017244
  0
ARC
  5
268
330
1F
100
AcDbEntity
  8
0
  6
Continuous
 62
     7
370
    25
100
AcDbCircle
 10
96.5739172123
 20
174.0103073364
 30
0.0
 40
13.00000000000003
100
AcDbArc
 50
45.6184982756
 51
74.3436289061
  0
ARC
  5
269
330
1F
100
AcDbEntity
  8
0
  6
Continuous
 62
     7
370
    25
100
AcDbCircle
 10
96.5739172123
 20
174.0103073364
 30
0.0
 40
13.0
100
AcDbArc
 50
345.6184982756
 51
14.3815017244
  0
ARC
  5
26A
330
1F
100
AcDbEntity
  8
0
  6
Continuous
 62
     7
370
    25
100
AcDbCircle
 10
96.5739172123
 20
174.0103073364
 30
0.0
 40
12.99999999999999
100
AcDbArc
 50
285.6184982756
 51
314.3815017244
  0
ARC
  5
26B
330
1F
100
AcDbEntity
  8
0
  6
Continuous
 62
     7
370
    25
100
AcDbCircle
 10
96.5739172123
 20
174.0103073364
 30
0.0
 40
8.050000000000033
100
AcDbArc
 50
97.7775443609
 51
118.2224556391
  0
ARC
  5
26C
330
1F
100
AcDbEntity
  8
0
  6
Continuous
 62
     7
370
    25
100
AcDbCircle
 10
96.5739172123
 20
174.0103073364
 30
0.0
 40
8.050000000000013
100
AcDbArc
 50
169.7775443609
 51
190.2224556391
  0
ARC
  5
26D
330
1F
100
AcDbEntity
  8
0
  6
Continuous
 62
     7
370
    25
100
AcDbCircle
 10
96.5739172123
 20
174.0103073364
 30
0.0
 40
8.05000000000001
100
AcDbArc
 50
25.7775443609
 51
46.2224556391
  0
ARC
  5
26E
330
1F
100
AcDbEntity
  8
0
  6
Continuous
 62
     7
370
    25
100
AcDbCircle
 10
96.5739172123
 20
174.0103073364
 30
0.0
 40
8.049999999999976
100
AcDbArc
 50
241.7775443609
 51
262.2224556391
  0
ARC
  5
26F
330
1F
100
AcDbEntity
  8
0
  6
Continuous
 62
     7
370
    25
100
AcDbCircle
 10
96.5739172123
 20
174.0103073364
 30
0.0
 40
8.049999999999995
100
AcDbArc
 50
313.7775443609
 51
334.2224556391
  0
ARC
  5
270
330
1F
100
AcDbEntity
  8
0
  6
Continuous
 62
     7
370
    25
100
AcDbCircle
 10
98.4280191786
 20
179.7166464341
 30
0.0
 40
1.572760010982512
100
AcDbArc
 50
37.182166969
 51
187.7143947247
  0
ARC
  5
271
330
1F
100
AcDbEntity
  8
0
  6
Continuous
 62
     7
370
    25
100
AcDbCircle
 10
98.4280191786
 20
179.7166464341
 30
0.0
 40
1.572760010982517
100
AcDbArc
 50
217.182166969
 51
7.7143947247
  0
ARC
  5
272
330
1F
100
AcDbEntity
  8
0
  6
Continuous
 62
     7
370
    25
100
AcDbCircle
 10
98.4280191786
 20
179.7166464341
 30
0.0
 40
1.550000000000024
100
AcDbArc
 50
37.4035291635
 51
187.4930325302
  0
ARC
  5
273
330
1F
100
AcDbEntity
  8
0
  6
Continuous
 62
     7
370
    25
100
AcDbCircle
 10
98.4280191786
 20
179.7166464341
 30
0.0
 40
1.550000000000024
100
AcDbArc
 50
217.4035291635
 51
7.4930325302
  0
ARC
  5
274
330
1F
100
AcDbEntity
  8
0
  6
Continuous
 62
     7
370
    25
100
AcDbCircle
 10
98.4280191786
 20
179.7166464341
 30
0.0
 40
1.550000000000024
100
AcDbArc
 50
187.4930325302
 51
217.4035291635
  0
ARC
  5
275
330
1F
100
AcDbEntity
  8
0
  6
Continuous
 62
     7
370
    25
100
AcDbCircle
 10
98.4280191786
 20
179.7166464341
 30
0.0
 40
1.550000000000024
100
AcDbArc
 50
7.4930325302
 51
37.4035291635
  0
ARC
  5
276
330
1F
100
AcDbEntity
  8
0
  6
Continuous
 62
     7
370
    25
100
AcDbCircle
 10
102.5739172123
 20
174.0103073364
 30
0.0
 40
1.572760010982495
100
AcDbArc
 50
37.182166969
 51
187.7143947247
  0
ARC
  5
277
330
1F
100
AcDbEntity
  8
0
  6
Continuous
 62
     7
370
    25
100
AcDbCircle
 10
102.5739172123
 20
174.0103073364
 30
0.0
 40
1.5727600109825
100
AcDbArc
 50
217.182166969
 51
7.7143947247
  0
ARC
  5
278
330
1F
100
AcDbEntity
  8
0
  6
Continuous
 62
     7
370
    25
100
AcDbCircle
 10
102.5739172123
 20
174.0103073364
 30
0.0
 40
1.550000000000024
100
AcDbArc
 50
37.4035291635
 51
187.4930325302
  0
ARC
  5
279
330
1F
100
AcDbEntity
  8
0
  6
Continuous
 62
     7
370
    25
100
AcDbCircle
 10
102.5739172123
 20
174.0103073364
 30
0.0
 40
1.550000000000001
100
AcDbArc
 50
217.4035291635
 51
7.4930325302
  0
ARC
  5
27A
330
1F
100
AcDbEntity
  8
0
  6
Continuous
 62
     7
370
    25
100
AcDbCircle
 10
102.5739172123
 20
174.0103073364
 30
0.0
 40
1.550000000000009
100
AcDbArc
 50
187.4930325302
 51
217.4035291635
  0
ARC
  5
27B
330
1F
100
AcDbEntity
  8
0
  6
Continuous
 62
     7
370
    25
100
AcDbCircle
 10
102.5739172123
 20
174.0103073364
 30
0.0
 40
1.550000000000024
100
AcDbArc
 50
7.4930325302
 51
37.4035291635
  0
ARC
  5
27C
330
1F
100
AcDbEntity
  8
0
  6
Continuous
 62
     7
370
    25
100
AcDbCircle
 10
91.7198152461
 20
170.4835958226
 30
0.0
 40
1.572760010982508
100
AcDbArc
 50
37.182166969
 51
187.7143947247
  0
ARC
  5
27D
330
1F
100
AcDbEntity
  8
0
  6
Continuous
 62
     7
370
    25
100
AcDbCircle
 10
91.7198152461
 20
170.4835958226
 30
0.0
 40
1.572760010982512
100
AcDbArc
 50
217.182166969
 51
7.7143947247
  0
ARC
  5
27E
330
1F
100
AcDbEntity
  8
0
  6
Continuous
 62
     7
370
    25
100
AcDbCircle
 10
91.7198152461
 20
170.4835958226
 30
0.0
 40
1.550000000000023
100
AcDbArc
 50
37.4035291635
 51
187.4930325302
  0
ARC
  5
27F
330
1F
100
AcDbEntity
  8
0
  6
Continuous
 62
     7
370
    25
100
AcDbCircle
 10
91.7198152461
 20
170.4835958226
 30
0.0
 40
1.550000000000029
100
AcDbArc
 50
217.4035291635
 51
7.4930325302
  0
ARC
  5
280
330
1F
100
AcDbEntity
  8
0
  6
Continuous
 62
     7
370
    25
100
AcDbCircle
 10
91.7198152461
 20
170.4835958226
 30
0.0
 40
1.550000000000029
100
AcDbArc
 50
187.4930325302
 51
217.4035291635
  0
ARC
  5
281
330
1F
100
AcDbEntity
  8
0
  6
Continuous
 62
     7
370
    25
100
AcDbCircle
 10
91.7198152461
 20
170.4835958226
 30
0.0
 40
1.550000000000013
100
AcDbArc
 50
7.4930325302
 51
37.4035291635
  0
CIRCLE
  5
282
330
1F
100
AcDbEntity
  8
0
  6
Continuous
 62
     7
370
    25
100
AcDbCircle
 10
91.7198152461
 20
177.5370188501
 30
0.0
 40
1.149999999999985
  0
CIRCLE
  5
283
330
1F
100
AcDbEntity
  8
0
  6
Continuous
 62
     7
370
    25
100
AcDbCircle
 10
98.4280191786
 20
168.3039682386
 30
0.0
 40
1.150000000000014
  0
ARC
  5
284
330
1F
100
AcDbEntity
  8
0
  6
Continuous
 62
     7
370
    25
100
AcDbCircle
 10
96.5739172123
 20
174.0103073364
 30
0.0
 40
7.250000000000005
100
AcDbArc
 50
172.8341098614
 51
187.1658901386
  0
ARC
  5
285
330
1F
100
AcDbEntity
  8
0
  6
Continuous
 62
     7
370
    25
100
AcDbCircle
 10
96.5739172123
 20
174.0103073364
 30
0.0
 40
7.250000000000018
100
AcDbArc
 50
100.8341098614
 51
115.1658901386
  0
ARC
  5
286
330
1F
100
AcDbEntity
  8
0
  6
Continuous
 62
     7
370
    25
100
AcDbCircle
 10
96.5739172123
 20
174.0103073364
 30
0.0
 40
7.250000000000026
100
AcDbArc
 50
28.8341098614
 51
43.1658901386
  0
ARC
  5
287
330
1F
100
AcDbEntity
  8
0
  6
Continuous
 62
     7
370
    25
100
AcDbCircle
 10
96.5739172123
 20
174.0103073364
 30
0.0
 40
7.250000000000004
100
AcDbArc
 50
316.8341098614
 51
331.1658901386
  0
ARC
  5
288
330
1F
100
AcDbEntity
  8
0
  6
Continuous
 62
     7
370
    25
100
AcDbCircle
 10
96.5739172123
 20
174.0103073364
 30
0.0
 40
7.249999999999992
100
AcDbArc
 50
244.8341098614
 51
259.1658901386
  0
ARC
  5
289
330
1F
100
AcDbEntity
  8
0
  6
Continuous
 62
     7
370
    25
100
AcDbCircle
 10
96.5739172123
 20
174.0103073364
 30
0.0
 40
17.10000000000002
100
AcDbArc
 50
124.3185290096
 51
171.1939822069
  0
SPLINE
  5
28A
330
1F
100
AcDbEntity
  8
0
  6
Continuous
 62
     7
370
    25
100
AcDbSpline
210
0.0
220
0.0
230
1.0
 70
     8
 71
     3
 72
    17
 73
    13
 74
     0
 42
0.000000001
 43
0.00000001
 40
0.0
 40
0.0
 40
0.0
 40
0.0
 40
0.0034208775324163
 40
0.1420765190209217
 40
0.2816998574680917
 40
0.4522045028882993
 40
0.5384946483043855
 40
0.6251544116114105
 40
0.7352710657996272
 40
0.847109638186104
 40
0.922521141299265
 40
1.0
 40
1.0
 40
1.0
 40
1.0
 10
78.47564381399353
 20
174.2603073363748
 30
0.0
 10
78.47720721690321
 20
174.2632652646652
 30
0.0
 10
78.5421387559985
 20
174.3861144900588
 30
0.0
 10
78.67239366828521
 20
174.6290218133977
 30
0.0
 10
78.88133173208479
 20
175.0115350389952
 30
0.0
 10
79.06450028193505
 20
175.3435945888551
 30
0.0
 10
79.21824235085089
 20
175.6246518658329
 30
0.0
 10
79.34053045346374
 20
175.8517567011754
 30
0.0
 10
79.46592286243929
 20
176.0923828025022
 30
0.0
 10
79.57031379527966
 20
176.3118574332779
 30
0.0
 10
79.64485375931416
 20
176.4941076900422
 30
0.0
 10
79.66518411738568
 20
176.5830616227532
 30
0.0
 10
79.67548674811839
 20
176.6281399985358
 30
0.0
  0
ARC
  5
28B
330
1F
100
AcDbEntity
  8
0
  6
Continuous
 62
     7
370
    25
100
AcDbCircle
 10
96.5739172123
 20
174.0103073364
 30
0.0
 40
18.10000000000001
100
AcDbArc
 50
120.7914033348
 51
179.2085966652
  0
SPLINE
  5
28C
330
1F
100
AcDbEntity
  8
0
  6
Continuous
 62
     7
370
    25
100
AcDbSpline
210
0.0
220
0.0
230
1.0
 70
     8
 71
     3
 72
    14
 73
    10
 74
     0
 42
0.000000001
 43
0.00000001
 40
0.0
 40
0.0
 40
0.0
 40
0.0
 40
0.1037213031295042
 40
0.1430628300649135
 40
0.3361593077118403
 40
0.4835612479613079
 40
0.6342803020567663
 40
0.9962019265538311
 40
1.0
 40
1.0
 40
1.0
 40
1.0
 10
86.90631234835062
 20
188.1844604954908
 30
0.0
 10
86.90083682776334
 20
188.2073055953271
 30
0.0
 10
86.89328444028207
 20
188.2388158496054
 30
0.0
 10
86.90637123190716
 20
188.3558882558355
 30
0.0
 10
86.94766595346
 20
188.5231944610483
 30
0.0
 10
87.02185895809268
 20
188.7605519339482
 30
0.0
 10
87.13563949039914
 20
189.0937684810638
 30
0.0
 10
87.2362606032912
 20
189.3657351016855
 30
0.0
 10
87.30753397375437
 20
189.5568867155599
 30
0.0
 10
87.30827416220279
 20
189.558871863948
 30
0.0
  0
SPLINE
  5
28D
330
1F
100
AcDbEntity
  8
0
  6
Continuous
 62
     7
370
    25
100
AcDbSpline
210
0.0
220
0.0
230
1.0
 70
     8
 71
     3
 72
     9
 73
     5
 74
     0
 42
0.000000001
 43
0.00000001
 40
0.0
 40
0.0
 40
0.0
 40
0.0
 40
0.4926539090367923
 40
1.0
 40
1.0
 40
1.0
 40
1.0
 10
86.93305395005166
 20
188.1334711306012
 30
0.0
 10
86.93194852710556
 20
188.1355812432366
 30
0.0
 10
86.92970471471348
 20
188.1398643973872
 30
0.0
 10
86.91418580601487
 20
188.1694502359487
 30
0.0
 10
86.90631234835062
 20
188.1844604954908
 30
0.0
  0
ARC
  5
28E
330
1F
100
AcDbEntity
  8
0
  6
Continuous
 62
     7
370
    25
100
AcDbCircle
 10
80.1598073686
 20
176.5799512798
 30
0.0
 40
0.486712046369694
100
AcDbArc
 50
174.3179110937
 51
271.1520313659
  0
SPLINE
  5
28F
330
1F
100
AcDbEntity
  8
0
  6
Continuous
 62
     7
370
    25
100
AcDbSpline
210
0.0
220
0.0
230
1.0
 70
     8
 71
     3
 72
    13
 73
     9
 74
     0
 42
0.000000001
 43
0.00000001
 40
0.0
 40
0.0
 40
0.0
 40
0.0
 40
0.136519934280924
 40
0.1599573409829852
 40
0.3816083205334296
 40
0.7204709236186219
 40
0.9969234521643092
 40
1.0
 40
1.0
 40
1.0
 40
1.0
 10
80.16959290204196
 20
176.0933376143571
 30
0.0
 10
80.14598903372959
 20
176.0341746674499
 30
0.0
 10
80.11833291133217
 20
175.9648547712615
 30
0.0
 10
79.9710683181699
 20
175.7659243638544
 30
0.0
 10
79.65463503810233
 20
175.422160423314
 30
0.0
 10
79.09541405730931
 20
174.8782806671469
 30
0.0
 10
78.66821135916659
 20
174.4556497369658
 30
0.0
 10
78.47774017448164
 20
174.2624339049504
 30
0.0
 10
78.47564381399353
 20
174.2603073363748
 30
0.0
  0
SPLINE
  5
290
330
1F
100
AcDbEntity
  8
0
  6
Continuous
 62
     7
370
    25
100
AcDbSpline
210
0.0
220
0.0
230
1.0
 70
     8
 71
     3
 72
    16
 73
    12
 74
     0
 42
0.000000001
 43
0.00000001
 40
0.0
 40
0.0
 40
0.0
 40
0.0
 40
0.075167178241365
 40
0.1529077064653829
 40
0.2628318427957756
 40
0.3748845027374221
 40
0.5452440324772257
 40
0.7182748987831857
 40
0.8569438380498611
 40
0.9965788158745494
 40
1.0
 40
1.0
 40
1.0
 40
1.0
 10
79.67548674811839
 20
171.3924746742138
 30
0.0
 10
79.6655848241916
 20
171.4361314390947
 30
0.0
 10
79.64544198375694
 20
171.524939559152
 30
0.0
 10
79.5716670316044
 20
171.7057270585072
 30
0.0
 10
79.46668871264413
 20
171.9267451510999
 30
0.0
 10
79.30738841331176
 20
172.2325113502865
 30
0.0
 10
79.10559319598724
 20
172.6025198448182
 30
0.0
 10
78.88295963728412
 20
173.006111088102
 30
0.0
 10
78.67284348581927
 20
173.3907646698165
 30
0.0
 10
78.542580621291
 20
173.6336641869981
 30
0.0
 10
78.47720721713175
 20
173.7573494077677
 30
0.0
 10
78.47564381399353
 20
173.7603073363748
 30
0.0
  0
SPLINE
  5
291
330
1F
100
AcDbEntity
  8
0
  6
Continuous
 62
     7
370
    25
100
AcDbSpline
210
0.0
220
0.0
230
1.0
 70
     8
 71
     3
 72
    13
 73
     9
 74
     0
 42
0.000000001
 43
0.00000001
 40
0.0
 40
0.0
 40
0.0
 40
0.0
 40
0.0030765478356902
 40
0.2795290763813776
 40
0.6183916794665703
 40
0.8400426590170158
 40
0.8634800657190757
 40
1.0
 40
1.0
 40
1.0
 40
1.0
 10
78.47564381399353
 20
173.7603073363748
 30
0.0
 10
78.47774017448164
 20
173.7581807677991
 30
0.0
 10
78.66821135916656
 20
173.5649649357839
 30
0.0
 10
79.09541405730933
 20
173.1423340056025
 30
0.0
 10
79.65463503810231
 20
172.5984542494356
 30
0.0
 10
79.9710683181699
 20
172.2546903088952
 30
0.0
 10
80.11833291133217
 20
172.055759901488
 30
0.0
 10
80.14598903372959
 20
171.9864400052997
 30
0.0
 10
80.16959290204196
 20
171.9272770583924
 30
0.0
  0
ARC
  5
292
330
1F
100
AcDbEntity
  8
0
  6
Continuous
 62
     7
370
    25
100
AcDbCircle
 10
80.1598073686
 20
171.4406633929
 30
0.0
 40
0.4867120463696567
100
AcDbArc
 50
88.8479686341
 51
185.6820889063
  0
ARC
  5
293
330
1F
100
AcDbEntity
  8
0
  6
Continuous
 62
     7
370
    25
100
AcDbCircle
 10
96.5739172123
 20
174.0103073364
 30
0.0
 40
17.1
100
AcDbArc
 50
188.8060177931
 51
295.6814709904
  0
LINE
  5
294
330
1F
100
AcDbEntity
  8
0
  6
Continuous
 62
     7
370
    25
100
AcDbLine
 10
104.0152914933
 20
158.5508393509
 30
0.0
 11
103.9845042088
 21
158.5994929397
 31
0.0
  0
SPLINE
  5
295
330
1F
100
AcDbEntity
  8
0
  6
Continuous
 62
     7
370
    25
100
AcDbSpline
210
0.0
220
0.0
230
1.0
 70
     8
 71
     3
 72
    16
 73
    12
 74
     0
 42
0.000000001
 43
0.00000001
 40
0.0
 40
0.0
 40
0.0
 40
0.0
 40
0.0037928329605743
 40
0.1835104168920487
 40
0.3658879114467114
 40
0.513365415168747
 40
0.6635948843111458
 40
0.7590761324642213
 40
0.8571345644063398
 40
0.8964218088988244
 40
1.0
 40
1.0
 40
1.0
 40
1.0
 10
105.4065475605135
 20
158.2117428088017
 30
0.0
 10
105.4044582396798
 20
158.2120943642083
 30
0.0
 10
105.3033696493839
 20
158.2291038344122
 30
0.0
 10
105.1017193046337
 20
158.2633438672246
 30
0.0
 10
104.8253362200111
 20
158.3129626099916
 30
0.0
 10
104.5736226718595
 20
158.3625113226213
 30
0.0
 10
104.3785580177923
 20
158.4062229965505
 30
0.0
 10
104.2237602155061
 20
158.4477663173524
 30
0.0
 10
104.1333332714329
 20
158.4785002099938
 30
0.0
 10
104.0558400066352
 20
158.512380263862
 30
0.0
 10
104.032333693631
 20
158.5346753188954
 30
0.0
 10
104.0152914932534
 20
158.550839350883
 30
0.0
  0
ARC
  5
296
330
1F
100
AcDbEntity
  8
0
  6
Continuous
 62
     7
370
    25
100
AcDbCircle
 10
96.5739172123
 20
174.0103073364
 30
0.0
 40
18.1
100
AcDbArc
 50
180.7914033348
 51
299.2085966652
  0
ARC
  5
297
330
1F
100
AcDbEntity
  8
0
  6
Continuous
 62
     7
370
    25
100
AcDbCircle
 10
96.5739172123
 20
174.0103073364
 30
0.0
 40
17.10000000000002
100
AcDbArc
 50
64.3185290096
 51
115.6814709904
  0
SPLINE
  5
298
330
1F
100
AcDbEntity
  8
0
  6
Continuous
 62
     7
370
    25
100
AcDbSpline
210
0.0
220
0.0
230
1.0
 70
     8
 71
     3
 72
     9
 73
     5
 74
     0
 42
0.000000001
 43
0.00000001
 40
0.0
 40
0.0
 40
0.0
 40
0.0
 40
0.4926603167670218
 40
1.0
 40
1.0
 40
1.0
 40
1.0
 10
89.13254293135512
 20
189.4697753218666
 30
0.0
 10
89.14137825297495
 20
189.455810609217
 30
0.0
 10
89.15931215452765
 20
189.4274650896482
 30
0.0
 10
89.161977818637
 20
189.4232567770111
 30
0.0
 10
89.16333021582182
 20
189.4211217330109
 30
0.0
  0
SPLINE
  5
299
330
1F
100
AcDbEntity
  8
0
  6
Continuous
 62
     7
370
    25
100
AcDbSpline
210
0.0
220
0.0
230
1.0
 70
     8
 71
     3
 72
    17
 73
    13
 74
     0
 42
0.000000001
 43
0.00000001
 40
0.0
 40
0.0
 40
0.0
 40
0.0
 40
0.0037912157672773
 40
0.1834321714698838
 40
0.3657319036593553
 40
0.5131465257219553
 40
0.6633119398181463
 40
0.7587524765462424
 40
0.8567690982002384
 40
0.896039591343762
 40
0.9472099879269804
 40
1.0
 40
1.0
 40
1.0
 40
1.0
 10
87.74128686409502
 20
189.808871863948
 30
0.0
 10
87.7433761851254
 20
189.8085203085555
 30
0.0
 10
87.84446478493828
 20
189.7915108390363
 30
0.0
 10
88.04611239443194
 20
189.7572706093737
 30
0.0
 10
88.32250712649082
 20
189.7076527048473
 30
0.0
 10
88.57418537298373
 20
189.6581014516341
 30
0.0
 10
88.7693620000056
 20
189.6143978361546
 30
0.0
 10
88.92387900208426
 20
189.5728343067732
 30
0.0
 10
89.01507021756105
 20
189.5421554170805
 30
0.0
 10
89.07428034219257
 20
189.5155390269584
 30
0.0
 10
89.11152102150552
 20
189.4943774431581
 30
0.0
 10
89.12546322547877
 20
189.4780607623392
 30
0.0
 10
89.13254293135512
 20
189.4697753218666
 30
0.0
  0
ARC
  5
29A
330
1F
100
AcDbEntity
  8
0
  6
Continuous
 62
     7
370
    25
100
AcDbCircle
 10
96.5739172123
 20
174.0103073364
 30
0.0
 40
18.10000000000002
100
AcDbArc
 50
60.7914033348
 51
119.2085966652
  0
SPLINE
  5
29B
330
1F
100
AcDbEntity
  8
0
  6
Continuous
 62
     7
370
    25
100
AcDbSpline
210
0.0
220
0.0
230
1.0
 70
     8
 71
     3
 72
    17
 73
    13
 74
     0
 42
0.000000001
 43
0.00000001
 40
0.0
 40
0.0
 40
0.0
 40
0.0
 40
0.0510743814713031
 40
0.1039609715388176
 40
0.1432310987550512
 40
0.238344472667069
 40
0.336691089871546
 40
0.4838255149033819
 40
0.6342710336539963
 40
0.8138444216180721
 40
0.9962088195597387
 40
1.0
 40
1.0
 40
1.0
 40
1.0
 10
104.0152914932534
 20
189.4697753218666
 30
0.0
 10
104.0220906704539
 20
189.4777929818245
 30
0.0
 10
104.0359302715821
 20
189.4941127823721
 30
0.0
 10
104.0730132064629
 20
189.5152972806946
 30
0.0
 10
104.1318523879553
 20
189.5417454502944
 30
0.0
 10
104.222673760055
 20
189.5724668534219
 30
0.0
 10
104.3756794127501
 20
189.6137101050313
 30
0.0
 10
104.5720576877655
 20
189.6577778719837
 30
0.0
 10
104.8222629752333
 20
189.7070769388374
 30
0.0
 10
105.1002070064301
 20
189.7570116800145
 30
0.0
 10
105.3018678682251
 20
189.7912581443357
 30
0.0
 10
105.4044582403042
 20
189.8085203086506
 30
0.0
 10
105.4065475605135
 20
189.8088718639479
 30
0.0
  0
SPLINE
  5
29C
330
1F
100
AcDbEntity
  8
0
  6
Continuous
 62
     7
370
    25
100
AcDbSpline
210
0.0
220
0.0
230
1.0
 70
     8
 71
     3
 72
     9
 73
     5
 74
     0
 42
0.000000001
 43
0.00000001
 40
0.0
 40
0.0
 40
0.0
 40
0.0
 40
0.492653909036793
 40
1.0
 40
1.0
 40
1.0
 40
1.0
 10
103.9845042087867
 20
189.4211217330108
 30
0.0
 10
103.9857789084607
 20
189.4231341136817
 30
0.0
 10
103.9883663225675
 20
189.4272188892899
 30
0.0
 10
104.0062289560047
 20
189.4554515777427
 30
0.0
 10
104.0152914932534
 20
189.4697753218666
 30
0.0
  0
SPLINE
  5
29D
330
1F
100
AcDbEntity
  8
0
  6
Continuous
 62
     7
370
    25
100
AcDbSpline
210
0.0
220
0.0
230
1.0
 70
     8
 71
     3
 72
    16
 73
    12
 74
     0
 42
0.000000001
 43
0.00000001
 40
0.0
 40
0.0
 40
0.0
 40
0.0
 40
0.004673286223123
 40
0.1886684771750507
 40
0.374124458148928
 40
0.5241002522117488
 40
0.6755623304881265
 40
0.770782145292605
 40
0.8673273256276709
 40
0.9327095430972521
 40
1.0
 40
1.0
 40
1.0
 40
1.0
 10
87.30827416220279
 20
189.558871863948
 30
0.0
 10
87.30863761082234
 20
189.5562923121275
 30
0.0
 10
87.32331064694937
 20
189.4521514376906
 30
0.0
 10
87.35282930830269
 20
189.2456197288212
 30
0.0
 10
87.39589432422225
 20
188.9614384546435
 30
0.0
 10
87.43907280234741
 20
188.6999389736006
 30
0.0
 10
87.47729135995971
 20
188.4931096610338
 30
0.0
 10
87.51369946684336
 20
188.3226975243493
 30
0.0
 10
87.54401860261223
 20
188.2039954596576
 30
0.0
 10
87.57402256509626
 20
188.1081303883588
 30
0.0
 10
87.59454149507094
 20
188.0662554251676
 30
0.0
 10
87.60494852258947
 20
188.0450167984552
 30
0.0
  0
ARC
  5
29E
330
1F
100
AcDbEntity
  8
0
  6
Continuous
 62
     7
370
    25
100
AcDbCircle
 10
87.1901802587
 20
187.7868223477
 30
0.0
 40
0.4885663590009745
100
AcDbArc
 50
31.9023839282
 51
125.5224722857
  0
ARC
  5
29F
330
1F
100
AcDbEntity
  8
0
  6
Continuous
 62
     7
370
    25
100
AcDbCircle
 10
89.3349737137
 20
189.0251194263
 30
0.0
 40
0.4885663590008963
100
AcDbArc
 50
114.4775277143
 51
208.0976160718
  0
SPLINE
  5
2A0
330
1F
100
AcDbEntity
  8
0
  6
Continuous
 62
     7
370
    25
100
AcDbSpline
210
0.0
220
0.0
230
1.0
 70
     8
 71
     3
 72
    12
 73
     8
 74
     0
 42
0.000000001
 43
0.00000001
 40
0.0
 40
0.0
 40
0.0
 40
0.0
 40
0.1323619047840651
 40
0.3240798074938218
 40
0.6256208640830904
 40
0.9953188910197402
 40
1.0
 40
1.0
 40
1.0
 40
1.0
 10
88.90398662826614
 20
188.7950167984552
 30
0.0
 10
88.87372235309074
 20
188.8351053709316
 30
0.0
 10
88.79962217684452
 20
188.9332597218533
 30
0.0
 10
88.56008562884202
 20
189.1483975721246
 30
0.0
 10
88.20476535342999
 20
189.4452164212509
 30
0.0
 10
87.90746582095686
 20
189.6789439944318
 30
0.0
 10
87.74333904924967
 20
189.8072673524621
 30
0.0
 10
87.74128686409502
 20
189.808871863948
 30
0.0
  0
SPLINE
  5
2A1
330
1F
100
AcDbEntity
  8
0
  6
Continuous
 62
     7
370
    25
100
AcDbSpline
210
0.0
220
0.0
230
1.0
 70
     8
 71
     3
 72
    12
 73
     8
 74
     0
 42
0.000000001
 43
0.00000001
 40
0.0
 40
0.0
 40
0.0
 40
0.0
 40
0.0046811089802625
 40
0.3743791359169087
 40
0.675920192506177
 40
0.8676380952159348
 40
1.0
 40
1.0
 40
1.0
 40
1.0
 10
105.4065475605135
 20
189.8088718639479
 30
0.0
 10
105.4044953753589
 20
189.807267352462
 30
0.0
 10
105.2403686036514
 20
189.6789439944319
 30
0.0
 10
104.9430690711786
 20
189.4452164212508
 30
0.0
 10
104.5877487957665
 20
189.1483975721246
 30
0.0
 10
104.348212247764
 20
188.9332597218533
 30
0.0
 10
104.2741120715178
 20
188.8351053709315
 30
0.0
 10
104.2438477963424
 20
188.7950167984552
 30
0.0
  0
ARC
  5
2A2
330
1F
100
AcDbEntity
  8
0
  6
Continuous
 62
     7
370
    25
100
AcDbCircle
 10
103.8128607109
 20
189.0251194263
 30
0.0
 40
0.4885663590008963
100
AcDbArc
 50
331.9023839282
 51
65.5224722857
  0
ARC
  5
2A3
330
1F
100
AcDbEntity
  8
0
  6
Continuous
 62
     7
370
    25
100
AcDbCircle
 10
105.9576541659
 20
187.7868223477
 30
0.0
 40
0.4885663590009474
100
AcDbArc
 50
54.4775277143
 51
148.0976160718
  0
SPLINE
  5
2A4
330
1F
100
AcDbEntity
  8
0
  6
Continuous
 62
     7
370
    25
100
AcDbSpline
210
0.0
220
0.0
230
1.0
 70
     8
 71
     3
 72
    12
 73
     8
 74
     0
 42
0.000000001
 43
0.00000001
 40
0.0
 40
0.0
 40
0.0
 40
0.0
 40
0.132361904784064
 40
0.3240798074938221
 40
0.6256208640830885
 40
0.9953188910197315
 40
1.0
 40
1.0
 40
1.0
 40
1.0
 10
105.5428859020191
 20
188.0450167984552
 30
0.0
 10
105.5624714865973
 20
188.0912707158224
 30
0.0
 10
105.6104255598644
 20
188.2045205263373
 30
0.0
 10
105.6769721295137
 20
188.519534187178
 30
0.0
 10
105.7563646554731
 20
188.9756599967276
 30
0.0
 10
105.8101289051762
 20
189.3499927309732
 30
0.0
 10
105.8391968072756
 20
189.5562923637277
 30
0.0
 10
105.8395602624057
 20
189.5588718639479
 30
0.0
  0
SPLINE
  5
2A5
330
1F
100
AcDbEntity
  8
0
  6
Continuous
 62
     7
370
    25
100
AcDbSpline
210
0.0
220
0.0
230
1.0
 70
     8
 71
     3
 72
    16
 73
    12
 74
     0
 42
0.000000001
 43
0.00000001
 40
0.0
 40
0.0
 40
0.0
 40
0.0
 40
0.0037928329605774
 40
0.1835104168920456
 40
0.3658879114467078
 40
0.5133654151687457
 40
0.6635948843111473
 40
0.7590761324642231
 40
0.8571345644063425
 40
0.8964218088988253
 40
1.0
 40
1.0
 40
1.0
 40
1.0
 10
105.8395602624057
 20
189.5588718639479
 30
0.0
 10
105.8403004669096
 20
189.5568866813259
 30
0.0
 10
105.8761141287558
 20
189.4608366589949
 30
0.0
 10
105.9472865628894
 20
189.2690823213533
 30
0.0
 10
106.0425070134604
 20
189.0049181775103
 30
0.0
 10
106.1254533436741
 20
188.7621534940194
 30
0.0
 10
106.185130250643
 20
188.5713667112522
 30
0.0
 10
106.2265515806142
 20
188.4165362216213
 30
0.0
 10
106.2451487208661
 20
188.3228572445466
 30
0.0
 10
106.2545543659335
 20
188.2388060816755
 30
0.0
 10
106.2469994383979
 20
188.207301489948
 30
0.0
 10
106.2415220762579
 20
188.1844604954908
 30
0.0
  0
ARC
  5
2A6
330
1F
100
AcDbEntity
  8
0
  6
Continuous
 62
     7
370
    25
100
AcDbCircle
 10
96.5739172123
 20
174.0103073364
 30
0.0
 40
17.10000000000001
100
AcDbArc
 50
304.3185290096
 51
55.6814709904
  0
LINE
  5
2A7
330
1F
100
AcDbEntity
  8
0
  6
Continuous
 62
     7
370
    25
100
AcDbLine
 10
106.2415220763
 20
188.1844604955
 30
0.0
 11
106.2147804746
 21
188.1334711306
 31
0.0
  0
ARC
  5
2A8
330
1F
100
AcDbEntity
  8
0
  6
Continuous
 62
     7
370
    25
100
AcDbCircle
 10
96.5739172123
 20
174.0103073364
 30
0.0
 40
18.10000000000002
100
AcDbArc
 50
300.7914033348
 51
59.2085966652
  0
SPLINE
  5
2A9
330
1F
100
AcDbEntity
  8
0
  6
Continuous
 62
     7
370
    25
100
AcDbSpline
210
0.0
220
0.0
230
1.0
 70
     8
 71
     3
 72
    16
 73
    12
 74
     0
 42
0.000000001
 43
0.00000001
 40
0.0
 40
0.0
 40
0.0
 40
0.0
 40
0.1035773842417664
 40
0.1428643226921907
 40
0.2380184138953672
 40
0.3364071325171576
 40
0.4836045446451019
 40
0.6341144679451358
 40
0.8137647298715329
 40
0.9962071965850521
 40
1.0
 40
1.0
 40
1.0
 40
1.0
 10
106.2415220762579
 20
159.8361541772588
 30
0.0
 10
106.2469996561285
 20
159.8133136364474
 30
0.0
 10
106.2545548839799
 20
159.7818096704337
 30
0.0
 10
106.2452610251465
 20
159.6987682158002
 30
0.0
 10
106.2268768418284
 20
159.6053763154042
 30
0.0
 10
106.1859315723046
 20
159.4520111353139
 30
0.0
 10
106.1259691155988
 20
159.2600016358749
 30
0.0
 10
106.0435405569504
 20
159.0186381625929
 30
0.0
 10
105.9478198610366
 20
158.7529739067428
 30
0.0
 10
105.876646174359
 20
158.5612049331822
 30
0.0
 10
105.8403004665813
 20
158.4637279906644
 30
0.0
 10
105.8395602624057
 20
158.4617428088017
 30
0.0
  0
LINE
  5
2AA
330
1F
100
AcDbEntity
  8
0
  6
Continuous
 62
     7
370
    25
100
AcDbLine
 10
106.2147804746
 20
159.8871435421
 30
0.0
 11
106.2415220763
 21
159.8361541773
 31
0.0
  0
SPLINE
  5
2AB
330
1F
100
AcDbEntity
  8
0
  6
Continuous
 62
     7
370
    25
100
AcDbSpline
210
0.0
220
0.0
230
1.0
 70
     8
 71
     3
 72
    22
 73
    18
 74
     0
 42
0.000000001
 43
0.00000001
 40
0.0
 40
0.0
 40
0.0
 40
0.0
 40
0.0046717431548295
 40
0.0965746269020015
 40
0.1886491756840964
 40
0.2812715406935742
 40
0.3740952099236137
 40
0.4490035355391324
 40
0.5240595933947717
 40
0.5996721980113947
 40
0.6755383607555497
 40
0.7230880950043123
 40
0.8188790083231594
 40
0.8672934412368785
 40
0.8999128380876161
 40
0.9661307567213305
 40
0.9999999999999999
 40
0.9999999999999999
 40
0.9999999999999999
 40
0.9999999999999999
 10
105.8395602624057
 20
158.4617428088017
 30
0.0
 10
105.8391968134468
 20
158.4643223656818
 30
0.0
 10
105.8316835691512
 20
158.5176471600938
 30
0.0
 10
105.8168989195679
 20
158.6218052969625
 30
0.0
 10
105.7948024673454
 20
158.7741518160925
 30
0.0
 10
105.7720693819218
 20
158.9263177441709
 30
0.0
 10
105.7500704481563
 20
159.0680679672942
 30
0.0
 10
105.7288463354134
 20
159.1990128205281
 30
0.0
 10
105.7084149806203
 20
159.3193125231828
 30
0.0
 10
105.6870227011889
 20
159.4382702638803
 30
0.0
 10
105.6672650931719
 20
159.5405752766049
 30
0.0
 10
105.6444025439419
 20
159.6503495133701
 30
0.0
 10
105.6230497537714
 20
159.7428431448279
 30
0.0
 10
105.6015372171003
 20
159.8222271935139
 30
0.0
 10
105.5824930179228
 20
159.8842052046511
 30
0.0
 10
105.5640117630278
 20
159.9356076463171
 30
0.0
 10
105.5482273183175
 20
159.9654868328836
 30
0.0
 10
105.5428859020191
 20
159.9755978742944
 30
0.0
  0
ARC
  5
2AC
330
1F
100
AcDbEntity
  8
0
  6
Continuous
 62
     7
370
    25
100
AcDbCircle
 10
105.9576541659
 20
160.2337923251
 30
0.0
 40
0.4885663590009324
100
AcDbArc
 50
211.9023839282
 51
305.5224722857
  0
ARC
  5
2AD
330
1F
100
AcDbEntity
  8
0
  6
Continuous
 62
     7
370
    25
100
AcDbCircle
 10
103.8128607109
 20
158.9954952465
 30
0.0
 40
0.4885663590009246
100
AcDbArc
 50
294.4775277143
 51
28.0976160718
  0
SPLINE
  5
2AE
330
1F
100
AcDbEntity
  8
0
  6
Continuous
 62
     7
370
    25
100
AcDbSpline
210
0.0
220
0.0
230
1.0
 70
     8
 71
     3
 72
    12
 73
     8
 74
     0
 42
0.000000001
 43
0.00000001
 40
0.0
 40
0.0
 40
0.0
 40
0.0
 40
0.1323619047840652
 40
0.3240798074938204
 40
0.6256208640830848
 40
0.9953188910197395
 40
1.0
 40
1.0
 40
1.0
 40
1.0
 10
104.2438477963424
 20
159.2255978742944
 30
0.0
 10
104.2741120715178
 20
159.185509301818
 30
0.0
 10
104.348212247764
 20
159.0873549508963
 30
0.0
 10
104.5877487957665
 20
158.872217100625
 30
0.0
 10
104.9430690711786
 20
158.5753982514987
 30
0.0
 10
105.2403686036516
 20
158.3416706783178
 30
0.0
 10
105.4044953753589
 20
158.2133473202875
 30
0.0
 10
105.4065475605135
 20
158.2117428088017
 30
0.0
  0
LINE
  5
2AF
330
1F
100
AcDbEntity
  8
0
  6
Continuous
 62
     7
370
    25
100
AcDbLine
 10
88.6413822086
 20
188.2498609956
 30
0.0
 11
89.0743949105
 21
188.4998609956
 31
0.0
  0
LINE
  5
2B0
330
1F
100
AcDbEntity
  8
0
  6
Continuous
 62
     7
370
    25
100
AcDbLine
 10
88.6413822086
 20
188.2498609956
 30
0.0
 11
87.7412868641
 21
189.8088718639
 31
0.0
  0
LINE
  5
2B1
330
1F
100
AcDbEntity
  8
0
  6
Continuous
 62
     7
370
    25
100
AcDbLine
 10
88.9039866283
 20
188.7950167985
 30
0.0
 11
89.0743949105
 21
188.4998609956
 31
0.0
  0
LINE
  5
2B2
330
1F
100
AcDbEntity
  8
0
  6
Continuous
 62
     7
370
    25
100
AcDbLine
 10
87.7753568048
 20
187.7498609956
 30
0.0
 11
88.2083695067
 21
187.9998609956
 31
0.0
  0
LINE
  5
2B3
330
1F
100
AcDbEntity
  8
0
  6
Continuous
 62
     7
370
    25
100
AcDbLine
 10
87.7753568048
 20
187.7498609956
 30
0.0
 11
87.6049485226
 21
188.0450167985
 31
0.0
  0
LINE
  5
2B4
330
1F
100
AcDbEntity
  8
0
  6
Continuous
 62
     7
370
    25
100
AcDbLine
 10
87.3082741622
 20
189.5588718639
 30
0.0
 11
88.2083695067
 21
187.9998609956
 31
0.0
  0
LINE
  5
2B5
330
1F
100
AcDbEntity
  8
0
  6
Continuous
 62
     7
370
    25
100
AcDbLine
 10
104.0734395141
 20
188.4998609956
 30
0.0
 11
104.506452216
 21
188.2498609956
 31
0.0
  0
LINE
  5
2B6
330
1F
100
AcDbEntity
  8
0
  6
Continuous
 62
     7
370
    25
100
AcDbLine
 10
104.0734395141
 20
188.4998609956
 30
0.0
 11
104.2438477963
 21
188.7950167985
 31
0.0
  0
LINE
  5
2B7
330
1F
100
AcDbEntity
  8
0
  6
Continuous
 62
     7
370
    25
100
AcDbLine
 10
105.4065475605
 20
189.8088718639
 30
0.0
 11
104.506452216
 21
188.2498609956
 31
0.0
  0
LINE
  5
2B8
330
1F
100
AcDbEntity
  8
0
  6
Continuous
 62
     7
370
    25
100
AcDbLine
 10
104.9394649179
 20
187.9998609956
 30
0.0
 11
105.3724776198
 21
187.7498609956
 31
0.0
  0
LINE
  5
2B9
330
1F
100
AcDbEntity
  8
0
  6
Continuous
 62
     7
370
    25
100
AcDbLine
 10
104.9394649179
 20
187.9998609956
 30
0.0
 11
105.8395602624
 21
189.5588718639
 31
0.0
  0
LINE
  5
2BA
330
1F
100
AcDbEntity
  8
0
  6
Continuous
 62
     7
370
    25
100
AcDbLine
 10
105.542885902
 20
188.0450167985
 30
0.0
 11
105.3724776198
 21
187.7498609956
 31
0.0
  0
LINE
  5
2BB
330
1F
100
AcDbEntity
  8
0
  6
Continuous
 62
     7
370
    25
100
AcDbLine
 10
105.3724776198
 20
160.2707536771
 30
0.0
 11
104.9394649179
 21
160.0207536771
 31
0.0
  0
LINE
  5
2BC
330
1F
100
AcDbEntity
  8
0
  6
Continuous
 62
     7
370
    25
100
AcDbLine
 10
105.3724776198
 20
160.2707536771
 30
0.0
 11
105.542885902
 21
159.9755978743
 31
0.0
  0
LINE
  5
2BD
330
1F
100
AcDbEntity
  8
0
  6
Continuous
 62
     7
370
    25
100
AcDbLine
 10
105.8395602624
 20
158.4617428088
 30
0.0
 11
104.9394649179
 21
160.0207536771
 31
0.0
  0
LINE
  5
2BE
330
1F
100
AcDbEntity
  8
0
  6
Continuous
 62
     7
370
    25
100
AcDbLine
 10
104.506452216
 20
159.7707536771
 30
0.0
 11
104.0734395141
 21
159.5207536771
 31
0.0
  0
LINE
  5
2BF
330
1F
100
AcDbEntity
  8
0
  6
Continuous
 62
     7
370
    25
100
AcDbLine
 10
104.506452216
 20
159.7707536771
 30
0.0
 11
105.4065475605
 21
158.2117428088
 31
0.0
  0
LINE
  5
2C0
330
1F
100
AcDbEntity
  8
0
  6
Continuous
 62
     7
370
    25
100
AcDbLine
 10
104.2438477963
 20
159.2255978743
 30
0.0
 11
104.0734395141
 21
159.5207536771
 31
0.0
  0
ARC
  5
2C1
330
1F
100
AcDbEntity
  8
0
  6
Continuous
 62
     7
370
    25
100
AcDbCircle
 10
96.5739172123
 20
174.0103073364
 30
0.0
 40
18.1
100
AcDbArc
 50
179.2085966652
 51
180.7914033348
  0
ARC
  5
2C2
330
1F
100
AcDbEntity
  8
0
  6
Continuous
 62
     7
370
    25
100
AcDbCircle
 10
96.5739172123
 20
174.0103073364
 30
0.0
 40
18.09999999999997
100
AcDbArc
 50
299.2085966652
 51
300.7914033348
  0
ARC
  5
2C3
330
1F
100
AcDbEntity
  8
0
  6
Continuous
 62
     7
370
    25
100
AcDbCircle
 10
96.5739172123
 20
174.0103073364
 30
0.0
 40
18.10000000000002
100
AcDbArc
 50
59.2085966652
 51
60.7914033348
  0
ARC
  5
2C4
330
1F
100
AcDbEntity
  8
0
  6
Continuous
 62
     7
370
    25
100
AcDbCircle
 10
96.5739172123
 20
174.0103073364
 30
0.0
 40
18.10000000000001
100
AcDbArc
 50
119.2085966652
 51
120.7914033348
  0
CIRCLE
  5
2C5
330
1F
100
AcDbEntity
  8
0
  6
Continuous
 62
     7
370
    25
100
AcDbCircle
 10
96.5739172123
 20
174.0103073364
 30
0.0
 40
19.09999999999997
  0
ARC
  5
2C6
330
1F
100
AcDbEntity
  8
0
  6
Continuous
 62
     7
370
    25
100
AcDbCircle
 10
96.5739172123
 20
174.0103073364
 30
0.0
 40
16.3
100
AcDbArc
 50
119.1211959188
 51
120.8788040812
  0
LINE
  5
2C7
330
1F
100
AcDbEntity
  8
0
  6
Continuous
 62
     7
370
    25
100
AcDbLine
 10
88.8847115032
 20
187.8130648711
 30
0.0
 11
88.6413822086
 21
188.2498609956
 31
0.0
  0
ARC
  5
2C8
330
1F
100
AcDbEntity
  8
0
  6
Continuous
 62
     7
370
    25
100
AcDbCircle
 10
96.5739172123
 20
174.0103073364
 30
0.0
 40
15.80000000000003
100
AcDbArc
 50
119.1211959188
 51
120.8788040812
  0
LINE
  5
2C9
330
1F
100
AcDbEntity
  8
0
  6
Continuous
 62
     7
370
    25
100
AcDbLine
 10
88.2083695067
 20
187.9998609956
 30
0.0
 11
88.4649813995
 21
187.5707335828
 31
0.0
  0
ARC
  5
2CA
330
1F
100
AcDbEntity
  8
0
  6
Continuous
 62
     7
370
    25
100
AcDbCircle
 10
88.2083695067
 20
187.9998609956
 30
0.0
 40
0.5000000000000019
100
AcDbArc
 50
210.0
 51
300.8788040812
  0
ARC
  5
2CB
330
1F
100
AcDbEntity
  8
0
  6
Continuous
 62
     7
370
    25
100
AcDbCircle
 10
88.6413822086
 20
188.2498609956
 30
0.0
 40
0.5000000000000041
100
AcDbArc
 50
299.1211959188
 51
30.0
  0
ARC
  5
2CC
330
1F
100
AcDbEntity
  8
0
  6
Continuous
 62
     7
370
    25
100
AcDbCircle
 10
96.5739172123
 20
174.0103073364
 30
0.0
 40
16.3
100
AcDbArc
 50
59.1211959188
 51
60.8788040812
  0
LINE
  5
2CD
330
1F
100
AcDbEntity
  8
0
  6
Continuous
 62
     7
370
    25
100
AcDbLine
 10
80.2032880246
 20
176.2603073364
 30
0.0
 11
80.3681312085
 21
176.2603073364
 31
0.0
  0
SPLINE
  5
2CE
330
1F
100
AcDbEntity
  8
0
  6
Continuous
 62
     7
370
    25
100
AcDbSpline
210
0.0
220
0.0
230
1.0
 70
     8
 71
     3
 72
    12
 73
     8
 74
     0
 42
0.000000001
 43
0.00000001
 40
0.0
 40
0.0
 40
0.0
 40
0.0
 40
0.1428141902719109
 40
0.3579685267516381
 40
0.5724124685331263
 40
0.7861497551416522
 40
1.0
 40
1.0
 40
1.0
 40
1.0
 10
80.27583450297917
 20
174.2603073363748
 30
0.0
 10
80.27823937729758
 20
174.409470926718
 30
0.0
 10
80.28426727491164
 20
174.7833544363221
 30
0.0
 10
80.30695688565912
 20
175.3467335868341
 30
0.0
 10
80.33687192157277
 20
175.8519724912011
 30
0.0
 10
80.36267318452853
 20
176.1944312784031
 30
0.0
 10
80.3663115468097
 20
176.2383447834234
 30
0.0
 10
80.36813120853382
 20
176.2603073363748
 30
0.0
  0
LINE
  5
2CF
330
1F
100
AcDbEntity
  8
0
  6
Continuous
 62
     7
370
    25
100
AcDbLine
 10
80.275834503
 20
174.2603073364
 30
0.0
 11
78.475643814
 21
174.2603073364
 31
0.0
  0
SPLINE
  5
2D0
330
1F
100
AcDbEntity
  8
0
  6
Continuous
 62
     7
370
    25
100
AcDbSpline
210
0.0
220
0.0
230
1.0
 70
     8
 71
     3
 72
     9
 73
     5
 74
     0
 42
0.000000001
 43
0.00000001
 40
0.0
 40
0.0
 40
0.0
 40
0.0
 40
0.18942850690799
 40
1.0
 40
1.0
 40
1.0
 40
1.0
 10
80.2032880246401
 20
176.2603073363748
 30
0.0
 10
80.2030650001618
 20
176.2592900042809
 30
0.0
 10
80.20188764580294
 20
176.2539194710362
 30
0.0
 10
80.18405087775251
 20
176.16522821676
 30
0.0
 10
80.16959290204196
 20
176.0933376143571
 30
0.0
  0
ARC
  5
2D1
330
1F
100
AcDbEntity
  8
0
  6
Continuous
 62
     7
370
    25
100
AcDbCircle
 10
80.3681312085
 20
175.7603073364
 30
0.0
 40
0.5
100
AcDbArc
 50
353.8367334873
 51
90.0
  0
SPLINE
  5
2D2
330
1F
100
AcDbEntity
  8
0
  6
Continuous
 62
     7
370
    25
100
AcDbSpline
210
0.0
220
0.0
230
1.0
 70
     8
 71
     3
 72
    12
 73
     8
 74
     0
 42
0.000000001
 43
0.00000001
 40
0.0
 40
0.0
 40
0.0
 40
0.0
 40
0.2169156311011912
 40
0.4324419534419823
 40
0.6465919351579108
 40
0.8593955165446692
 40
1.0
 40
1.0
 40
1.0
 40
1.0
 10
80.86524120864948
 20
175.7066263547797
 30
0.0
 10
80.8634859717476
 20
175.6907361484908
 30
0.0
 10
80.85998673994604
 20
175.6590575100576
 30
0.0
 10
80.8350849609711
 20
175.4113187286238
 30
0.0
 10
80.806083336087
 20
175.0445742264246
 30
0.0
 10
80.78397642086959
 20
174.6338727417459
 30
0.0
 10
80.77810975958339
 20
174.3611444233766
 30
0.0
 10
80.77577569038178
 20
174.2526386247183
 30
0.0
  0
LINE
  5
2D3
330
1F
100
AcDbEntity
  8
0
  6
Continuous
 62
     7
370
    25
100
AcDbLine
 10
80.275834503
 20
174.2603073364
 30
0.0
 11
80.7757756904
 21
174.2526386247
 31
0.0
  0
LINE
  5
2D4
330
1F
100
AcDbEntity
  8
0
  6
Continuous
 62
     7
370
    25
100
AcDbLine
 10
104.506452216
 20
188.2498609956
 30
0.0
 11
104.2631229214
 21
187.8130648711
 31
0.0
  0
ARC
  5
2D5
330
1F
100
AcDbEntity
  8
0
  6
Continuous
 62
     7
370
    25
100
AcDbCircle
 10
104.506452216
 20
188.2498609956
 30
0.0
 40
0.5000000000000183
100
AcDbArc
 50
150.0
 51
240.8788040812
  0
LINE
  5
2D6
330
1F
100
AcDbEntity
  8
0
  6
Continuous
 62
     7
370
    25
100
AcDbLine
 10
104.6828530251
 20
187.5707335828
 30
0.0
 11
104.9394649179
 21
187.9998609956
 31
0.0
  0
ARC
  5
2D7
330
1F
100
AcDbEntity
  8
0
  6
Continuous
 62
     7
370
    25
100
AcDbCircle
 10
96.5739172123
 20
174.0103073364
 30
0.0
 40
15.80000000000003
100
AcDbArc
 50
59.1211959188
 51
60.8788040812
  0
ARC
  5
2D8
330
1F
100
AcDbEntity
  8
0
  6
Continuous
 62
     7
370
    25
100
AcDbCircle
 10
104.9394649179
 20
187.9998609956
 30
0.0
 40
0.4999999999999918
100
AcDbArc
 50
239.1211959188
 51
330.0
  0
ARC
  5
2D9
330
1F
100
AcDbEntity
  8
0
  6
Continuous
 62
     7
370
    25
100
AcDbCircle
 10
96.5739172123
 20
174.0103073364
 30
0.0
 40
16.3
100
AcDbArc
 50
179.1211959188
 51
180.8788040812
  0
LINE
  5
2DA
330
1F
100
AcDbEntity
  8
0
  6
Continuous
 62
     7
370
    25
100
AcDbLine
 10
78.475643814
 20
173.7603073364
 30
0.0
 11
80.275834503
 21
173.7603073364
 31
0.0
  0
SPLINE
  5
2DB
330
1F
100
AcDbEntity
  8
0
  6
Continuous
 62
     7
370
    25
100
AcDbSpline
210
0.0
220
0.0
230
1.0
 70
     8
 71
     3
 72
    12
 73
     8
 74
     0
 42
0.000000001
 43
0.00000001
 40
0.0
 40
0.0
 40
0.0
 40
0.0
 40
0.1416298830050386
 40
0.356754619714777
 40
0.5715625988206009
 40
0.7857259584774717
 40
1.0
 40
1.0
 40
1.0
 40
1.0
 10
80.36813120853382
 20
171.7603073363748
 30
0.0
 10
80.3673367136169
 20
171.7700725563495
 30
0.0
 10
80.36533544293916
 20
171.7946703831964
 30
0.0
 10
80.34635790955083
 20
172.0354849450931
 30
0.0
 10
80.31699931222458
 20
172.4883627073342
 30
0.0
 10
80.28826657947697
 20
173.0869688521563
 30
0.0
 10
80.27997924212445
 20
173.5358225229107
 30
0.0
 10
80.27583450297915
 20
173.7603073363748
 30
0.0
  0
LINE
  5
2DC
330
1F
100
AcDbEntity
  8
0
  6
Continuous
 62
     7
370
    25
100
AcDbLine
 10
80.3681312085
 20
171.7603073364
 30
0.0
 11
80.2032880246
 21
171.7603073364
 31
0.0
  0
SPLINE
  5
2DD
330
1F
100
AcDbEntity
  8
0
  6
Continuous
 62
     7
370
    25
100
AcDbSpline
210
0.0
220
0.0
230
1.0
 70
     8
 71
     3
 72
     9
 73
     5
 74
     0
 42
0.000000001
 43
0.00000001
 40
0.0
 40
0.0
 40
0.0
 40
0.0
 40
0.1896016105361746
 40
0.9999999999999999
 40
0.9999999999999999
 40
0.9999999999999999
 40
0.9999999999999999
 10
80.16959290204196
 20
171.9272770583924
 30
0.0
 10
80.17347657189904
 20
171.9074690921856
 30
0.0
 10
80.19395988871328
 20
171.8029975840016
 30
0.0
 10
80.19911242087477
 20
171.7794170020284
 30
0.0
 10
80.2032880246401
 20
171.7603073363748
 30
0.0
  0
ARC
  5
2DE
330
1F
100
AcDbEntity
  8
0
  6
Continuous
 62
     7
370
    25
100
AcDbCircle
 10
96.5739172123
 20
174.0103073364
 30
0.0
 40
15.8
100
AcDbArc
 50
179.1211959188
 51
180.8788040812
  0
LINE
  5
2DF
330
1F
100
AcDbEntity
  8
0
  6
Continuous
 62
     7
370
    25
100
AcDbLine
 10
80.275834503
 20
173.7603073364
 30
0.0
 11
80.7757756904
 21
173.767976048
 31
0.0
  0
SPLINE
  5
2E0
330
1F
100
AcDbEntity
  8
0
  6
Continuous
 62
     7
370
    25
100
AcDbSpline
210
0.0
220
0.0
230
1.0
 70
     8
 71
     3
 72
    12
 73
     8
 74
     0
 42
0.000000001
 43
0.00000001
 40
0.0
 40
0.0
 40
0.0
 40
0.0
 40
0.2110834407207208
 40
0.4235266001393846
 40
0.6387842136812898
 40
0.8562715338971718
 40
1.0
 40
1.0
 40
1.0
 40
1.0
 10
80.77577569038178
 20
173.7679760480312
 30
0.0
 10
80.7798055287758
 20
173.6045778913395
 30
0.0
 10
80.78789116423972
 20
173.2767290295984
 30
0.0
 10
80.81583692535466
 20
172.8412477561091
 30
0.0
 10
80.84425030705572
 20
172.5128755750008
 30
0.0
 10
80.86254140534147
 20
172.3388858075872
 30
0.0
 10
80.86447273057219
 20
172.3210751953337
 30
0.0
 10
80.86524120864948
 20
172.3139883179699
 30
0.0
  0
ARC
  5
2E1
330
1F
100
AcDbEntity
  8
0
  6
Continuous
 62
     7
370
    25
100
AcDbCircle
 10
80.3681312085
 20
172.2603073364
 30
0.0
 40
0.5000000000000031
100
AcDbArc
 50
270.0
 51
6.1632665127
  0
LINE
  5
2E2
330
1F
100
AcDbEntity
  8
0
  6
Continuous
 62
     7
370
    25
100
AcDbLine
 10
104.9394649179
 20
160.0207536771
 30
0.0
 11
104.6828530251
 21
160.44988109
 31
0.0
  0
ARC
  5
2E3
330
1F
100
AcDbEntity
  8
0
  6
Continuous
 62
     7
370
    25
100
AcDbCircle
 10
96.5739172123
 20
174.0103073364
 30
0.0
 40
16.29999999999996
100
AcDbArc
 50
299.1211959188
 51
300.8788040812
  0
LINE
  5
2E4
330
1F
100
AcDbEntity
  8
0
  6
Continuous
 62
     7
370
    25
100
AcDbLine
 10
104.2631229214
 20
160.2075498016
 30
0.0
 11
104.506452216
 21
159.7707536771
 31
0.0
  0
ARC
  5
2E5
330
1F
100
AcDbEntity
  8
0
  6
Continuous
 62
     7
370
    25
100
AcDbCircle
 10
96.5739172123
 20
174.0103073364
 30
0.0
 40
15.79999999999998
100
AcDbArc
 50
299.1211959188
 51
300.8788040812
  0
ARC
  5
2E6
330
1F
100
AcDbEntity
  8
0
  6
Continuous
 62
     7
370
    25
100
AcDbCircle
 10
104.9394649179
 20
160.0207536771
 30
0.0
 40
0.4999999999999918
100
AcDbArc
 50
30.0
 51
120.8788040812
  0
ARC
  5
2E7
330
1F
100
AcDbEntity
  8
0
  6
Continuous
 62
     7
370
    25
100
AcDbCircle
 10
104.506452216
 20
159.7707536771
 30
0.0
 40
0.5000000000000041
100
AcDbArc
 50
119.1211959188
 51
210.0
  0
ARC
  5
2E8
330
1F
100
AcDbEntity
  8
0
  6
Continuous
 62
     7
370
    25
100
AcDbCircle
 10
87.2149505367
 20
187.7205131249
 30
0.0
 40
0.5000000000000041
100
AcDbArc
 50
30.0
 51
124.3185290096
  0
ARC
  5
2E9
330
1F
100
AcDbEntity
  8
0
  6
Continuous
 62
     7
370
    25
100
AcDbCircle
 10
89.3800140461
 20
188.9705131249
 30
0.0
 40
0.5000000000000054
100
AcDbArc
 50
115.6814709904
 51
210.0
  0
ARC
  5
2EA
330
1F
100
AcDbEntity
  8
0
  6
Continuous
 62
     7
370
    25
100
AcDbCircle
 10
103.7678203785
 20
188.9705131249
 30
0.0
 40
0.4999999999999918
100
AcDbArc
 50
330.0
 51
64.3185290096
  0
ARC
  5
2EB
330
1F
100
AcDbEntity
  8
0
  6
Continuous
 62
     7
370
    25
100
AcDbCircle
 10
105.9328838879
 20
187.7205131249
 30
0.0
 40
0.5000000000000041
100
AcDbArc
 50
55.6814709904
 51
150.0
  0
ARC
  5
2EC
330
1F
100
AcDbEntity
  8
0
  6
Continuous
 62
     7
370
    25
100
AcDbCircle
 10
103.7678203785
 20
159.0501015478
 30
0.0
 40
0.500000000000006
100
AcDbArc
 50
295.6814709904
 51
30.0
  0
ARC
  5
2ED
330
1F
100
AcDbEntity
  8
0
  6
Continuous
 62
     7
370
    25
100
AcDbCircle
 10
105.9328838879
 20
160.3001015478
 30
0.0
 40
0.5000000000000074
100
AcDbArc
 50
210.0
 51
304.3185290096
  0
ARC
  5
2EE
330
1F
100
AcDbEntity
  8
0
  6
Continuous
 62
     7
370
    25
100
AcDbCircle
 10
80.2032880246
 20
176.7603073364
 30
0.0
 40
0.5
100
AcDbArc
 50
170.464268657
 51
270.0
  0
SPLINE
  5
2EF
330
1F
100
AcDbEntity
  8
0
  6
Continuous
 62
     7
370
    25
100
AcDbSpline
210
0.0
220
0.0
230
1.0
 70
     8
 71
     3
 72
     9
 73
     5
 74
     0
 42
0.000000001
 43
0.00000001
 40
0.0
 40
0.0
 40
0.0
 40
0.0
 40
0.8107818382086394
 40
1.0
 40
1.0
 40
1.0
 40
1.0
 10
79.67548674811839
 20
176.6281399985358
 30
0.0
 10
79.69038014545848
 20
176.7207099041663
 30
0.0
 10
79.70874932522821
 20
176.8348835341962
 30
0.0
 10
79.70996647685446
 20
176.8418251768191
 30
0.0
 10
79.71019678404781
 20
176.843138661676
 30
0.0
  0
ARC
  5
2F0
330
1F
100
AcDbEntity
  8
0
  6
Continuous
 62
     7
370
    25
100
AcDbCircle
 10
80.2032880246
 20
171.2603073364
 30
0.0
 40
0.5
100
AcDbArc
 50
90.0
 51
189.535731343
  0
ARC
  5
2F1
330
1F
100
AcDbEntity
  8
0
  6
Continuous
 62
     7
370
    25
100
AcDbCircle
 10
96.5739172123
 20
174.0103073364
 30
0.0
 40
13.27942286340602
100
AcDbArc
 50
14.7182578444
 51
45.2817421556
  0
ARC
  5
2F2
330
1F
100
AcDbEntity
  8
0
  6
Continuous
 62
     7
370
    25
100
AcDbCircle
 10
96.5739172123
 20
174.0103073364
 30
0.0
 40
13.53923048454135
100
AcDbArc
 50
15.0184467987
 51
44.9815532013
  0
SPLINE
  5
2F3
330
1F
100
AcDbEntity
  8
0
  6
Continuous
 62
     7
370
    25
100
AcDbSpline
210
0.0
220
0.0
230
1.0
 70
    24
 71
     3
 72
    10
 73
     6
 74
     0
 42
0.000000001
 43
0.00000001
 40
0.0
 40
0.0
 40
0.0
 40
0.0
 40
0.3002495365064433
 40
0.6364303517079826
 40
1.0
 40
1.0
 40
1.0
 40
1.0
 10
109.6506807211425
 20
177.5187283840043
 30
0.0
 10
109.6228968648189
 20
177.5026873670768
 30
0.0
 10
109.5640042195293
 20
177.4686856824655
 30
0.0
 10
109.4781661253423
 20
177.41912703568
 30
0.0
 10
109.4383089008832
 20
177.3961154564094
 30
0.0
 10
109.4176002656847
 20
177.3841593203029
 30
0.0
  0
SPLINE
  5
2F4
330
1F
100
AcDbEntity
  8
0
  6
Continuous
 62
     7
370
    25
100
AcDbSpline
210
0.0
220
0.0
230
1.0
 70
    24
 71
     3
 72
    10
 73
     6
 74
     0
 42
0.000000001
 43
0.00000001
 40
0.0
 40
0.0
 40
0.0
 40
0.0
 40
0.3002495364339661
 40
0.6364303516361898
 40
1.0
 40
1.0
 40
1.0
 40
1.0
 10
106.1506807211424
 20
183.5809062104954
 30
0.0
 10
106.1228968648256
 20
183.5648651935717
 30
0.0
 10
106.0640042195428
 20
183.5308635089644
 30
0.0
 10
105.9781661253525
 20
183.4813048621769
 30
0.0
 10
105.938308900888
 20
183.4582932829032
 30
0.0
 10
105.9176002656847
 20
183.446337146794
 30
0.0
  0
ARC
  5
2F5
330
1F
100
AcDbEntity
  8
0
  6
Continuous
 62
     7
370
    25
100
AcDbCircle
 10
96.5739172123
 20
174.0103073364
 30
0.0
 40
13.27942286340603
100
AcDbArc
 50
134.7182578444
 51
165.2817421556
  0
SPLINE
  5
2F6
330
1F
100
AcDbEntity
  8
0
  6
Continuous
 62
     7
370
    25
100
AcDbSpline
210
0.0
220
0.0
230
1.0
 70
    24
 71
     3
 72
    10
 73
     6
 74
     0
 42
0.000000001
 43
0.00000001
 40
0.0
 40
0.0
 40
0.0
 40
0.0
 40
0.3002495365126986
 40
0.6364303517141783
 40
1.0
 40
1.0
 40
1.0
 40
1.0
 10
83.49715370346595
 20
177.5187283840043
 30
0.0
 10
83.52493755979013
 20
177.5026873670764
 30
0.0
 10
83.58383020508029
 20
177.4686856824648
 30
0.0
 10
83.66966829926696
 20
177.4191270356795
 30
0.0
 10
83.70952552372557
 20
177.3961154564091
 30
0.0
 10
83.73023415892368
 20
177.3841593203029
 30
0.0
  0
ARC
  5
2F7
330
1F
100
AcDbEntity
  8
0
  6
Continuous
 62
     7
370
    25
100
AcDbCircle
 10
96.5739172123
 20
174.0103073364
 30
0.0
 40
13.53923048454136
100
AcDbArc
 50
135.0184467987
 51
164.9815532013
  0
SPLINE
  5
2F8
330
1F
100
AcDbEntity
  8
0
  6
Continuous
 62
     7
370
    25
100
AcDbSpline
210
0.0
220
0.0
230
1.0
 70
    24
 71
     3
 72
    10
 73
     6
 74
     0
 42
0.000000001
 43
0.00000001
 40
0.0
 40
0.0
 40
0.0
 40
0.0
 40
0.3002495365125583
 40
0.6364303517140267
 40
0.9999999999999999
 40
0.9999999999999999
 40
0.9999999999999999
 40
0.9999999999999999
 10
86.99715370346598
 20
183.5809062104954
 30
0.0
 10
87.02493755979016
 20
183.5648651935675
 30
0.0
 10
87.08383020508029
 20
183.5308635089559
 30
0.0
 10
87.16966829926697
 20
183.4813048621705
 30
0.0
 10
87.2095255237256
 20
183.4582932829002
 30
0.0
 10
87.23023415892371
 20
183.446337146794
 30
0.0
  0
ARC
  5
2F9
330
1F
100
AcDbEntity
  8
0
  6
Continuous
 62
     7
370
    25
100
AcDbCircle
 10
96.5739172123
 20
174.0103073364
 30
0.0
 40
13.27942286340598
100
AcDbArc
 50
254.7182578444
 51
285.2817421556
  0
SPLINE
  5
2FA
330
1F
100
AcDbEntity
  8
0
  6
Continuous
 62
     7
370
    25
100
AcDbSpline
210
0.0
220
0.0
230
1.0
 70
    24
 71
     3
 72
    12
 73
     8
 74
     0
 42
0.000000001
 43
0.00000001
 40
0.0
 40
0.0
 40
0.0
 40
0.0
 40
0.0715446071416472
 40
0.4071082247046349
 40
0.7416946234872374
 40
0.9603350194350652
 40
1.0
 40
1.0
 40
1.0
 40
1.0
 10
100.0739172123042
 20
160.9312874146248
 30
0.0
 10
100.0739172123042
 20
160.9389392084043
 30
0.0
 10
100.0739172123042
 20
160.9824799909432
 30
0.0
 10
100.0739172123042
 20
161.0612653627819
 30
0.0
 10
100.0739172123042
 20
161.1422550679212
 30
0.0
 10
100.0739172123042
 20
161.1836838520924
 30
0.0
 10
100.0739172123042
 20
161.1981969350868
 30
0.0
 10
100.0739172123042
 20
161.2004255420275
 30
0.0
  0
ARC
  5
2FB
330
1F
100
AcDbEntity
  8
0
  6
Continuous
 62
     7
370
    25
100
AcDbCircle
 10
96.5739172123
 20
174.0103073364
 30
0.0
 40
13.5392304845413
100
AcDbArc
 50
255.0184467987
 51
284.9815532013
  0
SPLINE
  5
2FC
330
1F
100
AcDbEntity
  8
0
  6
Continuous
 62
     7
370
    25
100
AcDbSpline
210
0.0
220
0.0
230
1.0
 70
    24
 71
     3
 72
    12
 73
     8
 74
     0
 42
0.000000001
 43
0.00000001
 40
0.0
 40
0.0
 40
0.0
 40
0.0
 40
0.0715446071416526
 40
0.4071082247046479
 40
0.7416946234872442
 40
0.9603350194350652
 40
1.0
 40
1.0
 40
1.0
 40
1.0
 10
93.07391721230421
 20
160.9312874146248
 30
0.0
 10
93.07391721230421
 20
160.9389392084043
 30
0.0
 10
93.07391721230421
 20
160.9824799909432
 30
0.0
 10
93.07391721230421
 20
161.0612653627819
 30
0.0
 10
93.07391721230421
 20
161.1422550679212
 30
0.0
 10
93.07391721230421
 20
161.1836838520924
 30
0.0
 10
93.07391721230421
 20
161.1981969350868
 30
0.0
 10
93.07391721230421
 20
161.2004255420275
 30
0.0
  0
SPLINE
  5
2FD
330
1F
100
AcDbEntity
  8
0
  6
Continuous
 62
     7
370
    25
100
AcDbSpline
210
0.0
220
0.0
230
1.0
 70
    24
 71
     3
 72
    17
 73
    13
 74
     0
 42
0.000000001
 43
0.00000001
 40
0.0
 40
0.0
 40
0.0
 40
0.0
 40
0.0581301655660463
 40
0.1690298975601142
 40
0.2831813586377956
 40
0.3933396135384831
 40
0.5068441060845076
 40
0.6143471082300365
 40
0.7251622631671386
 40
0.8293922950754458
 40
0.9367910673787946
 40
0.9999999999999999
 40
0.9999999999999999
 40
0.9999999999999999
 40
0.9999999999999999
 10
86.49513874620726
 20
164.1498699915436
 30
0.0
 10
86.48711297116392
 20
164.1452363081619
 30
0.0
 10
86.4637757602648
 20
164.1317625631672
 30
0.0
 10
86.42505682029622
 20
164.1094081727536
 30
0.0
 10
86.38121258426746
 20
164.0840946912799
 30
0.0
 10
86.34033900121048
 20
164.0604963170993
 30
0.0
 10
86.30470709816336
 20
164.0399242282833
 30
0.0
 10
86.27459263886675
 20
164.0225376371019
 30
0.0
 10
86.2515806606309
 20
164.0092516652728
 30
0.0
 10
86.23569736068391
 20
164.0000814377728
 30
0.0
 10
86.22812452765665
 20
163.995709260586
 30
0.0
 10
86.22739164377884
 20
163.9952861298818
 30
0.0
 10
86.22712011555174
 20
163.9951293629868
 30
0.0
  0
ARC
  5
2FE
330
1F
100
AcDbEntity
  8
0
  6
Continuous
 62
     7
370
    25
100
AcDbCircle
 10
96.5739172123
 20
174.0103073364
 30
0.0
 40
14.4
100
AcDbArc
 50
195.9330478251
 51
224.0669521749
  0
ARC
  5
2FF
330
1F
100
AcDbEntity
  8
0
  6
Continuous
 62
     7
370
    25
100
AcDbCircle
 10
96.5739172123
 20
174.0103073364
 30
0.0
 40
14.1
100
AcDbArc
 50
195.627382986
 51
224.372617014
  0
SPLINE
  5
300
330
1F
100
AcDbEntity
  8
0
  6
Continuous
 62
     7
370
    25
100
AcDbSpline
210
0.0
220
0.0
230
1.0
 70
    24
 71
     3
 72
    17
 73
    13
 74
     0
 42
0.000000001
 43
0.00000001
 40
0.0
 40
0.0
 40
0.0
 40
0.0
 40
0.0581301655660281
 40
0.1690298975601007
 40
0.2831813586377834
 40
0.3933396135384766
 40
0.5068441060844948
 40
0.6143471082300218
 40
0.7251622631671227
 40
0.8293922950754294
 40
0.9367910673787875
 40
0.9999999999999999
 40
0.9999999999999999
 40
0.9999999999999999
 40
0.9999999999999999
 10
82.99513874620722
 20
170.2120478180347
 30
0.0
 10
82.98711297116387
 20
170.207414134653
 30
0.0
 10
82.96377576026474
 20
170.1939403896582
 30
0.0
 10
82.92505682029619
 20
170.1715859992447
 30
0.0
 10
82.88121258426742
 20
170.146272517771
 30
0.0
 10
82.84033900121045
 20
170.1226741435903
 30
0.0
 10
82.80470709816333
 20
170.1021020547743
 30
0.0
 10
82.77459263886672
 20
170.0847154635929
 30
0.0
 10
82.75158066063088
 20
170.0714294917639
 30
0.0
 10
82.73569736068389
 20
170.0622592642638
 30
0.0
 10
82.7281245276566
 20
170.057887087077
 30
0.0
 10
82.72739164377882
 20
170.0574639563729
 30
0.0
 10
82.72712011555171
 20
170.0573071894779
 30
0.0
  0
ARC
  5
301
330
1F
100
AcDbEntity
  8
0
  6
Continuous
 62
     7
370
    25
100
AcDbCircle
 10
96.5739172123
 20
174.0103073364
 30
0.0
 40
14.40000000000001
100
AcDbArc
 50
315.9330478251
 51
344.0669521749
  0
SPLINE
  5
302
330
1F
100
AcDbEntity
  8
0
  6
Continuous
 62
     7
370
    25
100
AcDbSpline
210
0.0
220
0.0
230
1.0
 70
    24
 71
     3
 72
    17
 73
    13
 74
     0
 42
0.000000001
 43
0.00000001
 40
0.0
 40
0.0
 40
0.0
 40
0.0
 40
0.0581301655660418
 40
0.1690298975601125
 40
0.2831813586377985
 40
0.3933396135384814
 40
0.5068441060845026
 40
0.6143471082300312
 40
0.7251622631671395
 40
0.8293922950754458
 40
0.9367910673787949
 40
1.0
 40
1.0
 40
1.0
 40
1.0
 10
106.6526956784012
 20
164.1498699915436
 30
0.0
 10
106.6607214534445
 20
164.1452363081619
 30
0.0
 10
106.6840586643436
 20
164.1317625631672
 30
0.0
 10
106.7227776043122
 20
164.1094081727536
 30
0.0
 10
106.766621840341
 20
164.08409469128
 30
0.0
 10
106.8074954233979
 20
164.0604963170993
 30
0.0
 10
106.8431273264451
 20
164.0399242282833
 30
0.0
 10
106.8732417857417
 20
164.0225376371019
 30
0.0
 10
106.8962537639775
 20
164.0092516652728
 30
0.0
 10
106.9121370639245
 20
164.0000814377728
 30
0.0
 10
106.9197098969518
 20
163.995709260586
 30
0.0
 10
106.9204427808296
 20
163.9952861298818
 30
0.0
 10
106.9207143090567
 20
163.9951293629869
 30
0.0
  0
ARC
  5
303
330
1F
100
AcDbEntity
  8
0
  6
Continuous
 62
     7
370
    25
100
AcDbCircle
 10
96.5739172123
 20
174.0103073364
 30
0.0
 40
14.1
100
AcDbArc
 50
315.627382986
 51
344.372617014
  0
SPLINE
  5
304
330
1F
100
AcDbEntity
  8
0
  6
Continuous
 62
     7
370
    25
100
AcDbSpline
210
0.0
220
0.0
230
1.0
 70
    24
 71
     3
 72
    17
 73
    13
 74
     0
 42
0.000000001
 43
0.00000001
 40
0.0
 40
0.0
 40
0.0
 40
0.0
 40
0.058130165566081
 40
0.1690298975601548
 40
0.2831813586378358
 40
0.3933396135385192
 40
0.5068441060845459
 40
0.6143471082300805
 40
0.7251622631671778
 40
0.829392295075483
 40
0.9367910673788311
 40
0.9999999999999999
 40
0.9999999999999999
 40
0.9999999999999999
 40
0.9999999999999999
 10
110.1526956784012
 20
170.2120478180347
 30
0.0
 10
110.1607214534446
 20
170.207414134653
 30
0.0
 10
110.1840586643437
 20
170.1939403896582
 30
0.0
 10
110.2227776043122
 20
170.1715859992447
 30
0.0
 10
110.266621840341
 20
170.146272517771
 30
0.0
 10
110.307495423398
 20
170.1226741435903
 30
0.0
 10
110.3431273264451
 20
170.1021020547743
 30
0.0
 10
110.3732417857417
 20
170.0847154635929
 30
0.0
 10
110.3962537639776
 20
170.0714294917639
 30
0.0
 10
110.4121370639245
 20
170.0622592642639
 30
0.0
 10
110.4197098969518
 20
170.0578870870771
 30
0.0
 10
110.4204427808296
 20
170.0574639563729
 30
0.0
 10
110.4207143090567
 20
170.0573071894779
 30
0.0
  0
SPLINE
  5
305
330
1F
100
AcDbEntity
  8
0
  6
Continuous
 62
     7
370
    25
100
AcDbSpline
210
0.0
220
0.0
230
1.0
 70
    24
 71
     3
 72
    13
 73
     9
 74
     0
 42
0.000000001
 43
0.00000001
 40
0.0
 40
0.0
 40
0.0
 40
0.0
 40
0.0645792661853207
 40
0.2894593464363663
 40
0.5127914721181284
 40
0.7306942083757645
 40
0.864847387667212
 40
1.0
 40
1.0
 40
1.0
 40
1.0
 10
93.07391721230421
 20
187.6690041995459
 30
0.0
 10
93.07391721230421
 20
187.6792686749326
 30
0.0
 10
93.07391721230421
 20
187.7252764497564
 30
0.0
 10
93.0739172123042
 20
187.8056397179142
 30
0.0
 10
93.07391721230421
 20
187.8944279248641
 30
0.0
 10
93.07391721230421
 20
187.9480606608774
 30
0.0
 10
93.07391721230421
 20
187.9743205016216
 30
0.0
 10
93.0739172123042
 20
187.9770937077255
 30
0.0
 10
93.07391721230421
 20
187.9784854566634
 30
0.0
  0
ARC
  5
306
330
1F
100
AcDbEntity
  8
0
  6
Continuous
 62
     7
370
    25
100
AcDbCircle
 10
96.5739172123
 20
174.0103073364
 30
0.0
 40
14.40000000000384
100
AcDbArc
 50
75.9330478251
 51
104.0669521749
  0
SPLINE
  5
307
330
1F
100
AcDbEntity
  8
0
  6
Continuous
 62
     7
370
    25
100
AcDbSpline
210
0.0
220
0.0
230
1.0
 70
    24
 71
     3
 72
    13
 73
     9
 74
     0
 42
0.000000001
 43
0.00000001
 40
0.0
 40
0.0
 40
0.0
 40
0.0
 40
0.0645792661853241
 40
0.2894593464363688
 40
0.51279147211813
 40
0.7306942083757655
 40
0.8648473876672125
 40
1.0
 40
1.0
 40
1.0
 40
1.0
 10
100.0739172123042
 20
187.6690041995459
 30
0.0
 10
100.0739172123042
 20
187.6792686749326
 30
0.0
 10
100.0739172123042
 20
187.7252764497564
 30
0.0
 10
100.0739172123042
 20
187.8056397179142
 30
0.0
 10
100.0739172123042
 20
187.8944279248641
 30
0.0
 10
100.0739172123042
 20
187.9480606608774
 30
0.0
 10
100.0739172123042
 20
187.9743205016216
 30
0.0
 10
100.0739172123042
 20
187.9770937077255
 30
0.0
 10
100.0739172123042
 20
187.9784854566634
 30
0.0
  0
ARC
  5
308
330
1F
100
AcDbEntity
  8
0
  6
Continuous
 62
     7
370
    25
100
AcDbCircle
 10
96.5739172123
 20
174.0103073364
 30
0.0
 40
14.10000000000002
100
AcDbArc
 50
75.627382986
 51
104.372617014
  0
ARC
  5
309
330
1F
100
AcDbEntity
  8
0
  6
Continuous
 62
     7
370
    25
100
AcDbCircle
 10
96.5739172123
 20
174.0103073364
 30
0.0
 40
13.53923048454134
100
AcDbArc
 50
195.0184467987
 51
224.9815532013
  0
ARC
  5
30A
330
1F
100
AcDbEntity
  8
0
  6
Continuous
 62
     7
370
    25
100
AcDbCircle
 10
96.5739172123
 20
174.0103073364
 30
0.0
 40
13.279422863406
100
AcDbArc
 50
194.7182578444
 51
225.2817421556
  0
SPLINE
  5
30B
330
1F
100
AcDbEntity
  8
0
  6
Continuous
 62
     7
370
    25
100
AcDbSpline
210
0.0
220
0.0
230
1.0
 70
    24
 71
     3
 72
    14
 73
    10
 74
     0
 42
0.000000001
 43
0.00000001
 40
0.0
 40
0.0
 40
0.0
 40
0.0
 40
0.1573192316216293
 40
0.3192924973508751
 40
0.476917067446062
 40
0.6388965518470472
 40
0.8005448773970247
 40
0.966677545915994
 40
1.0
 40
1.0
 40
1.0
 40
1.0
 10
87.23023415892371
 20
164.5742775259556
 30
0.0
 10
87.22210081248824
 20
164.5695817362016
 30
0.0
 10
87.20559350776499
 20
164.5600512393761
 30
0.0
 10
87.1734570922433
 20
164.5414972712238
 30
0.0
 10
87.13671589499641
 20
164.520284731103
 30
0.0
 10
87.09615597945009
 20
164.496867452944
 30
0.0
 10
87.05227111784484
 20
164.4715305162829
 30
0.0
 10
87.01877566869057
 20
164.452191909697
 30
0.0
 10
87.0002489197392
 20
164.4414954862027
 30
0.0
 10
86.99715370346598
 20
164.4397084622542
 30
0.0
  0
SPLINE
  5
30C
330
1F
100
AcDbEntity
  8
0
  6
Continuous
 62
     7
370
    25
100
AcDbSpline
210
0.0
220
0.0
230
1.0
 70
    24
 71
     3
 72
    14
 73
    10
 74
     0
 42
0.000000001
 43
0.00000001
 40
0.0
 40
0.0
 40
0.0
 40
0.0
 40
0.1573192316216469
 40
0.319292497350894
 40
0.4769170674460956
 40
0.6388965518470794
 40
0.8005448773970605
 40
0.9666775459160327
 40
1.0
 40
1.0
 40
1.0
 40
1.0
 10
83.73023415892368
 20
170.6364553524466
 30
0.0
 10
83.7221008124882
 20
170.6317595626927
 30
0.0
 10
83.70559350776496
 20
170.6222290658671
 30
0.0
 10
83.67345709224327
 20
170.6036750977149
 30
0.0
 10
83.63671589499637
 20
170.582462557594
 30
0.0
 10
83.59615597945006
 20
170.5590452794351
 30
0.0
 10
83.5522711178448
 20
170.5337083427739
 30
0.0
 10
83.51877566869052
 20
170.5143697361881
 30
0.0
 10
83.50024891973918
 20
170.5036733126938
 30
0.0
 10
83.49715370346595
 20
170.5018862887453
 30
0.0
  0
ARC
  5
30D
330
1F
100
AcDbEntity
  8
0
  6
Continuous
 62
     7
370
    25
100
AcDbCircle
 10
96.5739172123
 20
174.0103073364
 30
0.0
 40
13.53923048454132
100
AcDbArc
 50
315.0184467987
 51
344.9815532013
  0
ARC
  5
30E
330
1F
100
AcDbEntity
  8
0
  6
Continuous
 62
     7
370
    25
100
AcDbCircle
 10
96.5739172123
 20
174.0103073364
 30
0.0
 40
13.279422863406
100
AcDbArc
 50
314.7182578444
 51
345.2817421556
  0
SPLINE
  5
30F
330
1F
100
AcDbEntity
  8
0
  6
Continuous
 62
     7
370
    25
100
AcDbSpline
210
0.0
220
0.0
230
1.0
 70
    24
 71
     3
 72
    14
 73
    10
 74
     0
 42
0.000000001
 43
0.00000001
 40
0.0
 40
0.0
 40
0.0
 40
0.0
 40
0.1573192316216362
 40
0.3192924973508997
 40
0.4769170674461041
 40
0.6388965518470885
 40
0.800544877397065
 40
0.9666775459160204
 40
0.9999999999999999
 40
0.9999999999999999
 40
0.9999999999999999
 40
0.9999999999999999
 10
105.9176002656847
 20
164.5742775259556
 30
0.0
 10
105.9257336121202
 20
164.5695817362016
 30
0.0
 10
105.9422409168434
 20
164.5600512393761
 30
0.0
 10
105.9743773323651
 20
164.5414972712238
 30
0.0
 10
106.011118529612
 20
164.520284731103
 30
0.0
 10
106.0516784451583
 20
164.496867452944
 30
0.0
 10
106.0955633067636
 20
164.4715305162829
 30
0.0
 10
106.1290587559179
 20
164.452191909697
 30
0.0
 10
106.1475855048692
 20
164.4414954862027
 30
0.0
 10
106.1506807211424
 20
164.4397084622542
 30
0.0
  0
SPLINE
  5
310
330
1F
100
AcDbEntity
  8
0
  6
Continuous
 62
     7
370
    25
100
AcDbSpline
210
0.0
220
0.0
230
1.0
 70
    24
 71
     3
 72
    14
 73
    10
 74
     0
 42
0.000000001
 43
0.00000001
 40
0.0
 40
0.0
 40
0.0
 40
0.0
 40
0.1573192316143233
 40
0.3192924973355863
 40
0.4769170674305223
 40
0.6388965518312382
 40
0.8005448773809727
 40
0.9666775458996761
 40
0.9999999999999999
 40
0.9999999999999999
 40
0.9999999999999999
 40
0.9999999999999999
 10
109.4176002656847
 20
170.6364553524466
 30
0.0
 10
109.4257336121198
 20
170.6317595626929
 30
0.0
 10
109.4422409168422
 20
170.6222290658679
 30
0.0
 10
109.4743773323624
 20
170.6036750977165
 30
0.0
 10
109.5111185296083
 20
170.5824625575962
 30
0.0
 10
109.5516784451542
 20
170.5590452794375
 30
0.0
 10
109.5955633067592
 20
170.5337083427765
 30
0.0
 10
109.6290587559149
 20
170.5143697361898
 30
0.0
 10
109.6475855048677
 20
170.5036733126947
 30
0.0
 10
109.6506807211425
 20
170.5018862887453
 30
0.0
  0
ARC
  5
311
330
1F
100
AcDbEntity
  8
0
  6
Continuous
 62
     7
370
    25
100
AcDbCircle
 10
96.5739172123
 20
174.0103073364
 30
0.0
 40
14.09999999999999
100
AcDbArc
 50
255.627382986
 51
284.372617014
  0
ARC
  5
312
330
1F
100
AcDbEntity
  8
0
  6
Continuous
 62
     7
370
    25
100
AcDbCircle
 10
96.5739172123
 20
174.0103073364
 30
0.0
 40
14.39999999999998
100
AcDbArc
 50
255.9330478251
 51
284.0669521749
  0
SPLINE
  5
313
330
1F
100
AcDbEntity
  8
0
  6
Continuous
 62
     7
370
    25
100
AcDbSpline
210
0.0
220
0.0
230
1.0
 70
    24
 71
     3
 72
    17
 73
    13
 74
     0
 42
0.000000001
 43
0.00000001
 40
0.0
 40
0.0
 40
0.0
 40
0.0
 40
0.0330371537940475
 40
0.1343126648372149
 40
0.238514790103364
 40
0.34007350092392
 40
0.4444692777750461
 40
0.5480661691946639
 40
0.6545040952196047
 40
0.7611308346402587
 40
0.8706916735132127
 40
1.0
 40
1.0
 40
1.0
 40
1.0
 10
100.0739172123042
 20
160.0421292160901
 30
0.0
 10
100.0739172123042
 20
160.0422178578166
 30
0.0
 10
100.0739172123042
 20
160.0425782310671
 30
0.0
 10
100.0739172123042
 20
160.0479985420309
 30
0.0
 10
100.0739172123042
 20
160.0627492889393
 30
0.0
 10
100.0739172123042
 20
160.0853950980015
 30
0.0
 10
100.0739172123042
 20
160.1149343807747
 30
0.0
 10
100.0739172123042
 20
160.1511542360256
 30
0.0
 10
100.0739172123042
 20
160.1928859796327
 30
0.0
 10
100.0739172123042
 20
160.2396106593523
 30
0.0
 10
100.0739172123042
 20
160.2928260977108
 30
0.0
 10
100.0739172123042
 20
160.3309646993938
 30
0.0
 10
100.0739172123042
 20
160.3516104732037
 30
0.0
  0
SPLINE
  5
314
330
1F
100
AcDbEntity
  8
0
  6
Continuous
 62
     7
370
    25
100
AcDbSpline
210
0.0
220
0.0
230
1.0
 70
    24
 71
     3
 72
    17
 73
    13
 74
     0
 42
0.000000001
 43
0.00000001
 40
0.0
 40
0.0
 40
0.0
 40
0.0
 40
0.0330371537940474
 40
0.1343126648372084
 40
0.2385147901033635
 40
0.3400735009239196
 40
0.4444692777750459
 40
0.5480661691946639
 40
0.6545040952196078
 40
0.7611308346402619
 40
0.8706916735132162
 40
1.0
 40
1.0
 40
1.0
 40
1.0
 10
93.07391721230421
 20
160.0421292160901
 30
0.0
 10
93.07391721230421
 20
160.0422178578166
 30
0.0
 10
93.07391721230421
 20
160.0425782310671
 30
0.0
 10
93.07391721230421
 20
160.0479985420309
 30
0.0
 10
93.07391721230421
 20
160.0627492889393
 30
0.0
 10
93.07391721230421
 20
160.0853950980015
 30
0.0
 10
93.07391721230421
 20
160.1149343807747
 30
0.0
 10
93.07391721230421
 20
160.1511542360256
 30
0.0
 10
93.07391721230421
 20
160.1928859796327
 30
0.0
 10
93.07391721230421
 20
160.2396106593523
 30
0.0
 10
93.07391721230421
 20
160.2928260977108
 30
0.0
 10
93.07391721230421
 20
160.3309646993938
 30
0.0
 10
93.07391721230421
 20
160.3516104732037
 30
0.0
  0
ARC
  5
315
330
1F
100
AcDbEntity
  8
0
  6
Continuous
 62
     7
370
    25
100
AcDbCircle
 10
96.5739172123
 20
174.0103073364
 30
0.0
 40
14.10000000000005
100
AcDbArc
 50
135.627382986
 51
164.372617014
  0
ARC
  5
316
330
1F
100
AcDbEntity
  8
0
  6
Continuous
 62
     7
370
    25
100
AcDbCircle
 10
96.5739172123
 20
174.0103073364
 30
0.0
 40
14.40000000000002
100
AcDbArc
 50
135.9330478251
 51
164.0669521749
  0
SPLINE
  5
317
330
1F
100
AcDbEntity
  8
0
  6
Continuous
 62
     7
370
    25
100
AcDbSpline
210
0.0
220
0.0
230
1.0
 70
    24
 71
     3
 72
    16
 73
    12
 74
     0
 42
0.000000001
 43
0.00000001
 40
0.0
 40
0.0
 40
0.0
 40
0.0
 40
0.1016681444364013
 40
0.2063064114432507
 40
0.3081649300665464
 40
0.4129084363503085
 40
0.5161212158517002
 40
0.6221684164128289
 40
0.7283333991588943
 40
0.8374138871046326
 40
1.0
 40
1.0
 40
1.0
 40
1.0
 10
82.72712011555171
 20
177.9633074832716
 30
0.0
 10
82.72780128816835
 20
177.962914208078
 30
0.0
 10
82.72918353310743
 20
177.9621161685904
 30
0.0
 10
82.74029310726455
 20
177.9557020529602
 30
0.0
 10
82.75782670628323
 20
177.9455790248469
 30
0.0
 10
82.78167720745637
 20
177.9318089315743
 30
0.0
 10
82.81143437254316
 20
177.9146286243011
 30
0.0
 10
82.84614362329012
 20
177.894589229039
 30
0.0
 10
82.88543698414615
 20
177.8719031965714
 30
0.0
 10
82.93503368116605
 20
177.843268530196
 30
0.0
 10
82.97263514730905
 20
177.8215593135965
 30
0.0
 10
82.99513874620722
 20
177.8085668547149
 30
0.0
  0
SPLINE
  5
318
330
1F
100
AcDbEntity
  8
0
  6
Continuous
 62
     7
370
    25
100
AcDbSpline
210
0.0
220
0.0
230
1.0
 70
    24
 71
     3
 72
    16
 73
    12
 74
     0
 42
0.000000001
 43
0.00000001
 40
0.0
 40
0.0
 40
0.0
 40
0.0
 40
0.1016681444364028
 40
0.2063064114432523
 40
0.3081649300665414
 40
0.4129084363503119
 40
0.5161212158517063
 40
0.6221684164128337
 40
0.7283333991588983
 40
0.8374138871046327
 40
1.0
 40
1.0
 40
1.0
 40
1.0
 10
86.22712011555174
 20
184.0254853097627
 30
0.0
 10
86.22780128816838
 20
184.0250920345691
 30
0.0
 10
86.22918353310747
 20
184.0242939950815
 30
0.0
 10
86.24029310726458
 20
184.0178798794513
 30
0.0
 10
86.25782670628327
 20
184.007756851338
 30
0.0
 10
86.2816772074564
 20
183.9939867580653
 30
0.0
 10
86.31143437254322
 20
183.9768064507922
 30
0.0
 10
86.34614362329016
 20
183.95676705553
 30
0.0
 10
86.3854369841462
 20
183.9340810230624
 30
0.0
 10
86.43503368116608
 20
183.9054463566871
 30
0.0
 10
86.47263514730909
 20
183.8837371400875
 30
0.0
 10
86.49513874620725
 20
183.8707446812059
 30
0.0
  0
ARC
  5
319
330
1F
100
AcDbEntity
  8
0
  6
Continuous
 62
     7
370
    25
100
AcDbCircle
 10
96.5739172123
 20
174.0103073364
 30
0.0
 40
14.10000000000004
100
AcDbArc
 50
15.627382986
 51
44.372617014
  0
ARC
  5
31A
330
1F
100
AcDbEntity
  8
0
  6
Continuous
 62
     7
370
    25
100
AcDbCircle
 10
96.5739172123
 20
174.0103073364
 30
0.0
 40
14.40000000000001
100
AcDbArc
 50
15.9330478251
 51
44.0669521749
  0
SPLINE
  5
31B
330
1F
100
AcDbEntity
  8
0
  6
Continuous
 62
     7
370
    25
100
AcDbSpline
210
0.0
220
0.0
230
1.0
 70
    24
 71
     3
 72
    16
 73
    12
 74
     0
 42
0.000000001
 43
0.00000001
 40
0.0
 40
0.0
 40
0.0
 40
0.0
 40
0.1016681444364094
 40
0.2063064114432762
 40
0.3081649300665674
 40
0.4129084363503365
 40
0.5161212158517283
 40
0.6221684164128641
 40
0.7283333991589275
 40
0.8374138871046622
 40
1.0
 40
1.0
 40
1.0
 40
1.0
 10
110.4207143090567
 20
177.9633074832716
 30
0.0
 10
110.4200331364401
 20
177.9629142080781
 30
0.0
 10
110.418650891501
 20
177.9621161685904
 30
0.0
 10
110.4075413173439
 20
177.9557020529602
 30
0.0
 10
110.3900077183252
 20
177.9455790248469
 30
0.0
 10
110.366157217152
 20
177.9318089315743
 30
0.0
 10
110.3364000520652
 20
177.9146286243011
 30
0.0
 10
110.3016908013183
 20
177.894589229039
 30
0.0
 10
110.2623974404622
 20
177.8719031965714
 30
0.0
 10
110.2128007434424
 20
177.843268530196
 30
0.0
 10
110.1751992772994
 20
177.8215593135965
 30
0.0
 10
110.1526956784012
 20
177.8085668547149
 30
0.0
  0
SPLINE
  5
31C
330
1F
100
AcDbEntity
  8
0
  6
Continuous
 62
     7
370
    25
100
AcDbSpline
210
0.0
220
0.0
230
1.0
 70
    24
 71
     3
 72
    16
 73
    12
 74
     0
 42
0.000000001
 43
0.00000001
 40
0.0
 40
0.0
 40
0.0
 40
0.0
 40
0.1016681444364023
 40
0.2063064114432511
 40
0.3081649300665408
 40
0.4129084363503074
 40
0.5161212158517007
 40
0.6221684164128328
 40
0.7283333991588972
 40
0.837413887104636
 40
0.9999999999999999
 40
0.9999999999999999
 40
0.9999999999999999
 40
0.9999999999999999
 10
106.9207143090567
 20
184.0254853097627
 30
0.0
 10
106.92003313644
 20
184.0250920345691
 30
0.0
 10
106.9186508915009
 20
184.0242939950815
 30
0.0
 10
106.9075413173438
 20
184.0178798794513
 30
0.0
 10
106.8900077183252
 20
184.007756851338
 30
0.0
 10
106.866157217152
 20
183.9939867580653
 30
0.0
 10
106.8364000520652
 20
183.9768064507922
 30
0.0
 10
106.8016908013182
 20
183.95676705553
 30
0.0
 10
106.7623974404622
 20
183.9340810230624
 30
0.0
 10
106.7128007434423
 20
183.9054463566871
 30
0.0
 10
106.6751992772993
 20
183.8837371400875
 30
0.0
 10
106.6526956784012
 20
183.8707446812059
 30
0.0
  0
ARC
  5
31D
330
1F
100
AcDbEntity
  8
0
  6
Continuous
 62
     7
370
    25
100
AcDbCircle
 10
96.5739172123
 20
174.0103073364
 30
0.0
 40
13.53923048454135
100
AcDbArc
 50
75.0184467987
 51
104.9815532013
  0
ARC
  5
31E
330
1F
100
AcDbEntity
  8
0
  6
Continuous
 62
     7
370
    25
100
AcDbCircle
 10
96.5739172123
 20
174.0103073364
 30
0.0
 40
13.27942286340603
100
AcDbArc
 50
74.7182578444
 51
105.2817421556
  0
SPLINE
  5
31F
330
1F
100
AcDbEntity
  8
0
  6
Continuous
 62
     7
370
    25
100
AcDbSpline
210
0.0
220
0.0
230
1.0
 70
    24
 71
     3
 72
    11
 73
     7
 74
     0
 42
0.000000001
 43
0.00000001
 40
0.0
 40
0.0
 40
0.0
 40
0.0
 40
0.0938204671136569
 40
0.4032801114769176
 40
0.7229806208979515
 40
0.9999999999999999
 40
0.9999999999999999
 40
0.9999999999999999
 40
0.9999999999999999
 10
100.0739172123042
 20
186.8201891307221
 30
0.0
 10
100.0739172123042
 20
186.8256137468803
 30
0.0
 10
100.0739172123042
 20
186.8489310450807
 30
0.0
 10
100.0739172123042
 20
186.9064100931881
 30
0.0
 10
100.0739172123042
 20
186.9955353467809
 30
0.0
 10
100.0739172123042
 20
187.059590495674
 30
0.0
 10
100.0739172123042
 20
187.0893272581248
 30
0.0
  0
SPLINE
  5
320
330
1F
100
AcDbEntity
  8
0
  6
Continuous
 62
     7
370
    25
100
AcDbSpline
210
0.0
220
0.0
230
1.0
 70
    24
 71
     3
 72
    11
 73
     7
 74
     0
 42
0.000000001
 43
0.00000001
 40
0.0
 40
0.0
 40
0.0
 40
0.0
 40
0.0938204671136539
 40
0.403280111476899
 40
0.7229806208979517
 40
0.9999999999999999
 40
0.9999999999999999
 40
0.9999999999999999
 40
0.9999999999999999
 10
93.07391721230421
 20
186.8201891307221
 30
0.0
 10
93.07391721230421
 20
186.8256137468803
 30
0.0
 10
93.07391721230421
 20
186.8489310450807
 30
0.0
 10
93.07391721230421
 20
186.9064100931881
 30
0.0
 10
93.07391721230421
 20
186.9955353467809
 30
0.0
 10
93.07391721230421
 20
187.059590495674
 30
0.0
 10
93.07391721230421
 20
187.0893272581248
 30
0.0
  0
LINE
  5
321
330
1F
100
AcDbEntity
  8
0
  6
Continuous
 62
     7
370
    25
100
AcDbLine
 10
82.9951387462
 20
177.8085668547
 30
0.0
 11
83.4971537035
 21
177.518728384
 31
0.0
  0
LINE
  5
322
330
1F
100
AcDbEntity
  8
0
  6
Continuous
 62
     7
370
    25
100
AcDbLine
 10
86.4951387462
 20
183.8707446812
 30
0.0
 11
86.9971537035
 21
183.5809062105
 31
0.0
  0
LINE
  5
323
330
1F
100
AcDbEntity
  8
0
  6
Continuous
 62
     7
370
    25
100
AcDbLine
 10
100.0739172123
 20
187.0893272581
 30
0.0
 11
100.0739172123
 21
187.6690041995
 31
0.0
  0
LINE
  5
324
330
1F
100
AcDbEntity
  8
0
  6
Continuous
 62
     7
370
    25
100
AcDbLine
 10
93.0739172123
 20
187.0893272581
 30
0.0
 11
93.0739172123
 21
187.6690041995
 31
0.0
  0
LINE
  5
325
330
1F
100
AcDbEntity
  8
0
  6
Continuous
 62
     7
370
    25
100
AcDbLine
 10
110.1526956784
 20
177.8085668547
 30
0.0
 11
109.6506807211
 21
177.518728384
 31
0.0
  0
LINE
  5
326
330
1F
100
AcDbEntity
  8
0
  6
Continuous
 62
     7
370
    25
100
AcDbLine
 10
106.6526956784
 20
183.8707446812
 30
0.0
 11
106.1506807211
 21
183.5809062105
 31
0.0
  0
LINE
  5
327
330
1F
100
AcDbEntity
  8
0
  6
Continuous
 62
     7
370
    25
100
AcDbLine
 10
86.9971537035
 20
164.4397084623
 30
0.0
 11
86.4951387462
 21
164.1498699915
 31
0.0
  0
LINE
  5
328
330
1F
100
AcDbEntity
  8
0
  6
Continuous
 62
     7
370
    25
100
AcDbLine
 10
83.4971537035
 20
170.5018862887
 30
0.0
 11
82.9951387462
 21
170.212047818
 31
0.0
  0
LINE
  5
329
330
1F
100
AcDbEntity
  8
0
  6
Continuous
 62
     7
370
    25
100
AcDbLine
 10
100.0739172123
 20
160.3516104732
 30
0.0
 11
100.0739172123
 21
160.9312874146
 31
0.0
  0
LINE
  5
32A
330
1F
100
AcDbEntity
  8
0
  6
Continuous
 62
     7
370
    25
100
AcDbLine
 10
93.0739172123
 20
160.3516104732
 30
0.0
 11
93.0739172123
 21
160.9312874146
 31
0.0
  0
LINE
  5
32B
330
1F
100
AcDbEntity
  8
0
  6
Continuous
 62
     7
370
    25
100
AcDbLine
 10
106.1506807211
 20
164.4397084623
 30
0.0
 11
106.6526956784
 21
164.1498699915
 31
0.0
  0
LINE
  5
32C
330
1F
100
AcDbEntity
  8
0
  6
Continuous
 62
     7
370
    25
100
AcDbLine
 10
109.6506807211
 20
170.5018862887
 30
0.0
 11
110.1526956784
 21
170.212047818
 31
0.0
  0
ARC
  5
32D
330
1F
100
AcDbEntity
  8
0
  6
Continuous
 62
     7
370
    25
100
AcDbCircle
 10
96.5739172123
 20
174.0103073364
 30
0.0
 40
12.64433756729743
100
AcDbArc
 50
133.9304654892
 51
166.0695345108
  0
LINE
  5
32E
330
1F
100
AcDbEntity
  8
0
  6
Continuous
 62
     7
370
    25
100
AcDbLine
 10
83.7302341589
 20
177.3841593203
 30
0.0
 11
84.301467194
 21
177.0543577737
 31
0.0
  0
LINE
  5
32F
330
1F
100
AcDbEntity
  8
0
  6
Continuous
 62
     7
370
    25
100
AcDbLine
 10
87.2302341589
 20
183.4463371468
 30
0.0
 11
87.801467194
 21
183.1165356002
 31
0.0
  0
ARC
  5
330
330
1F
100
AcDbEntity
  8
0
  6
Continuous
 62
     7
370
    25
100
AcDbCircle
 10
96.5739172123
 20
174.0103073364
 30
0.0
 40
12.64433756729705
100
AcDbArc
 50
73.9304654892
 51
106.0695345108
  0
SPLINE
  5
331
330
1F
100
AcDbEntity
  8
0
  6
Continuous
 62
     7
370
    25
100
AcDbSpline
210
0.0
220
0.0
230
1.0
 70
    24
 71
     3
 72
     9
 73
     5
 74
     0
 42
0.000000001
 43
0.00000001
 40
0.0
 40
0.0
 40
0.0
 40
0.0
 40
0.4587587611714903
 40
1.0
 40
1.0
 40
1.0
 40
1.0
 10
100.0739172123042
 20
186.1605860375305
 30
0.0
 10
100.0739172123042
 20
186.2615627339652
 30
0.0
 10
100.0739172123042
 20
186.4816712201265
 30
0.0
 10
100.0739172123042
 20
186.7013110156804
 30
0.0
 10
100.0739172123042
 20
186.8201891307221
 30
0.0
  0
SPLINE
  5
332
330
1F
100
AcDbEntity
  8
0
  6
Continuous
 62
     7
370
    25
100
AcDbSpline
210
0.0
220
0.0
230
1.0
 70
    24
 71
     3
 72
     9
 73
     5
 74
     0
 42
0.000000001
 43
0.00000001
 40
0.0
 40
0.0
 40
0.0
 40
0.0
 40
0.458758761171493
 40
0.9999999999999999
 40
0.9999999999999999
 40
0.9999999999999999
 40
0.9999999999999999
 10
93.07391721230421
 20
186.1605860375305
 30
0.0
 10
93.07391721230421
 20
186.2615627339652
 30
0.0
 10
93.07391721230421
 20
186.4816712201266
 30
0.0
 10
93.07391721230421
 20
186.7013110156804
 30
0.0
 10
93.07391721230421
 20
186.8201891307221
 30
0.0
  0
ARC
  5
333
330
1F
100
AcDbEntity
  8
0
  6
Continuous
 62
     7
370
    25
100
AcDbCircle
 10
96.5739172123
 20
174.0103073364
 30
0.0
 40
12.64433756729743
100
AcDbArc
 50
13.9304654892
 51
46.0695345108
  0
LINE
  5
334
330
1F
100
AcDbEntity
  8
0
  6
Continuous
 62
     7
370
    25
100
AcDbLine
 10
109.4176002657
 20
177.3841593203
 30
0.0
 11
108.8463672306
 21
177.0543577737
 31
0.0
  0
LINE
  5
335
330
1F
100
AcDbEntity
  8
0
  6
Continuous
 62
     7
370
    25
100
AcDbLine
 10
105.9176002657
 20
183.4463371468
 30
0.0
 11
105.3463672306
 21
183.1165356002
 31
0.0
  0
ARC
  5
336
330
1F
100
AcDbEntity
  8
0
  6
Continuous
 62
     7
370
    25
100
AcDbCircle
 10
96.5739172123
 20
174.0103073364
 30
0.0
 40
12.64433756729741
100
AcDbArc
 50
193.9304654892
 51
226.0695345108
  0
LINE
  5
337
330
1F
100
AcDbEntity
  8
0
  6
Continuous
 62
     7
370
    25
100
AcDbLine
 10
87.801467194
 20
164.9040790726
 30
0.0
 11
87.2302341589
 21
164.574277526
 31
0.0
  0
LINE
  5
338
330
1F
100
AcDbEntity
  8
0
  6
Continuous
 62
     7
370
    25
100
AcDbLine
 10
84.301467194
 20
170.966256899
 30
0.0
 11
83.7302341589
 21
170.6364553524
 31
0.0
  0
ARC
  5
339
330
1F
100
AcDbEntity
  8
0
  6
Continuous
 62
     7
370
    25
100
AcDbCircle
 10
96.5739172123
 20
174.0103073364
 30
0.0
 40
12.64433756729741
100
AcDbArc
 50
313.9304654892
 51
346.0695345108
  0
LINE
  5
33A
330
1F
100
AcDbEntity
  8
0
  6
Continuous
 62
     7
370
    25
100
AcDbLine
 10
105.3463672306
 20
164.9040790726
 30
0.0
 11
105.9176002657
 21
164.574277526
 31
0.0
  0
LINE
  5
33B
330
1F
100
AcDbEntity
  8
0
  6
Continuous
 62
     7
370
    25
100
AcDbLine
 10
108.8463672306
 20
170.966256899
 30
0.0
 11
109.4176002657
 21
170.6364553524
 31
0.0
  0
ARC
  5
33C
330
1F
100
AcDbEntity
  8
0
  6
Continuous
 62
     7
370
    25
100
AcDbCircle
 10
96.5739172123
 20
174.0103073364
 30
0.0
 40
12.6443375672831
100
AcDbArc
 50
253.9304654892
 51
286.0695345108
  0
SPLINE
  5
33D
330
1F
100
AcDbEntity
  8
0
  6
Continuous
 62
     7
370
    25
100
AcDbSpline
210
0.0
220
0.0
230
1.0
 70
    24
 71
     3
 72
     9
 73
     5
 74
     0
 42
0.000000001
 43
0.00000001
 40
0.0
 40
0.0
 40
0.0
 40
0.0
 40
0.5412412388303682
 40
1.0
 40
1.0
 40
1.0
 40
1.0
 10
100.0739172123042
 20
161.2004255420275
 30
0.0
 10
100.0739172123042
 20
161.3193036570673
 30
0.0
 10
100.0739172123042
 20
161.5389434526171
 30
0.0
 10
100.0739172123042
 20
161.7590519387927
 30
0.0
 10
100.0739172123042
 20
161.8600286352335
 30
0.0
  0
SPLINE
  5
33E
330
1F
100
AcDbEntity
  8
0
  6
Continuous
 62
     7
370
    25
100
AcDbSpline
210
0.0
220
0.0
230
1.0
 70
    24
 71
     3
 72
     9
 73
     5
 74
     0
 42
0.000000001
 43
0.00000001
 40
0.0
 40
0.0
 40
0.0
 40
0.0
 40
0.5412412388303645
 40
1.0
 40
1.0
 40
1.0
 40
1.0
 10
93.07391721230421
 20
161.2004255420275
 30
0.0
 10
93.07391721230421
 20
161.3193036570673
 30
0.0
 10
93.07391721230421
 20
161.5389434526171
 30
0.0
 10
93.07391721230421
 20
161.7590519387927
 30
0.0
 10
93.07391721230421
 20
161.8600286352335
 30
0.0
  0
SPLINE
  5
33F
330
1F
100
AcDbEntity
  8
0
  6
Continuous
 62
     7
370
    25
100
AcDbSpline
210
0.0
220
0.0
230
1.0
 70
    24
 71
     3
 72
    11
 73
     7
 74
     0
 42
0.000000001
 43
0.00000001
 40
0.0
 40
0.0
 40
0.0
 40
0.0
 40
0.3087824674871933
 40
0.6263522705615404
 40
0.935612440712459
 40
1.0
 40
1.0
 40
1.0
 40
1.0
 10
84.301467194042
 20
177.0543577737074
 30
0.0
 10
84.31257199591407
 20
177.0479464133572
 30
0.0
 10
84.33509762025834
 20
177.0349412380784
 30
0.0
 10
84.3540795693268
 20
177.023982004674
 30
0.0
 10
84.36287861408009
 20
177.018901873817
 30
0.0
 10
84.36114397199037
 20
177.0199033698945
 30
0.0
 10
84.360845055761
 20
177.02007594926
 30
0.0
  0
SPLINE
  5
340
330
1F
100
AcDbEntity
  8
0
  6
Continuous
 62
     7
370
    25
100
AcDbSpline
210
0.0
220
0.0
230
1.0
 70
    24
 71
     3
 72
    11
 73
     7
 74
     0
 42
0.000000001
 43
0.00000001
 40
0.0
 40
0.0
 40
0.0
 40
0.0
 40
0.30842186361547
 40
0.6256208007485609
 40
0.9345198091499956
 40
1.0
 40
1.0
 40
1.0
 40
1.0
 10
87.80146719404205
 20
183.1165356001984
 30
0.0
 10
87.81257165028927
 20
183.1101244393949
 30
0.0
 10
87.83509657354804
 20
183.097119668888
 30
0.0
 10
87.8540838482515
 20
183.0861573607268
 30
0.0
 10
87.86288309986688
 20
183.0810771104379
 30
0.0
 10
87.86113757103494
 20
183.0820848919789
 30
0.0
 10
87.86083227212605
 20
183.0822611563862
 30
0.0
  0
SPLINE
  5
341
330
1F
100
AcDbEntity
  8
0
  6
Continuous
 62
     7
370
    25
100
AcDbSpline
210
0.0
220
0.0
230
1.0
 70
    24
 71
     3
 72
     9
 73
     5
 74
     0
 42
0.000000001
 43
0.00000001
 40
0.0
 40
0.0
 40
0.0
 40
0.0
 40
0.6198998454447519
 40
1.0
 40
1.0
 40
1.0
 40
1.0
 10
108.8463672305664
 20
177.0543577737074
 30
0.0
 10
108.8243706272374
 20
177.0416580288541
 30
0.0
 10
108.7888865026798
 20
177.0211712599888
 30
0.0
 10
108.790940337517
 20
177.0223570420849
 30
0.0
 10
108.791721000456
 20
177.0228077580429
 30
0.0
  0
SPLINE
  5
342
330
1F
100
AcDbEntity
  8
0
  6
Continuous
 62
     7
370
    25
100
AcDbSpline
210
0.0
220
0.0
230
1.0
 70
    24
 71
     3
 72
     9
 73
     5
 74
     0
 42
0.000000001
 43
0.00000001
 40
0.0
 40
0.0
 40
0.0
 40
0.0
 40
0.6203776263484697
 40
1.0
 40
1.0
 40
1.0
 40
1.0
 10
105.3463672305664
 20
183.1165356001984
 30
0.0
 10
105.3243669212859
 20
183.1038337157131
 30
0.0
 10
105.288904150957
 20
183.0833592757175
 30
0.0
 10
105.2909504303404
 20
183.0845406956703
 30
0.0
 10
105.2917272437771
 20
183.0849891891172
 30
0.0
  0
SPLINE
  5
343
330
1F
100
AcDbEntity
  8
0
  6
Continuous
 62
     7
370
    25
100
AcDbSpline
210
0.0
220
0.0
230
1.0
 70
    24
 71
     3
 72
    10
 73
     6
 74
     0
 42
0.000000001
 43
0.00000001
 40
0.0
 40
0.0
 40
0.0
 40
0.0
 40
0.2438065940822688
 40
0.8630789339565735
 40
1.0
 40
1.0
 40
1.0
 40
1.0
 10
87.85610620269512
 20
164.9356249189052
 30
0.0
 10
87.85754188099058
 20
164.9364538081556
 30
0.0
 10
87.86262420330196
 20
164.9393880883102
 30
0.0
 10
87.83445263865683
 20
164.9231232278788
 30
0.0
 10
87.80652410710567
 20
164.9069986826697
 30
0.0
 10
87.80146719404205
 20
164.9040790725511
 30
0.0
  0
SPLINE
  5
344
330
1F
100
AcDbEntity
  8
0
  6
Continuous
 62
     7
370
    25
100
AcDbSpline
210
0.0
220
0.0
230
1.0
 70
    24
 71
     3
 72
    10
 73
     6
 74
     0
 42
0.000000001
 43
0.00000001
 40
0.0
 40
0.0
 40
0.0
 40
0.0
 40
0.2432054301952669
 40
0.8629700834886752
 40
1.0
 40
1.0
 40
1.0
 40
1.0
 10
84.35611259273735
 20
170.9978064346889
 30
0.0
 10
84.35754189307664
 20
170.9986316416246
 30
0.0
 10
84.36261350448
 20
171.0015597378335
 30
0.0
 10
84.33445192727352
 20
170.9853006436526
 30
0.0
 10
84.30652399804555
 20
170.9691764461949
 30
0.0
 10
84.301467194042
 20
170.9662568990422
 30
0.0
  0
SPLINE
  5
345
330
1F
100
AcDbEntity
  8
0
  6
Continuous
 62
     7
370
    25
100
AcDbSpline
210
0.0
220
0.0
230
1.0
 70
    24
 71
     3
 72
    11
 73
     7
 74
     0
 42
0.000000001
 43
0.00000001
 40
0.0
 40
0.0
 40
0.0
 40
0.0
 40
0.2501000575408308
 40
0.5530351707915078
 40
0.8646060188973351
 40
1.0
 40
1.0
 40
1.0
 40
1.0
 10
105.2870040256137
 20
164.9383524349105
 30
0.0
 10
105.2872982580604
 20
164.9381825597282
 30
0.0
 10
105.287948881227
 20
164.9378069222678
 30
0.0
 10
105.3033393839875
 20
164.9289212113561
 30
0.0
 10
105.3243526287481
 20
164.916789208837
 30
0.0
 10
105.3412490035733
 20
164.9070340822833
 30
0.0
 10
105.3463672305664
 20
164.9040790725511
 30
0.0
  0
SPLINE
  5
346
330
1F
100
AcDbEntity
  8
0
  6
Continuous
 62
     7
370
    25
100
AcDbSpline
210
0.0
220
0.0
230
1.0
 70
    24
 71
     3
 72
    11
 73
     7
 74
     0
 42
0.000000001
 43
0.00000001
 40
0.0
 40
0.0
 40
0.0
 40
0.0
 40
0.2509864338824483
 40
0.5535634800067356
 40
0.8647660536096236
 40
1.0
 40
1.0
 40
1.0
 40
1.0
 10
108.7869909522854
 20
171.0005378092912
 30
0.0
 10
108.7872850560926
 20
171.000368008379
 30
0.0
 10
108.7879337171556
 20
170.9999935037396
 30
0.0
 10
108.8033375875515
 20
170.99110007502
 30
0.0
 10
108.8243528004066
 20
170.978966936221
 30
0.0
 10
108.8412490434827
 20
170.9692118857328
 30
0.0
 10
108.8463672305664
 20
170.9662568990422
 30
0.0
  0
LINE
  5
347
330
1F
100
AcDbEntity
  8
0
  6
Continuous
 62
     7
370
    25
100
AcDbLine
 10
86.9777152893
 20
184.7468295225
 30
0.0
 11
88.0771735194
 21
184.1120570174
 31
0.0
  0
SPLINE
  5
348
330
1F
100
AcDbEntity
  8
0
  6
Continuous
 62
     7
370
    25
100
AcDbSpline
210
0.0
220
0.0
230
1.0
 70
     8
 71
     3
 72
    17
 73
    13
 74
     0
 42
0.000000001
 43
0.00000001
 40
0.0
 40
0.0
 40
0.0
 40
0.0
 40
0.1129240618947718
 40
0.229030911140302
 40
0.341991788926753
 40
0.4584894130078267
 40
0.566983830684051
 40
0.6789295437268346
 40
0.7824747747937895
 40
0.889205339183591
 40
0.9443657363388125
 40
1.0
 40
1.0
 40
1.0
 40
1.0
 10
88.07717351944547
 20
184.1120570173887
 30
0.0
 10
88.03090945075662
 20
184.072824882415
 30
0.0
 10
87.93707735131676
 20
183.9932548468685
 30
0.0
 10
87.80274447055642
 20
183.8751924737395
 30
0.0
 10
87.67618607775243
 20
183.7611760675543
 30
0.0
 10
87.56510517937168
 20
183.6585128487705
 30
0.0
 10
87.47021526244755
 20
183.5689246596349
 30
0.0
 10
87.39656631660527
 20
183.4981311946202
 30
0.0
 10
87.34261506115787
 20
183.4455724224092
 30
0.0
 10
87.31518262955127
 20
183.418601473714
 30
0.0
 10
87.30326587356159
 20
183.4068514746172
 30
0.0
 10
87.3021259709266
 20
183.4057260018922
 30
0.0
 10
87.30155358193895
 20
183.4051608587177
 30
0.0
  0
SPLINE
  5
349
330
1F
100
AcDbEntity
  8
0
  6
Continuous
 62
     7
370
    25
100
AcDbSpline
210
0.0
220
0.0
230
1.0
 70
     8
 71
     3
 72
    17
 73
    13
 74
     0
 42
0.000000001
 43
0.00000001
 40
0.0
 40
0.0
 40
0.0
 40
0.0
 40
0.1011078098377444
 40
0.2051746848116971
 40
0.3062756041039808
 40
0.4102526973866797
 40
0.5124635408357118
 40
0.6174817055656231
 40
0.7226584328948922
 40
0.8306649991441051
 40
0.9146735798755321
 40
1.0
 40
1.0
 40
1.0
 40
1.0
 10
86.22712011555174
 20
184.0254853097627
 30
0.0
 10
86.22894353269945
 20
184.0273708594536
 30
0.0
 10
86.23264373191412
 20
184.0311971421526
 30
0.0
 10
86.26243407096052
 20
184.0618906039515
 30
0.0
 10
86.30963039289253
 20
184.1101332822134
 30
0.0
 10
86.37411958677039
 20
184.1753300241969
 30
0.0
 10
86.45510363118292
 20
184.256023943269
 30
0.0
 10
86.55027511768931
 20
184.3492295950685
 30
0.0
 10
86.65894642758487
 20
184.4535727376644
 30
0.0
 10
86.76903699993622
 20
184.556931855999
 30
0.0
 10
86.8764462081619
 20
184.6558122210749
 30
0.0
 10
86.94378424420754
 20
184.7163334211741
 30
0.0
 10
86.97771528932489
 20
184.7468295225116
 30
0.0
  0
LINE
  5
34A
330
1F
100
AcDbEntity
  8
0
  6
Continuous
 62
     7
370
    25
100
AcDbLine
 10
101.0739172123
 20
187.6891230746
 30
0.0
 11
101.0739172123
 21
186.4195780643
 31
0.0
  0
SPLINE
  5
34B
330
1F
100
AcDbEntity
  8
0
  6
Continuous
 62
     7
370
    25
100
AcDbSpline
210
0.0
220
0.0
230
1.0
 70
     8
 71
     3
 72
    12
 73
     8
 74
     0
 42
0.000000001
 43
0.00000001
 40
0.0
 40
0.0
 40
0.0
 40
0.0
 40
0.2290264614102332
 40
0.4583918128374433
 40
0.6787307727681373
 40
0.8889393507262229
 40
1.0
 40
1.0
 40
1.0
 40
1.0
 10
101.0739172123042
 20
186.4195780643427
 30
0.0
 10
100.9579070225638
 20
186.4605543819939
 30
0.0
 10
100.725714983027
 20
186.5425676498754
 30
0.0
 10
100.4156463848742
 20
186.6398283177147
 30
0.0
 10
100.1906526509332
 20
186.7055958603577
 30
0.0
 10
100.0863324947896
 20
186.7344211552261
 30
0.0
 10
100.0771065577755
 20
186.7369591771565
 30
0.0
 10
100.0739172123042
 20
186.7378365545695
 30
0.0
  0
SPLINE
  5
34C
330
1F
100
AcDbEntity
  8
0
  6
Continuous
 62
     7
370
    25
100
AcDbSpline
210
0.0
220
0.0
230
1.0
 70
     8
 71
     3
 72
    12
 73
     8
 74
     0
 42
0.000000001
 43
0.00000001
 40
0.0
 40
0.0
 40
0.0
 40
0.0
 40
0.2050894099579426
 40
0.4101041319331135
 40
0.6172952557786935
 40
0.8304548293798061
 40
1.0
 40
1.0
 40
1.0
 40
1.0
 10
100.0739172123042
 20
187.9784854566595
 30
0.0
 10
100.0844688859233
 20
187.9758616989429
 30
0.0
 10
100.105568390529
 20
187.9706151390109
 30
0.0
 10
100.2694147603754
 20
187.9285982596215
 30
0.0
 10
100.5109586381568
 20
187.8625494544648
 30
0.0
 10
100.7934341881565
 20
187.7796576258326
 30
0.0
 10
100.9878066654174
 20
187.7169179108124
 30
0.0
 10
101.0739172123042
 20
187.6891230745884
 30
0.0
  0
LINE
  5
34D
330
1F
100
AcDbEntity
  8
0
  6
Continuous
 62
     7
370
    25
100
AcDbLine
 10
82.4777152893
 20
171.0680137843
 30
0.0
 11
83.5771735194
 21
171.7027862894
 31
0.0
  0
SPLINE
  5
34E
330
1F
100
AcDbEntity
  8
0
  6
Continuous
 62
     7
370
    25
100
AcDbSpline
210
0.0
220
0.0
230
1.0
 70
     8
 71
     3
 72
    12
 73
     8
 74
     0
 42
0.000000001
 43
0.00000001
 40
0.0
 40
0.0
 40
0.0
 40
0.0
 40
0.2290264614102333
 40
0.4583918128374424
 40
0.6787307727681374
 40
0.8889393507262218
 40
0.9999999999999999
 40
0.9999999999999999
 40
0.9999999999999999
 40
0.9999999999999999
 10
83.57717351944544
 20
171.7027862894208
 30
0.0
 10
83.59969208227606
 20
171.581830359182
 30
0.0
 10
83.64476252861171
 20
171.339739520446
 30
0.0
 10
83.71556661855023
 20
171.0225819036101
 30
0.0
 10
83.77110712284747
 20
170.7948478430035
 30
0.0
 10
83.79830376329168
 20
170.6900912902221
 30
0.0
 10
83.80071874033162
 20
170.680832383429
 30
0.0
 10
83.80155358193892
 20
170.6776316405229
 30
0.0
  0
SPLINE
  5
34F
330
1F
100
AcDbEntity
  8
0
  6
Continuous
 62
     7
370
    25
100
AcDbSpline
210
0.0
220
0.0
230
1.0
 70
     8
 71
     3
 72
    12
 73
     8
 74
     0
 42
0.000000001
 43
0.00000001
 40
0.0
 40
0.0
 40
0.0
 40
0.0
 40
0.2050894099579426
 40
0.4101041319331134
 40
0.6172952557786928
 40
0.8304548293798053
 40
1.0
 40
1.0
 40
1.0
 40
1.0
 10
82.72712011555171
 20
170.0573071894779
 30
0.0
 10
82.72411651957812
 20
170.0677570857428
 30
0.0
 10
82.71811042145883
 20
170.0886530727046
 30
0.0
 10
82.67257492147453
 20
170.2515566310041
 30
0.0
 10
82.60900292573919
 20
170.4937641678697
 30
0.0
 10
82.53955158010098
 20
170.7798410844335
 30
0.0
 10
82.49669952850425
 20
170.9795424450481
 30
0.0
 10
82.47771528932485
 20
171.0680137842979
 30
0.0
  0
LINE
  5
350
330
1F
100
AcDbEntity
  8
0
  6
Continuous
 62
     7
370
    25
100
AcDbLine
 10
110.6701191353
 20
176.9526008885
 30
0.0
 11
109.5706609052
 21
176.3178283833
 31
0.0
  0
SPLINE
  5
351
330
1F
100
AcDbEntity
  8
0
  6
Continuous
 62
     7
370
    25
100
AcDbSpline
210
0.0
220
0.0
230
1.0
 70
     8
 71
     3
 72
    17
 73
    13
 74
     0
 42
0.000000001
 43
0.00000001
 40
0.0
 40
0.0
 40
0.0
 40
0.0
 40
0.112924061894772
 40
0.229030911140301
 40
0.3419917889267524
 40
0.4584894130078244
 40
0.5669838306840497
 40
0.6789295437268336
 40
0.7824747747937885
 40
0.8892053391835889
 40
0.9443657363388114
 40
1.0
 40
1.0
 40
1.0
 40
1.0
 10
109.570660905163
 20
176.3178283833288
 30
0.0
 10
109.5598169139754
 20
176.3775103095826
 30
0.0
 10
109.537823291532
 20
176.4985563091612
 30
0.0
 10
109.5027447175515
 20
176.6739231830277
 30
0.0
 10
109.4672828097489
 20
176.8405341693507
 30
0.0
 10
109.4339143034382
 20
176.9880646586155
 30
0.0
 10
109.4037736142298
 20
177.1150358318026
 30
0.0
 10
109.3792891480262
 20
177.2142144223713
 30
0.0
 10
109.3607475438235
 20
177.2872169662604
 30
0.0
 10
109.3511062328926
 20
177.3244596232668
 30
0.0
 10
109.3468888131752
 20
177.340654836233
 30
0.0
 10
109.3464840765215
 20
177.3422047572353
 30
0.0
 10
109.3462808426695
 20
177.3429830322266
 30
0.0
  0
SPLINE
  5
352
330
1F
100
AcDbEntity
  8
0
  6
Continuous
 62
     7
370
    25
100
AcDbSpline
210
0.0
220
0.0
230
1.0
 70
     8
 71
     3
 72
    17
 73
    13
 74
     0
 42
0.000000001
 43
0.00000001
 40
0.0
 40
0.0
 40
0.0
 40
0.0
 40
0.1011078098377445
 40
0.2051746848116973
 40
0.3062756041039815
 40
0.4102526973866809
 40
0.5124635408357125
 40
0.6174817055656238
 40
0.7226584328948932
 40
0.8306649991441063
 40
0.9146735798755324
 40
1.0
 40
1.0
 40
1.0
 40
1.0
 10
110.4207143090567
 20
177.9633074832716
 30
0.0
 10
110.4214355344152
 20
177.9607855828546
 30
0.0
 10
110.4228990928273
 20
177.9556679749861
 30
0.0
 10
110.434585240952
 20
177.9145220536851
 30
0.0
 10
110.4527664649074
 20
177.8495275007959
 30
0.0
 10
110.4769839027702
 20
177.7610798496363
 30
0.0
 10
110.5063748644113
 20
177.6505986503378
 30
0.0
 10
110.5395075833928
 20
177.5215748994076
 30
0.0
 10
110.5755357406437
 20
177.3752912130776
 30
0.0
 10
110.6100020766586
 20
177.2282704215368
 30
0.0
 10
110.641930380637
 20
177.0858111360751
 30
0.0
 10
110.6606742593675
 20
176.997234086169
 30
0.0
 10
110.6701191352836
 20
176.9526008884517
 30
0.0
  0
LINE
  5
353
330
1F
100
AcDbEntity
  8
0
  6
Continuous
 62
     7
370
    25
100
AcDbLine
 10
92.0739172123
 20
160.3314915982
 30
0.0
 11
92.0739172123
 21
161.6010366084
 31
0.0
  0
SPLINE
  5
354
330
1F
100
AcDbEntity
  8
0
  6
Continuous
 62
     7
370
    25
100
AcDbSpline
210
0.0
220
0.0
230
1.0
 70
     8
 71
     3
 72
    17
 73
    13
 74
     0
 42
0.000000001
 43
0.00000001
 40
0.0
 40
0.0
 40
0.0
 40
0.0
 40
0.1129240618947712
 40
0.2290309111403016
 40
0.3419917889267522
 40
0.4584894130078253
 40
0.5669838306840508
 40
0.6789295437268346
 40
0.7824747747937896
 40
0.88920533918359
 40
0.9443657363388125
 40
1.0
 40
1.0
 40
1.0
 40
1.0
 10
92.07391721230421
 20
161.6010366084069
 30
0.0
 10
92.13102527218062
 20
161.5805868171268
 30
0.0
 10
92.24685099406385
 20
161.5391108530947
 30
0.0
 10
92.41626244880479
 20
161.4818063523572
 30
0.0
 10
92.57828274941136
 20
161.4292117722194
 30
0.0
 10
92.72273215410277
 20
161.3843445017384
 30
0.0
 10
92.84776276023531
 20
161.3469615176869
 30
0.0
 10
92.94589617228112
 20
161.3185763921329
 30
0.0
 10
93.01838903193126
 20
161.2981326204549
 30
0.0
 10
93.05546277446878
 20
161.2878609121436
 30
0.0
 10
93.07159695017589
 20
161.2834156982742
 30
0.0
 10
93.07314158946451
 20
161.282991249997
 30
0.0
 10
93.07391721230421
 20
161.2827781181801
 30
0.0
  0
SPLINE
  5
355
330
1F
100
AcDbEntity
  8
0
  6
Continuous
 62
     7
370
    25
100
AcDbSpline
210
0.0
220
0.0
230
1.0
 70
     8
 71
     3
 72
    17
 73
    13
 74
     0
 42
0.000000001
 43
0.00000001
 40
0.0
 40
0.0
 40
0.0
 40
0.0
 40
0.1011078098377445
 40
0.2051746848116974
 40
0.3062756041039812
 40
0.4102526973866814
 40
0.5124635408357127
 40
0.6174817055656241
 40
0.7226584328948936
 40
0.8306649991441069
 40
0.9146735798755332
 40
1.0
 40
1.0
 40
1.0
 40
1.0
 10
93.07391721230421
 20
160.0421292160901
 30
0.0
 10
93.07137256979797
 20
160.0427655668162
 30
0.0
 10
93.06620881217121
 20
160.0440568919857
 30
0.0
 10
93.0247323250001
 20
160.0545093514878
 30
0.0
 10
92.9593547791127
 20
160.0712612261152
 30
0.0
 10
92.87064814737207
 20
160.0945121352912
 30
0.0
 10
92.76027314131842
 20
160.1242994155176
 30
0.0
 10
92.63196893583054
 20
160.1601175146483
 30
0.0
 10
92.48726946868408
 20
160.2020580583825
 30
0.0
 10
92.34271256031786
 20
160.2457197315886
 30
0.0
 10
92.2033750481138
 20
160.2892986519745
 30
0.0
 10
92.1172931333376
 20
160.3173545017814
 30
0.0
 10
92.07391721230421
 20
160.3314915981612
 30
0.0
  0
LINE
  5
356
330
1F
100
AcDbEntity
  8
0
  6
Continuous
 62
     7
370
    25
100
AcDbLine
 10
106.1701191353
 20
163.2737851502
 30
0.0
 11
105.0706609052
 21
163.9085576554
 31
0.0
  0
SPLINE
  5
357
330
1F
100
AcDbEntity
  8
0
  6
Continuous
 62
     7
370
    25
100
AcDbSpline
210
0.0
220
0.0
230
1.0
 70
     8
 71
     3
 72
    24
 73
    20
 74
     0
 42
0.000000001
 43
0.00000001
 40
0.0
 40
0.0
 40
0.0
 40
0.0
 40
0.0562803679343543
 40
0.1129342479441301
 40
0.1707859276687838
 40
0.2290617039744218
 40
0.285346420129992
 40
0.3420422993529093
 40
0.4000699051900442
 40
0.4585731918756141
 40
0.512629327653359
 40
0.5670885116118871
 40
0.6228473056461807
 40
0.6790669859368388
 40
0.7306605323227032
 40
0.83569880399546
 40
0.8892871221027319
 40
0.944406802690322
 40
1.0
 40
1.0
 40
1.0
 40
1.0
 10
105.0706609051629
 20
163.9085576553608
 30
0.0
 10
105.0937559938632
 20
163.928061858836
 30
0.0
 10
105.1400994448622
 20
163.9671997080019
 30
0.0
 10
105.2092119897791
 20
164.0266081172106
 30
0.0
 10
105.2778073848813
 20
164.0863412722609
 30
0.0
 10
105.3443915070822
 20
164.1451510625503
 30
0.0
 10
105.4082310078181
 20
164.202289318102
 30
0.0
 10
105.4692655482503
 20
164.2576170312483
 30
0.0
 10
105.5278446639578
 20
164.3113790428141
 30
0.0
 10
105.5818279711878
 20
164.3615151202886
 30
0.0
 10
105.6307581591426
 20
164.407445855689
 30
0.0
 10
105.6748255905474
 20
164.4492092353111
 30
0.0
 10
105.7149617333098
 20
164.4875854367783
 30
0.0
 10
105.7495969471362
 20
164.5209686601943
 30
0.0
 10
105.7882667530877
 20
164.5584904082607
 30
0.0
 10
105.8170061799314
 20
164.5866314613244
 30
0.0
 10
105.8355326445547
 20
164.6048531644653
 30
0.0
 10
105.8445757783309
 20
164.6137704701392
 30
0.0
 10
105.8457108696358
 20
164.6148911017614
 30
0.0
 10
105.8462808426695
 20
164.6154538140318
 30
0.0
  0
SPLINE
  5
358
330
1F
100
AcDbEntity
  8
0
  6
Continuous
 62
     7
370
    25
100
AcDbSpline
210
0.0
220
0.0
230
1.0
 70
     8
 71
     3
 72
    24
 73
    20
 74
     0
 42
0.000000001
 43
0.00000001
 40
0.0
 40
0.0
 40
0.0
 40
0.0
 40
0.0503920364518532
 40
0.1011379216970574
 40
0.1529975304837764
 40
0.205240507025744
 40
0.2556318024316191
 40
0.3581004633077811
 40
0.4102895844624497
 40
0.4612376715653562
 40
0.5647843116746105
 40
0.6174860877692411
 40
0.6699147041077361
 40
0.722688041064964
 40
0.7765256752091536
 40
0.8307215651774994
 40
0.8726407131801137
 40
0.9572578030182071
 40
1.0
 40
1.0
 40
1.0
 40
1.0
 10
106.9207143090567
 20
163.9951293629869
 30
0.0
 10
106.9202628834087
 20
163.9946628808474
 30
0.0
 10
106.9193568622386
 20
163.9937266409688
 30
0.0
 10
106.9119686677789
 20
163.9860989216305
 30
0.0
 10
106.9000110670557
 20
163.973777706036
 30
0.0
 10
106.883178715599
 20
163.9564833459636
 30
0.0
 10
106.8547433977435
 20
163.927379639013
 30
0.0
 10
106.8173471765658
 20
163.8893472364327
 30
0.0
 10
106.7716465217782
 20
163.8433411522372
 30
0.0
 10
106.7204848730477
 20
163.7922056480315
 30
0.0
 10
106.6617030662628
 20
163.7341179939865
 30
0.0
 10
106.596248456684
 20
163.670357867655
 30
0.0
 10
106.5437906131597
 20
163.6197599677984
 30
0.0
 10
106.4883577212698
 20
163.5668440480972
 30
0.0
 10
106.430001429971
 20
163.5117435486913
 30
0.0
 10
106.3737516355655
 20
163.4592336518039
 30
0.0
 10
106.3044057764751
 20
163.3951816939932
 30
0.0
 10
106.2378373323412
 20
163.334486044592
 30
0.0
 10
106.1871350040062
 20
163.289037748425
 30
0.0
 10
106.1701191352835
 20
163.273785150238
 30
0.0
  0
LINE
  5
359
330
1F
100
AcDbEntity
  8
0
  6
Continuous
 62
     7
370
    25
100
AcDbLine
 10
92.0739172123
 20
186.4195780643
 30
0.0
 11
92.0739172123
 21
187.6891230746
 31
0.0
  0
SPLINE
  5
35A
330
1F
100
AcDbEntity
  8
0
  6
Continuous
 62
     7
370
    25
100
AcDbSpline
210
0.0
220
0.0
230
1.0
 70
     8
 71
     3
 72
    12
 73
     8
 74
     0
 42
0.000000001
 43
0.00000001
 40
0.0
 40
0.0
 40
0.0
 40
0.0
 40
0.2032277198477354
 40
0.4063673817105583
 40
0.6120603258941244
 40
0.824802128189291
 40
1.0
 40
1.0
 40
1.0
 40
1.0
 10
93.07391721230421
 20
186.7378365545695
 30
0.0
 10
93.06346129910538
 20
186.7349831724494
 30
0.0
 10
93.04255400322477
 20
186.7292776445715
 30
0.0
 10
92.88033712321362
 20
186.6836209958938
 30
0.0
 10
92.6411342626103
 20
186.6118138368029
 30
0.0
 10
92.3583826041163
 20
186.5207001622142
 30
0.0
 10
92.16241731607221
 20
186.451038187129
 30
0.0
 10
92.07391721230421
 20
186.4195780643427
 30
0.0
  0
SPLINE
  5
35B
330
1F
100
AcDbEntity
  8
0
  6
Continuous
 62
     7
370
    25
100
AcDbSpline
210
0.0
220
0.0
230
1.0
 70
     8
 71
     3
 72
    12
 73
     8
 74
     0
 42
0.000000001
 43
0.00000001
 40
0.0
 40
0.0
 40
0.0
 40
0.0
 40
0.2265147780755163
 40
0.4533055491735634
 40
0.6727895296396973
 40
0.8838524106427873
 40
1.0
 40
1.0
 40
1.0
 40
1.0
 10
92.07391721230421
 20
187.6891230745884
 30
0.0
 10
92.1892916842842
 20
187.7261167729244
 30
0.0
 10
92.42018120427865
 20
187.8001492439297
 30
0.0
 10
92.72844835953067
 20
187.888187051422
 30
0.0
 10
92.95373424333502
 20
187.9482234596226
 30
0.0
 10
93.0607414882684
 20
187.97518384161
 30
0.0
 10
93.07046553582906
 20
187.9776205245339
 30
0.0
 10
93.07391721230421
 20
187.9784854566595
 30
0.0
  0
LINE
  5
35C
330
1F
100
AcDbEntity
  8
0
  6
Continuous
 62
     7
370
    25
100
AcDbLine
 10
83.5771735194
 20
176.3178283833
 30
0.0
 11
82.4777152893
 21
176.9526008885
 31
0.0
  0
SPLINE
  5
35D
330
1F
100
AcDbEntity
  8
0
  6
Continuous
 62
     7
370
    25
100
AcDbSpline
210
0.0
220
0.0
230
1.0
 70
     8
 71
     3
 72
    17
 73
    13
 74
     0
 42
0.000000001
 43
0.00000001
 40
0.0
 40
0.0
 40
0.0
 40
0.0
 40
0.1001893370231495
 40
0.2033164170385826
 40
0.3034976159332733
 40
0.4065188851430858
 40
0.5080022594529267
 40
0.6122448859880263
 40
0.7172313065531329
 40
0.8250029379335023
 40
0.9117918662119393
 40
0.9999999999999999
 40
0.9999999999999999
 40
0.9999999999999999
 40
0.9999999999999999
 10
83.8015535819389
 20
177.3429830322266
 30
0.0
 10
83.80089236655546
 20
177.3404541883048
 30
0.0
 10
83.79955054768881
 20
177.3353223499205
 30
0.0
 10
83.78885203697335
 20
177.2940721693671
 30
0.0
 10
83.77226132193566
 20
177.2289492477022
 30
0.0
 10
83.75024891918864
 20
177.1403326065038
 30
0.0
 10
83.72367717944945
 20
177.0296431854441
 30
0.0
 10
83.69387026248268
 20
176.9001308007096
 30
0.0
 10
83.6616895320345
 20
176.7530856194657
 30
0.0
 10
83.63088393611974
 20
176.6035813809508
 30
0.0
 10
83.60231704890288
 20
176.4569182341464
 30
0.0
 10
83.58559988733336
 20
176.3644416583048
 30
0.0
 10
83.57717351944544
 20
176.3178283833288
 30
0.0
  0
SPLINE
  5
35E
330
1F
100
AcDbEntity
  8
0
  6
Continuous
 62
     7
370
    25
100
AcDbSpline
210
0.0
220
0.0
230
1.0
 70
     8
 71
     3
 72
    17
 73
    13
 74
     0
 42
0.000000001
 43
0.00000001
 40
0.0
 40
0.0
 40
0.0
 40
0.0
 40
0.111684721874303
 40
0.2265298696655625
 40
0.3382446589186883
 40
0.4534078232060678
 40
0.5615046749989158
 40
0.6729867792066837
 40
0.7769677042870434
 40
0.8841173145178669
 40
0.9417930075916888
 40
1.0
 40
1.0
 40
1.0
 40
1.0
 10
82.47771528932485
 20
176.9526008884517
 30
0.0
 10
82.4901327850181
 20
177.01103058228
 30
0.0
 10
82.51531916354651
 20
177.1295433985848
 30
0.0
 10
82.5546676875797
 20
177.3011707806369
 30
0.0
 10
82.59394983004444
 20
177.4641880600487
 30
0.0
 10
82.63060073608057
 20
177.608967317108
 30
0.0
 10
82.66355921022249
 20
177.7340756357333
 30
0.0
 10
82.69037651032538
 20
177.8325959356638
 30
0.0
 10
82.71075737804311
 20
177.9056893247323
 30
0.0
 10
82.7215592381789
 20
177.9437996817973
 30
0.0
 10
82.72640737751982
 20
177.9608126179155
 30
0.0
 10
82.72688181114611
 20
177.9624733234834
 30
0.0
 10
82.72712011555171
 20
177.9633074832716
 30
0.0
  0
LINE
  5
35F
330
1F
100
AcDbEntity
  8
0
  6
Continuous
 62
     7
370
    25
100
AcDbLine
 10
105.0706609052
 20
184.1120570174
 30
0.0
 11
106.1701191353
 21
184.7468295225
 31
0.0
  0
SPLINE
  5
360
330
1F
100
AcDbEntity
  8
0
  6
Continuous
 62
     7
370
    25
100
AcDbSpline
210
0.0
220
0.0
230
1.0
 70
     8
 71
     3
 72
    12
 73
     8
 74
     0
 42
0.000000001
 43
0.00000001
 40
0.0
 40
0.0
 40
0.0
 40
0.0
 40
0.2032277198477363
 40
0.4063673817105591
 40
0.6120603258941253
 40
0.8248021281892923
 40
1.0
 40
1.0
 40
1.0
 40
1.0
 10
105.8462808426695
 20
183.4051608587177
 30
0.0
 10
105.8385817846673
 20
183.4127892541076
 30
0.0
 10
105.8231870046427
 20
183.4280427395257
 30
0.0
 10
105.7025387470307
 20
183.5456983541992
 30
0.0
 10
105.5207504927827
 20
183.7169505285941
 30
0.0
 10
105.3004679067097
 20
183.9162638105177
 30
0.0
 10
105.1421562225861
 20
184.0511437406812
 30
0.0
 10
105.0706609051629
 20
184.1120570173887
 30
0.0
  0
SPLINE
  5
361
330
1F
100
AcDbEntity
  8
0
  6
Continuous
 62
     7
370
    25
100
AcDbSpline
210
0.0
220
0.0
230
1.0
 70
     8
 71
     3
 72
    12
 73
     8
 74
     0
 42
0.000000001
 43
0.00000001
 40
0.0
 40
0.0
 40
0.0
 40
0.0
 40
0.2265147780755171
 40
0.4533055491735639
 40
0.672789529639699
 40
0.8838524106427895
 40
1.0
 40
1.0
 40
1.0
 40
1.0
 10
106.1701191352835
 20
184.7468295225116
 30
0.0
 10
106.2598438538124
 20
184.6654091479967
 30
0.0
 10
106.4394026144052
 20
184.5024691937166
 30
0.0
 10
106.669779169813
 20
184.2795209098621
 30
0.0
 10
106.8344151663689
 20
184.1144358154738
 30
0.0
 10
106.9112671645324
 20
184.0352450139662
 30
0.0
 10
106.9182394176258
 20
184.0280420832131
 30
0.0
 10
106.9207143090567
 20
184.0254853097627
 30
0.0
  0
LINE
  5
362
330
1F
100
AcDbEntity
  8
0
  6
Continuous
 62
     7
370
    25
100
AcDbLine
 10
88.0771735194
 20
163.9085576554
 30
0.0
 11
86.9777152893
 21
163.2737851502
 31
0.0
  0
SPLINE
  5
363
330
1F
100
AcDbEntity
  8
0
  6
Continuous
 62
     7
370
    25
100
AcDbSpline
210
0.0
220
0.0
230
1.0
 70
     8
 71
     3
 72
    12
 73
     8
 74
     0
 42
0.000000001
 43
0.00000001
 40
0.0
 40
0.0
 40
0.0
 40
0.0
 40
0.2032277198477353
 40
0.4063673817105584
 40
0.6120603258941253
 40
0.8248021281892911
 40
1.0
 40
1.0
 40
1.0
 40
1.0
 10
87.30155358193895
 20
164.6154538140318
 30
0.0
 10
87.30925263994106
 20
164.6078254186419
 30
0.0
 10
87.32464741996567
 20
164.5925719332239
 30
0.0
 10
87.44529567757772
 20
164.4749163185504
 30
0.0
 10
87.62708393182572
 20
164.3036641441554
 30
0.0
 10
87.84736651789869
 20
164.1043508622318
 30
0.0
 10
88.00567820202234
 20
163.9694709320683
 30
0.0
 10
88.07717351944548
 20
163.9085576553608
 30
0.0
  0
SPLINE
  5
364
330
1F
100
AcDbEntity
  8
0
  6
Continuous
 62
     7
370
    25
100
AcDbSpline
210
0.0
220
0.0
230
1.0
 70
     8
 71
     3
 72
    12
 73
     8
 74
     0
 42
0.000000001
 43
0.00000001
 40
0.0
 40
0.0
 40
0.0
 40
0.0
 40
0.2265147780755179
 40
0.4533055491735664
 40
0.6727895296396992
 40
0.8838524106427895
 40
1.0
 40
1.0
 40
1.0
 40
1.0
 10
86.97771528932489
 20
163.2737851502379
 30
0.0
 10
86.88799057079599
 20
163.3552055247528
 30
0.0
 10
86.7084318102032
 20
163.518145479033
 30
0.0
 10
86.47805525479541
 20
163.7410937628875
 30
0.0
 10
86.31341925823956
 20
163.9061788572758
 30
0.0
 10
86.23656726007603
 20
163.9853696587833
 30
0.0
 10
86.22959500698263
 20
163.9925725895365
 30
0.0
 10
86.22712011555176
 20
163.9951293629868
 30
0.0
  0
LINE
  5
365
330
1F
100
AcDbEntity
  8
0
  6
Continuous
 62
     7
370
    25
100
AcDbLine
 10
109.5706609052
 20
171.7027862894
 30
0.0
 11
110.6701191353
 21
171.0680137843
 31
0.0
  0
SPLINE
  5
366
330
1F
100
AcDbEntity
  8
0
  6
Continuous
 62
     7
370
    25
100
AcDbSpline
210
0.0
220
0.0
230
1.0
 70
     8
 71
     3
 72
    24
 73
    20
 74
     0
 42
0.000000001
 43
0.00000001
 40
0.0
 40
0.0
 40
0.0
 40
0.0
 40
0.1001319398431587
 40
0.1515232018975316
 40
0.2032947955265093
 40
0.2534050064738317
 40
0.3038616689503978
 40
0.354848683802671
 40
0.406556834026206
 40
0.5083286960168867
 40
0.5599414208417819
 40
0.6122510513096601
 40
0.664586235447219
 40
0.7172620342064517
 40
0.7709851988067639
 40
0.8250591555826738
 40
0.8684515805603779
 40
0.9558996728022305
 40
1.0
 40
1.0
 40
1.0
 40
1.0
 10
109.3462808426695
 20
170.6776316405229
 30
0.0
 10
109.3469123794058
 20
170.6800463559121
 30
0.0
 10
109.3478680431885
 20
170.6837003888612
 30
0.0
 10
109.3537695931769
 20
170.7064421424347
 30
0.0
 10
109.3597327749689
 20
170.7295812685207
 30
0.0
 10
109.367269156075
 20
170.759074833261
 30
0.0
 10
109.376190800302
 20
170.7943610659407
 30
0.0
 10
109.3865543940573
 20
170.8358737236643
 30
0.0
 10
109.4020138170836
 20
170.8987275779645
 30
0.0
 10
109.4196997036208
 20
170.9724074942179
 30
0.0
 10
109.4389102962411
 20
171.0550707962383
 30
0.0
 10
109.4541125177914
 20
171.1220130480378
 30
0.0
 10
109.4698565300233
 20
171.1931096963775
 30
0.0
 10
109.4860185533634
 20
171.2681003392702
 30
0.0
 10
109.5024735723306
 20
171.3467249183776
 30
0.0
 10
109.5179415326637
 20
171.4229905273681
 30
0.0
 10
109.536648234473
 20
171.5180877844199
 30
0.0
 10
109.5540227759903
 20
171.6099498554916
 30
0.0
 10
109.5664835514697
 20
171.6794777421608
 30
0.0
 10
109.570660905163
 20
171.7027862894208
 30
0.0
  0
SPLINE
  5
367
330
1F
100
AcDbEntity
  8
0
  6
Continuous
 62
     7
370
    25
100
AcDbSpline
210
0.0
220
0.0
230
1.0
 70
     8
 71
     3
 72
    24
 73
    20
 74
     0
 42
0.000000001
 43
0.00000001
 40
0.0
 40
0.0
 40
0.0
 40
0.0
 40
0.0556623742296122
 40
0.1116967344773488
 40
0.1689204732242527
 40
0.2265635305759353
 40
0.282229459301536
 40
0.3382981104293246
 40
0.3956650960746232
 40
0.4534931718619692
 40
0.5073536497262674
 40
0.56161088630102
 40
0.6171427412505788
 40
0.6731246773972958
 40
0.725134223703609
 40
0.8304050516551604
 40
0.8842014587974669
 40
0.941835272623981
 40
0.9999999999999999
 40
0.9999999999999999
 40
0.9999999999999999
 40
0.9999999999999999
 10
110.6701191352836
 20
171.0680137842979
 30
0.0
 10
110.6639844933977
 20
171.0388849335932
 30
0.0
 10
110.6516742124347
 20
170.98043256702
 30
0.0
 10
110.632487468695
 20
170.892761746059
 30
0.0
 10
110.6128329571835
 20
170.8053789507169
 30
0.0
 10
110.5930974349531
 20
170.7201650727648
 30
0.0
 10
110.5735775997003
 20
170.6381039706113
 30
0.0
 10
110.5543588970396
 20
170.5593113369562
 30
0.0
 10
110.5353841779783
 20
170.4833531198014
 30
0.0
 10
110.5173706973735
 20
170.4128473695924
 30
0.0
 10
110.5005939177274
 20
170.3484802512656
 30
0.0
 10
110.4851083172012
 20
170.2901082162406
 30
0.0
 10
110.4707112387912
 20
170.2367099479653
 30
0.0
 10
110.4579942542984
 20
170.1902210555113
 30
0.0
 10
110.4435229145387
 20
170.1379516862145
 30
0.0
 10
110.4324781090738
 20
170.098700662567
 30
0.0
 10
110.4251283091815
 20
170.0727890114996
 30
0.0
 10
110.4214239200033
 20
170.0597914437473
 30
0.0
 10
110.4209515679194
 20
170.0581378014427
 30
0.0
 10
110.4207143090567
 20
170.0573071894779
 30
0.0
  0
LINE
  5
368
330
1F
100
AcDbEntity
  8
0
  6
Continuous
 62
     7
370
    25
100
AcDbLine
 10
101.0739172123
 20
161.6010366084
 30
0.0
 11
101.0739172123
 21
160.3314915982
 31
0.0
  0
SPLINE
  5
369
330
1F
100
AcDbEntity
  8
0
  6
Continuous
 62
     7
370
    25
100
AcDbSpline
210
0.0
220
0.0
230
1.0
 70
     8
 71
     3
 72
    24
 73
    20
 74
     0
 42
0.000000001
 43
0.00000001
 40
0.0
 40
0.0
 40
0.0
 40
0.0
 40
0.0499320236964124
 40
0.1002154725961939
 40
0.1516045868842791
 40
0.2033740168519844
 40
0.3038503372340102
 40
0.3548352212144738
 40
0.4065412104281908
 40
0.4572975960508456
 40
0.5083932755305697
 40
0.560003843333708
 40
0.6123112876544409
 40
0.6646442845769047
 40
0.7173178818859256
 40
0.7710388012640503
 40
0.8251104981573124
 40
0.9121130559155899
 40
0.9999999999999999
 40
0.9999999999999999
 40
0.9999999999999999
 40
0.9999999999999999
 10
100.0739172123042
 20
161.2827781181801
 30
0.0
 10
100.0745410043356
 20
161.2829495715399
 30
0.0
 10
100.0757929786919
 20
161.2832936849606
 30
0.0
 10
100.0859931101807
 20
161.2861026695635
 30
0.0
 10
100.1024857404811
 20
161.2906632531026
 30
0.0
 10
100.1332689528195
 20
161.2992277442869
 30
0.0
 10
100.1765384783042
 20
161.3113953253077
 30
0.0
 10
100.2310904400376
 20
161.327019645532
 30
0.0
 10
100.2777630792022
 20
161.3405635970867
 30
0.0
 10
100.3295348859922
 20
161.3558066712037
 30
0.0
 10
100.3859017841859
 20
161.3726640379021
 30
0.0
 10
100.4471068154867
 20
161.3912790833706
 30
0.0
 10
100.5126777610901
 20
161.4115836453028
 30
0.0
 10
100.5821226592814
 20
161.433497436082
 30
0.0
 10
100.655145777067
 20
161.4569963750214
 30
0.0
 10
100.7314696709852
 20
161.4820566208863
 30
0.0
 10
100.82651089073
 20
161.5139369841024
 30
0.0
 10
100.9410350915562
 20
161.553315407039
 30
0.0
 10
101.0294740984064
 20
161.5850760053115
 30
0.0
 10
101.0739172123042
 20
161.6010366084069
 30
0.0
  0
SPLINE
  5
36A
330
1F
100
AcDbEntity
  8
0
  6
Continuous
 62
     7
370
    25
100
AcDbSpline
210
0.0
220
0.0
230
1.0
 70
     8
 71
     3
 72
    24
 73
    20
 74
     0
 42
0.000000001
 43
0.00000001
 40
0.0
 40
0.0
 40
0.0
 40
0.0
 40
0.055662191254882
 40
0.1116963673050879
 40
0.1689199179447061
 40
0.2265627858107087
 40
0.2822285315498947
 40
0.3382969983674308
 40
0.3956637954345588
 40
0.4534916811280276
 40
0.5073519819408342
 40
0.5616090401598607
 40
0.6171407125637354
 40
0.6731224646852512
 40
0.777524674382981
 40
0.830405609151857
 40
0.8842018394532871
 40
0.9418354638245056
 40
1.0
 40
1.0
 40
1.0
 40
1.0
 10
101.0739172123042
 20
160.3314915981612
 30
0.0
 10
101.0456235666666
 20
160.3222399285247
 30
0.0
 10
100.9888471918187
 20
160.3036747612791
 30
0.0
 10
100.9033286618467
 20
160.276455558299
 30
0.0
 10
100.81782568539
 20
160.2497854668726
 30
0.0
 10
100.7341605415156
 20
160.224269991592
 30
0.0
 10
100.653333623667
 20
160.2001441134067
 30
0.0
 10
100.5754878540754
 20
160.1773916824958
 30
0.0
 10
100.5002187330894
 20
160.1558451581144
 30
0.0
 10
100.430152280228
 20
160.1361924315887
 30
0.0
 10
100.366020126955
 20
160.11853793112
 30
0.0
 10
100.3077264217487
 20
160.1027630559176
 30
0.0
 10
100.254280709614
 20
160.0885313179479
 30
0.0
 10
100.1927390803462
 20
160.0723853022941
 30
0.0
 10
100.144180391488
 20
160.0598995141519
 30
0.0
 10
100.1093394588441
 20
160.0510461380314
 30
0.0
 10
100.0895300859363
 20
160.0460471116141
 30
0.0
 10
100.0764239070678
 20
160.0427569006813
 30
0.0
 10
100.0747553272622
 20
160.0423390828247
 30
0.0
 10
100.0739172123042
 20
160.0421292160901
 30
0.0
  0
ARC
  5
36B
330
1F
100
AcDbEntity
  8
0
  6
Continuous
 62
     7
370
    25
100
AcDbCircle
 10
96.5739172123
 20
174.0103073364
 30
0.0
 40
13.20000000000004
100
AcDbArc
 50
109.9322704722
 51
130.0677295278
  0
ARC
  5
36C
330
1F
100
AcDbEntity
  8
0
  6
Continuous
 62
     7
370
    25
100
AcDbCircle
 10
96.5739172123
 20
174.0103073364
 30
0.0
 40
14.40000000000003
100
AcDbArc
 50
108.2099568643
 51
131.7900431357
  0
ARC
  5
36D
330
1F
100
AcDbEntity
  8
0
  6
Continuous
 62
     7
370
    25
100
AcDbCircle
 10
96.5739172123
 20
174.0103073364
 30
0.0
 40
13.20000000000004
100
AcDbArc
 50
49.9322704722
 51
70.0677295278
  0
ARC
  5
36E
330
1F
100
AcDbEntity
  8
0
  6
Continuous
 62
     7
370
    25
100
AcDbCircle
 10
96.5739172123
 20
174.0103073364
 30
0.0
 40
14.40000000000002
100
AcDbArc
 50
48.2099568643
 51
71.7900431357
  0
ARC
  5
36F
330
1F
100
AcDbEntity
  8
0
  6
Continuous
 62
     7
370
    25
100
AcDbCircle
 10
96.5739172123
 20
174.0103073364
 30
0.0
 40
13.2
100
AcDbArc
 50
169.9322704722
 51
190.0677295278
  0
ARC
  5
370
330
1F
100
AcDbEntity
  8
0
  6
Continuous
 62
     7
370
    25
100
AcDbCircle
 10
96.5739172123
 20
174.0103073364
 30
0.0
 40
14.40000000000001
100
AcDbArc
 50
168.2099568643
 51
191.7900431357
  0
ARC
  5
371
330
1F
100
AcDbEntity
  8
0
  6
Continuous
 62
     7
370
    25
100
AcDbCircle
 10
96.5739172123
 20
174.0103073364
 30
0.0
 40
13.2
100
AcDbArc
 50
349.9322704722
 51
10.0677295278
  0
ARC
  5
372
330
1F
100
AcDbEntity
  8
0
  6
Continuous
 62
     7
370
    25
100
AcDbCircle
 10
96.5739172123
 20
174.0103073364
 30
0.0
 40
14.4
100
AcDbArc
 50
348.2099568643
 51
11.7900431357
  0
ARC
  5
373
330
1F
100
AcDbEntity
  8
0
  6
Continuous
 62
     7
370
    25
100
AcDbCircle
 10
96.5739172123
 20
174.0103073364
 30
0.0
 40
13.19999999999999
100
AcDbArc
 50
229.9322704722
 51
250.0677295278
  0
ARC
  5
374
330
1F
100
AcDbEntity
  8
0
  6
Continuous
 62
     7
370
    25
100
AcDbCircle
 10
96.5739172123
 20
174.0103073364
 30
0.0
 40
14.40000000000001
100
AcDbArc
 50
228.2099568643
 51
251.7900431357
  0
ARC
  5
375
330
1F
100
AcDbEntity
  8
0
  6
Continuous
 62
     7
370
    25
100
AcDbCircle
 10
96.5739172123
 20
174.0103073364
 30
0.0
 40
13.19999999999999
100
AcDbArc
 50
289.9322704722
 51
310.0677295278
  0
ARC
  5
376
330
1F
100
AcDbEntity
  8
0
  6
Continuous
 62
     7
370
    25
100
AcDbCircle
 10
96.5739172123
 20
174.0103073364
 30
0.0
 40
14.39999999999998
100
AcDbArc
 50
288.2099568643
 51
311.7900431357
  0
LINE
  5
377
330
1F
100
AcDbEntity
  8
0
  6
Continuous
 62
     7
370
    25
100
AcDbLine
 10
92.0739172123
 20
186.206618254
 30
0.0
 11
92.0739172123
 21
186.4195780643
 31
0.0
  0
LINE
  5
378
330
1F
100
AcDbEntity
  8
0
  6
Continuous
 62
     7
370
    25
100
AcDbLine
 10
101.0739172123
 20
186.4195780643
 30
0.0
 11
101.0739172123
 21
186.206618254
 31
0.0
  0
LINE
  5
379
330
1F
100
AcDbEntity
  8
FORMAT
100
AcDbLine
 10
83.9495615618
 20
188.3433336885
 30
0.0
 11
109.1982728628
 21
159.6772809843
 31
0.0
  0
INSERT
  5
37F
330
1F
100
AcDbEntity
  8
FORMAT
100
AcDbBlockReference
  2
SW_NOTE_5
 10
76.4977046995
 20
194.6001126797
 30
0.0
  0
LEADER
  5
380
330
1F
100
AcDbEntity
  8
FORMAT
100
AcDbLeader
  3
SLDDIMSTYLE1
 76
     2
 10
83.9495615618
 20
188.3433336885
 30
0.0
 10
76.4977046995
 20
194.6001126797
 30
0.0
  0
INSERT
  5
386
330
1F
100
AcDbEntity
  8
FORMAT
100
AcDbBlockReference
  2
SW_NOTE_6
 10
115.4167604049
 20
149.3807650981
 30
0.0
  0
LEADER
  5
387
330
1F
100
AcDbEntity
  8
FORMAT
100
AcDbLeader
  3
SLDDIMSTYLE1
 76
     2
 10
103.63946867
 20
172.2007217233
 30
0.0
 10
115.4167604049
 20
149.3807650981
 30
0.0
  0
INSERT
  5
393
330
1F
100
AcDbEntity
  8
FORMAT
100
AcDbBlockReference
  2
SW_CENTERMARKSYMBOL_0
 10
96.5739172123
 20
174.0103073364
 30
0.0
  0
ENDSEC
  0
SECTION
  2
OBJECTS
  0
DICTIONARY
  5
C
330
0
100
AcDbDictionary
281
     1
  3
ACAD_GROUP
350
D
  3
ACAD_LAYOUT
350
1A
  3
ACAD_MLINESTYLE
350
17
  3
ACAD_PLOTSETTINGS
350
19
  3
ACAD_PLOTSTYLENAME
350
E
  3
ACAD_SCALELIST
350
47
  0
DICTIONARY
  5
D
102
{ACAD_REACTORS
330
C
102
}
330
C
100
AcDbDictionary
281
     1
  0
DICTIONARY
  5
1A
102
{ACAD_REACTORS
330
C
102
}
330
C
100
AcDbDictionary
281
     1
  3
Layout1
350
1E
  3
Layout2
350
26
  3
Model
350
22
  0
DICTIONARY
  5
17
102
{ACAD_REACTORS
330
C
102
}
330
C
100
AcDbDictionary
281
     1
  3
Standard
350
18
  0
DICTIONARY
  5
19
102
{ACAD_REACTORS
330
C
102
}
330
C
100
AcDbDictionary
281
     1
  0
ACDBDICTIONARYWDFLT
  5
E
102
{ACAD_REACTORS
330
C
102
}
330
C
100
AcDbDictionary
281
     1
  3
Normal
350
F
100
AcDbDictionaryWithDefault
340
F
  0
DICTIONARY
  5
47
102
{ACAD_REACTORS
330
C
102
}
330
C
100
AcDbDictionary
281
     1
  3
A0
350
48
  3
A1
350
49
  3
A2
350
4A
  3
A3
350
4B
  3
A4
350
4C
  3
A5
350
4D
  3
A6
350
4E
  3
A7
350
4F
  3
A8
350
50
  3
A9
350
51
  3
B0
350
52
  3
B1
350
53
  3
B2
350
54
  3
B3
350
55
  3
B4
350
56
  3
B5
350
57
  3
B6
350
58
  3
B7
350
59
  3
B8
350
5A
  3
B9
350
5B
  3
C0
350
5C
  3
C1
350
5D
  3
C2
350
5E
  3
C3
350
5F
  3
C4
350
60
  3
C5
350
61
  3
C6
350
62
  3
C7
350
63
  3
C8
350
64
  3
C9
350
65
  3
D0
350
66
  3
D1
350
67
  3
D2
350
68
  0
LAYOUT
  5
1E
102
{ACAD_REACTORS
330
1A
102
}
330
1A
100
AcDbPlotSettings
  1

  2
none_device
  4

  6

 40
0.0
 41
0.0
 42
0.0
 43
0.0
 44
0.0
 45
0.0
 46
0.0
 47
0.0
 48
0.0
 49
0.0
140
0.0
141
0.0
142
1.0
143
1.0
 70
   688
 72
     1
 73
     0
 74
     5
  7

 75
    16
147
1.0
148
0.0
149
0.0
100
AcDbLayout
  1
Layout1
 70
     1
 71
     1
 10
0.0
 20
0.0
 11
420.0
 21
297.0
 12
0.0
 22
0.0
 32
0.0
 14
1.0000000000E+20
 24
1.0000000000E+20
 34
1.0000000000E+20
 15
-1.0000000000E+20
 25
-1.0000000000E+20
 35
-1.0000000000E+20
146
0.0
 13
0.0
 23
0.0
 33
0.0
 16
1.0
 26
0.0
 36
0.0
 17
0.0
 27
1.0
 37
0.0
 76
     0
330
1B
  0
LAYOUT
  5
26
102
{ACAD_REACTORS
330
1A
102
}
330
1A
100
AcDbPlotSettings
  1

  2
none_device
  4

  6

 40
0.0
 41
0.0
 42
0.0
 43
0.0
 44
0.0
 45
0.0
 46
0.0
 47
0.0
 48
0.0
 49
0.0
140
0.0
141
0.0
142
1.0
143
1.0
 70
   688
 72
     1
 73
     0
 74
     5
  7

 75
    16
147
1.0
148
0.0
149
0.0
100
AcDbLayout
  1
Layout2
 70
     1
 71
     2
 10
0.0
 20
0.0
 11
0.0
 21
0.0
 12
0.0
 22
0.0
 32
0.0
 14
0.0
 24
0.0
 34
0.0
 15
0.0
 25
0.0
 35
0.0
146
0.0
 13
0.0
 23
0.0
 33
0.0
 16
1.0
 26
0.0
 36
0.0
 17
0.0
 27
1.0
 37
0.0
 76
     0
330
23
  0
LAYOUT
  5
22
102
{ACAD_REACTORS
330
1A
102
}
330
1A
100
AcDbPlotSettings
  1

  2
none_device
  4
Letter_(8.50_x_11.00_Inches)
  6

 40
6.35
 41
6.35
 42
6.35000508
 43
6.35000508
 44
215.9
 45
279.4
 46
0.0
 47
0.0
 48
0.0
 49
0.0
140
0.0
141
0.0
142
1.0
143
1.0
 70
  1712
 72
     1
 73
     0
 74
     0
  7

 75
     0
147
1.0
148
0.0
149
0.0
100
AcDbLayout
  1
Model
 70
     1
 71
     0
 10
0.0
 20
0.0
 11
420.0
 21
297.0
 12
0.0
 22
0.0
 32
0.0
 14
0.0
 24
0.0
 34
0.0
 15
420.0
 25
297.0
 35
0.0
146
0.0
 13
0.0
 23
0.0
 33
0.0
 16
1.0
 26
0.0
 36
0.0
 17
0.0
 27
1.0
 37
0.0
 76
     0
330
1F
331
29
  0
MLINESTYLE
  5
18
102
{ACAD_REACTORS
330
17
102
}
330
17
100
AcDbMlineStyle
  2
Standard
 70
     0
  3

 62
   256
 51
90.0
 52
90.0
 71
     2
 49
0.5
 62
   256
  6
BYLAYER
 49
-0.5
 62
   256
  6
BYLAYER
  0
ACDBPLACEHOLDER
  5
F
102
{ACAD_REACTORS
330
E
102
}
330
E
  0
SCALE
  5
48
102
{ACAD_REACTORS
330
47
102
}
330
47
100
AcDbScale
 70
     0
300
1:1
140
1.0
141
1.0
290
     1
  0
SCALE
  5
49
102
{ACAD_REACTORS
330
47
102
}
330
47
100
AcDbScale
 70
     0
300
1:2
140
1.0
141
2.0
290
     0
  0
SCALE
  5
4A
102
{ACAD_REACTORS
330
47
102
}
330
47
100
AcDbScale
 70
     0
300
1:4
140
1.0
141
4.0
290
     0
  0
SCALE
  5
4B
102
{ACAD_REACTORS
330
47
102
}
330
47
100
AcDbScale
 70
     0
300
1:5
140
1.0
141
5.0
290
     0
  0
SCALE
  5
4C
102
{ACAD_REACTORS
330
47
102
}
330
47
100
AcDbScale
 70
     0
300
1:8
140
1.0
141
8.0
290
     0
  0
SCALE
  5
4D
102
{ACAD_REACTORS
330
47
102
}
330
47
100
AcDbScale
 70
     0
300
1:10
140
1.0
141
10.0
290
     0
  0
SCALE
  5
4E
102
{ACAD_REACTORS
330
47
102
}
330
47
100
AcDbScale
 70
     0
300
1:16
140
1.0
141
16.0
290
     0
  0
SCALE
  5
4F
102
{ACAD_REACTORS
330
47
102
}
330
47
100
AcDbScale
 70
     0
300
1:20
140
1.0
141
20.0
290
     0
  0
SCALE
  5
50
102
{ACAD_REACTORS
330
47
102
}
330
47
100
AcDbScale
 70
     0
300
1:30
140
1.0
141
30.0
290
     0
  0
SCALE
  5
51
102
{ACAD_REACTORS
330
47
102
}
330
47
100
AcDbScale
 70
     0
300
1:40
140
1.0
141
40.0
290
     0
  0
SCALE
  5
52
102
{ACAD_REACTORS
330
47
102
}
330
47
100
AcDbScale
 70
     0
300
1:50
140
1.0
141
50.0
290
     0
  0
SCALE
  5
53
102
{ACAD_REACTORS
330
47
102
}
330
47
100
AcDbScale
 70
     0
300
1:100
140
1.0
141
100.0
290
     0
  0
SCALE
  5
54
102
{ACAD_REACTORS
330
47
102
}
330
47
100
AcDbScale
 70
     0
300
2:1
140
2.0
141
1.0
290
     0
  0
SCALE
  5
55
102
{ACAD_REACTORS
330
47
102
}
330
47
100
AcDbScale
 70
     0
300
4:1
140
4.0
141
1.0
290
     0
  0
SCALE
  5
56
102
{ACAD_REACTORS
330
47
102
}
330
47
100
AcDbScale
 70
     0
300
8:1
140
8.0
141
1.0
290
     0
  0
SCALE
  5
57
102
{ACAD_REACTORS
330
47
102
}
330
47
100
AcDbScale
 70
     0
300
10:1
140
10.0
141
1.0
290
     0
  0
SCALE
  5
58
102
{ACAD_REACTORS
330
47
102
}
330
47
100
AcDbScale
 70
     0
300
100:1
140
100.0
141
1.0
290
     0
  0
SCALE
  5
59
102
{ACAD_REACTORS
330
47
102
}
330
47
100
AcDbScale
 70
     0
300
1/128" = 1'-0"
140
0.0078125
141
12.0
290
     0
  0
SCALE
  5
5A
102
{ACAD_REACTORS
330
47
102
}
330
47
100
AcDbScale
 70
     0
300
1/64" = 1'-0"
140
0.015625
141
12.0
290
     0
  0
SCALE
  5
5B
102
{ACAD_REACTORS
330
47
102
}
330
47
100
AcDbScale
 70
     0
300
1/32" = 1'-0"
140
0.03125
141
12.0
290
     0
  0
SCALE
  5
5C
102
{ACAD_REACTORS
330
47
102
}
330
47
100
AcDbScale
 70
     0
300
1/16" = 1'-0"
140
0.0625
141
12.0
290
     0
  0
SCALE
  5
5D
102
{ACAD_REACTORS
330
47
102
}
330
47
100
AcDbScale
 70
     0
300
3/32" = 1'-0"
140
0.09375
141
12.0
290
     0
  0
SCALE
  5
5E
102
{ACAD_REACTORS
330
47
102
}
330
47
100
AcDbScale
 70
     0
300
1/8" = 1'-0"
140
0.125
141
12.0
290
     0
  0
SCALE
  5
5F
102
{ACAD_REACTORS
330
47
102
}
330
47
100
AcDbScale
 70
     0
300
3/16" = 1'-0"
140
0.1875
141
12.0
290
     0
  0
SCALE
  5
60
102
{ACAD_REACTORS
330
47
102
}
330
47
100
AcDbScale
 70
     0
300
1/4" = 1'-0"
140
0.25
141
12.0
290
     0
  0
SCALE
  5
61
102
{ACAD_REACTORS
330
47
102
}
330
47
100
AcDbScale
 70
     0
300
3/8" = 1'-0"
140
0.375
141
12.0
290
     0
  0
SCALE
  5
62
102
{ACAD_REACTORS
330
47
102
}
330
47
100
AcDbScale
 70
     0
300
1/2" = 1'-0"
140
0.5
141
12.0
290
     0
  0
SCALE
  5
63
102
{ACAD_REACTORS
330
47
102
}
330
47
100
AcDbScale
 70
     0
300
3/4" = 1'-0"
140
0.75
141
12.0
290
     0
  0
SCALE
  5
64
102
{ACAD_REACTORS
330
47
102
}
330
47
100
AcDbScale
 70
     0
300
1" = 1'-0"
140
1.0
141
12.0
290
     0
  0
SCALE
  5
65
102
{ACAD_REACTORS
330
47
102
}
330
47
100
AcDbScale
 70
     0
300
1-1/2" = 1'-0"
140
1.5
141
12.0
290
     0
  0
SCALE
  5
66
102
{ACAD_REACTORS
330
47
102
}
330
47
100
AcDbScale
 70
     0
300
3" = 1'-0"
140
3.0
141
12.0
290
     0
  0
SCALE
  5
67
102
{ACAD_REACTORS
330
47
102
}
330
47
100
AcDbScale
 70
     0
300
6" = 1'-0"
140
6.0
141
12.0
290
     0
  0
SCALE
  5
68
102
{ACAD_REACTORS
330
47
102
}
330
47
100
AcDbScale
 70
     0
300
1'-0" = 1'-0"
140
12.0
141
12.0
290
     0
  0
ENDSEC
  0
EOF
