  0
SECTION
  2
HEADER
  9
$ACADVER
  1
AC1015
  9
$ACADMAINTVER
 70
     6
  9
$DWGCODEPAGE
  3
DOS932
  9
$INSBASE
 10
0.0
 20
0.0
 30
0.0
  9
$EXTMIN
 10
0.0
 20
0.0
 30
0.0
  9
$EXTMAX
 10
420.0
 20
297.0
 30
0.0
  9
$LIMMIN
 10
0.0
 20
0.0
  9
$LIMMAX
 10
420.0
 20
297.0
  9
$ORTHOMODE
 70
     0
  9
$REGENMODE
 70
     1
  9
$FILLMODE
 70
     1
  9
$QTEXTMODE
 70
     0
  9
$MIRRTEXT
 70
     1
  9
$LTSCALE
 40
1.0
  9
$ATTMODE
 70
     1
  9
$TEXTSIZE
 40
3.5
  9
$TRACEWID
 40
1.0
  9
$TEXTSTYLE
  7
Standard
  9
$CLAYER
  8
0
  9
$CELTYPE
  6
ByLayer
  9
$CECOLOR
 62
   256
  9
$CELTSCALE
 40
1.0
  9
$DISPSILH
 70
     0
  9
$DIMSCALE
 40
1.0
  9
$DIMASZ
 40
3.0
  9
$DIMEXO
 40
1.0
  9
$DIMDLI
 40
3.75
  9
$DIMRND
 40
0.0
  9
$DIMDLE
 40
0.0
  9
$DIMEXE
 40
1.0
  9
$DIMTP
 40
0.0
  9
$DIMTM
 40
0.0
  9
$DIMTXT
 40
3.5
  9
$DIMCEN
 40
2.5
  9
$DIMTSZ
 40
0.0
  9
$DIMTOL
 70
     0
  9
$DIMLIM
 70
     0
  9
$DIMTIH
 70
     1
  9
$DIMTOH
 70
     1
  9
$DIMSE1
 70
     0
  9
$DIMSE2
 70
     0
  9
$DIMTAD
 70
     1
  9
$DIMZIN
 70
     0
  9
$DIMBLK
  1

  9
$DIMASO
 70
     1
  9
$DIMSHO
 70
     1
  9
$DIMPOST
  1

  9
$DIMAPOST
  1

  9
$DIMALT
 70
     0
  9
$DIMALTD
 70
     3
  9
$DIMALTF
 40
0.0393700787
  9
$DIMLFAC
 40
1.0
  9
$DIMTOFL
 70
     1
  9
$DIMTVP
 40
0.0
  9
$DIMTIX
 70
     0
  9
$DIMSOXD
 70
     0
  9
$DIMSAH
 70
     0
  9
$DIMBLK1
  1

  9
$DIMBLK2
  1

  9
$DIMSTYLE
  2
ISO-25
  9
$DIMCLRD
 70
     0
  9
$DIMCLRE
 70
     0
  9
$DIMCLRT
 70
     0
  9
$DIMTFAC
 40
1.0
  9
$DIMGAP
 40
1.524
  9
$DIMJUST
 70
     0
  9
$DIMSD1
 70
     0
  9
$DIMSD2
 70
     0
  9
$DIMTOLJ
 70
     0
  9
$DIMTZIN
 70
     0
  9
$DIMALTZ
 70
     0
  9
$DIMALTTZ
 70
     0
  9
$DIMUPT
 70
     0
  9
$DIMDEC
 70
     2
  9
$DIMTDEC
 70
     2
  9
$DIMALTU
 70
     2
  9
$DIMALTTD
 70
     3
  9
$DIMTXSTY
  7
Standard
  9
$DIMAUNIT
 70
     0
  9
$DIMADEC
 70
     2
  9
$DIMALTRND
 40
0.0
  9
$DIMAZIN
 70
     0
  9
$DIMDSEP
 70
    44
  9
$DIMATFIT
 70
     3
  9
$DIMFRAC
 70
     0
  9
$DIMLDRBLK
  1

  9
$DIMLUNIT
 70
     2
  9
$DIMLWD
 70
    -2
  9
$DIMLWE
 70
    -2
  9
$DIMTMOVE
 70
     0
  9
$LUNITS
 70
     2
  9
$LUPREC
 70
     2
  9
$SKETCHINC
 40
1.0
  9
$FILLETRAD
 40
10.0
  9
$AUNITS
 70
     0
  9
$AUPREC
 70
     2
  9
$MENU
  1
.
  9
$ELEVATION
 40
0.0
  9
$PELEVATION
 40
0.0
  9
$THICKNESS
 40
0.0
  9
$LIMCHECK
 70
     0
  9
$CHAMFERA
 40
0.0
  9
$CHAMFERB
 40
0.0
  9
$CHAMFERC
 40
0.0
  9
$CHAMFERD
 40
0.0
  9
$SKPOLY
 70
     0
  9
$TDCREATE
 40
2458899.726213507
  9
$TDUCREATE
 40
2458899.351213507
  9
$TDUPDATE
 40
2458899.726218553
  9
$TDUUPDATE
 40
2458899.351218553
  9
$TDINDWG
 40
0.0000000116
  9
$TDUSRTIMER
 40
0.0000000116
  9
$USRTIMER
 70
     1
  9
$ANGBASE
 50
0.0
  9
$ANGDIR
 70
     0
  9
$PDMODE
 70
     0
  9
$PDSIZE
 40
-1.0
  9
$PLINEWID
 40
0.0
  9
$SPLFRAME
 70
     0
  9
$SPLINETYPE
 70
     6
  9
$SPLINESEGS
 70
     8
  9
$HANDSEED
  5
4A6
  9
$SURFTAB1
 70
     6
  9
$SURFTAB2
 70
     6
  9
$SURFTYPE
 70
     6
  9
$SURFU
 70
     6
  9
$SURFV
 70
     6
  9
$UCSBASE
  2

  9
$UCSNAME
  2

  9
$UCSORG
 10
0.0
 20
0.0
 30
0.0
  9
$UCSXDIR
 10
1.0
 20
0.0
 30
0.0
  9
$UCSYDIR
 10
0.0
 20
1.0
 30
0.0
  9
$UCSORTHOREF
  2

  9
$UCSORTHOVIEW
 70
     0
  9
$UCSORGTOP
 10
0.0
 20
0.0
 30
0.0
  9
$UCSORGBOTTOM
 10
0.0
 20
0.0
 30
0.0
  9
$UCSORGLEFT
 10
0.0
 20
0.0
 30
0.0
  9
$UCSORGRIGHT
 10
0.0
 20
0.0
 30
0.0
  9
$UCSORGFRONT
 10
0.0
 20
0.0
 30
0.0
  9
$UCSORGBACK
 10
0.0
 20
0.0
 30
0.0
  9
$PUCSBASE
  2

  9
$PUCSNAME
  2

  9
$PUCSORG
 10
0.0
 20
0.0
 30
0.0
  9
$PUCSXDIR
 10
1.0
 20
0.0
 30
0.0
  9
$PUCSYDIR
 10
0.0
 20
1.0
 30
0.0
  9
$PUCSORTHOREF
  2

  9
$PUCSORTHOVIEW
 70
     0
  9
$PUCSORGTOP
 10
0.0
 20
0.0
 30
0.0
  9
$PUCSORGBOTTOM
 10
0.0
 20
0.0
 30
0.0
  9
$PUCSORGLEFT
 10
0.0
 20
0.0
 30
0.0
  9
$PUCSORGRIGHT
 10
0.0
 20
0.0
 30
0.0
  9
$PUCSORGFRONT
 10
0.0
 20
0.0
 30
0.0
  9
$PUCSORGBACK
 10
0.0
 20
0.0
 30
0.0
  9
$USERI1
 70
     0
  9
$USERI2
 70
     0
  9
$USERI3
 70
     0
  9
$USERI4
 70
     0
  9
$USERI5
 70
     0
  9
$USERR1
 40
0.0
  9
$USERR2
 40
0.0
  9
$USERR3
 40
0.0
  9
$USERR4
 40
0.0
  9
$USERR5
 40
0.0
  9
$WORLDVIEW
 70
     1
  9
$SHADEDGE
 70
     3
  9
$SHADEDIF
 70
    70
  9
$TILEMODE
 70
     1
  9
$MAXACTVP
 70
    64
  9
$PINSBASE
 10
0.0
 20
0.0
 30
0.0
  9
$PLIMCHECK
 70
     0
  9
$PEXTMIN
 10
1.0000000000E+20
 20
1.0000000000E+20
 30
1.0000000000E+20
  9
$PEXTMAX
 10
-1.0000000000E+20
 20
-1.0000000000E+20
 30
-1.0000000000E+20
  9
$PLIMMIN
 10
0.0
 20
0.0
  9
$PLIMMAX
 10
420.0
 20
297.0
  9
$UNITMODE
 70
     0
  9
$VISRETAIN
 70
     1
  9
$PLINEGEN
 70
     0
  9
$PSLTSCALE
 70
     1
  9
$TREEDEPTH
 70
  3020
  9
$CMLSTYLE
  2
Standard
  9
$CMLJUST
 70
     0
  9
$CMLSCALE
 40
20.0
  9
$PROXYGRAPHICS
 70
     1
  9
$MEASUREMENT
 70
     1
  9
$CELWEIGHT
370
    -1
  9
$ENDCAPS
280
     0
  9
$JOINSTYLE
280
     0
  9
$LWDISPLAY
290
     1
  9
$INSUNITS
 70
     4
  9
$HYPERLINKBASE
  1

  9
$STYLESHEET
  1

  9
$XEDIT
290
     1
  9
$CEPSNTYPE
380
     0
  9
$PSTYLEMODE
290
     1
  9
$FINGERPRINTGUID
  2
{B552F77A-7395-4F30-B6B5-DFFAE128DC89}
  9
$VERSIONGUID
  2
{FAEB1C32-E019-11D5-929B-00C0DF256EC4}
  9
$EXTNAMES
290
     1
  9
$PSVPSCALE
 40
0.0
  9
$OLESTARTUP
290
     0
  0
ENDSEC
  0
SECTION
  2
CLASSES
  0
CLASS
  1
ACDBDICTIONARYWDFLT
  2
AcDbDictionaryWithDefault
  3
ObjectDBX Classes
 90
        0
280
     0
281
     0
  0
CLASS
  1
VISUALSTYLE
  2
AcDbVisualStyle
  3
ObjectDBX Classes
 90
     4095
280
     0
281
     0
  0
CLASS
  1
MATERIAL
  2
AcDbMaterial
  3
ObjectDBX Classes
 90
     1153
280
     0
281
     0
  0
CLASS
  1
SCALE
  2
AcDbScale
  3
ObjectDBX Classes
 90
     1153
280
     0
281
     0
  0
CLASS
  1
TABLESTYLE
  2
AcDbTableStyle
  3
ObjectDBX Classes
 90
     4095
280
     0
281
     0
  0
CLASS
  1
MLEADERSTYLE
  2
AcDbMLeaderStyle
  3
ACDB_MLEADERSTYLE_CLASS
 90
     4095
280
     0
281
     0
  0
CLASS
  1
SUN
  2
AcDbSun
  3
SCENEOE
 90
     1153
280
     0
281
     0
  0
CLASS
  1
ACDBPLACEHOLDER
  2
AcDbPlaceHolder
  3
ObjectDBX Classes
 90
        0
280
     0
281
     0
  0
CLASS
  1
LAYOUT
  2
AcDbLayout
  3
ObjectDBX Classes
 90
        0
280
     0
281
     0
  0
ENDSEC
  0
SECTION
  2
TABLES
  0
TABLE
  2
VPORT
  5
8
330
0
100
AcDbSymbolTable
 70
     1
  0
VPORT
  5
29
330
8
100
AcDbSymbolTableRecord
100
AcDbViewportTableRecord
  2
*Active
 70
     0
 10
0.0
 20
0.0
 11
1.0
 21
1.0
 12
210.0
 22
148.5
 13
0.0
 23
0.0
 14
10.0
 24
10.0
 15
10.0
 25
10.0
 16
0.0
 26
0.0
 36
1.0
 17
0.0
 27
0.0
 37
0.0
 40
297.0
 41
1.4141414141
 42
50.0
 43
0.0
 44
0.0
 50
0.0
 51
0.0
 71
     0
 72
  2000
 73
     1
 74
     3
 75
     0
 76
     0
 77
     0
 78
     0
281
     0
 65
     1
110
0.0
120
0.0
130
0.0
111
1.0
121
0.0
131
0.0
112
0.0
122
1.0
132
0.0
 79
     0
146
0.0
  0
ENDTAB
  0
TABLE
  2
LTYPE
  5
5
330
0
100
AcDbSymbolTable
 70
     6
  0
LTYPE
  5
14
330
5
100
AcDbSymbolTableRecord
100
AcDbLinetypeTableRecord
  2
ByBlock
 70
     0
  3

 72
    65
 73
     0
 40
0.0
  0
LTYPE
  5
15
330
5
100
AcDbSymbolTableRecord
100
AcDbLinetypeTableRecord
  2
ByLayer
 70
     0
  3

 72
    65
 73
     0
 40
0.0
  0
LTYPE
  5
16
330
5
100
AcDbSymbolTableRecord
100
AcDbLinetypeTableRecord
  2
Continuous
 70
     0
  3
Solid line
 72
    65
 73
     0
 40
0.0
  0
LTYPE
  5
6E
330
5
100
AcDbSymbolTableRecord
100
AcDbLinetypeTableRecord
  2
HIDDEN
 70
     0
  3
Hidden __ __ __ __ __ __ __ __ __ __ __ __ __ __
 72
    65
 73
     2
 40
1.905
 49
1.27
 74
     0
 49
-0.635
 74
     0
  0
LTYPE
  5
6F
330
5
100
AcDbSymbolTableRecord
100
AcDbLinetypeTableRecord
  2
PHANTOM
 70
     0
  3
Phantom ______  __  __  ______  __  __  ______
 72
    65
 73
     6
 40
12.7
 49
6.35
 74
     0
 49
-1.27
 74
     0
 49
1.27
 74
     0
 49
-1.27
 74
     0
 49
1.27
 74
     0
 49
-1.27
 74
     0
  0
LTYPE
  5
70
330
5
100
AcDbSymbolTableRecord
100
AcDbLinetypeTableRecord
  2
CENTER
 70
     0
  3
Center ____ _ ____ _ ____ _ ____ _ ____ _ ____
 72
    65
 73
     4
 40
10.16
 49
6.35
 74
     0
 49
-1.27
 74
     0
 49
1.27
 74
     0
 49
-1.27
 74
     0
  0
LTYPE
  5
71
330
5
100
AcDbSymbolTableRecord
100
AcDbLinetypeTableRecord
  2
CENTERX2
 70
     0
  3
Center (2x) ________  __  ________  __  _____
 72
    65
 73
     4
 40
20.32
 49
12.7
 74
     0
 49
-2.54
 74
     0
 49
2.54
 74
     0
 49
-2.54
 74
     0
  0
LTYPE
  5
72
330
5
100
AcDbSymbolTableRecord
100
AcDbLinetypeTableRecord
  2
DOT2
 70
     0
  3
Dot (.5x) ........................................
 72
    65
 73
     2
 40
0.635
 49
0.0
 74
     0
 49
-0.635
 74
     0
  0
ENDTAB
  0
TABLE
  2
LAYER
  5
2
330
0
100
AcDbSymbolTable
 70
     8
  0
LAYER
  5
10
330
2
100
AcDbSymbolTableRecord
100
AcDbLayerTableRecord
  2
0
 70
     0
 62
     7
  6
Continuous
370
    -3
390
F
  0
LAYER
  5
73
330
2
100
AcDbSymbolTableRecord
100
AcDbLayerTableRecord
  2
FORMAT
 70
     0
 62
     7
  6
Continuous
370
    -3
390
F
  0
LAYER
  5
74
330
2
100
AcDbSymbolTableRecord
100
AcDbLayerTableRecord
  2
太線
 70
     0
 62
     7
  6
Continuous
370
    35
390
F
  0
LAYER
  5
75
330
2
100
AcDbSymbolTableRecord
100
AcDbLayerTableRecord
  2
非表示
 70
     0
 62
    -3
  6
Continuous
290
     0
370
    -3
390
F
  0
LAYER
  5
76
330
2
100
AcDbSymbolTableRecord
100
AcDbLayerTableRecord
  2
設変0
 70
     0
 62
     7
  6
Continuous
370
    -3
390
F
  0
LAYER
  5
77
330
2
100
AcDbSymbolTableRecord
100
AcDbLayerTableRecord
  2
作図用
 70
     0
 62
     7
  6
Continuous
370
    -3
390
F
  0
LAYER
  5
78
330
2
100
AcDbSymbolTableRecord
100
AcDbLayerTableRecord
  2
太線灰
 70
     0
 62
     9
  6
Continuous
370
    50
390
F
  0
LAYER
  5
79
330
2
100
AcDbSymbolTableRecord
100
AcDbLayerTableRecord
  2
灰
 70
     0
 62
     9
  6
Continuous
370
    -3
390
F
  0
ENDTAB
  0
TABLE
  2
STYLE
  5
3
330
0
100
AcDbSymbolTable
 70
    29
  0
STYLE
  5
11
330
3
100
AcDbSymbolTableRecord
100
AcDbTextStyleTableRecord
  2
Standard
 70
     0
 40
0.0
 41
1.0
 50
0.0
 71
     0
 42
3.5
  3
txt
  4
bigfont
  0
STYLE
  5
101
330
3
100
AcDbSymbolTableRecord
100
AcDbTextStyleTableRecord
  2
SLDTEXTSTYLE0
 70
     0
 40
0.0
 41
0.7
 50
0.0
 71
     0
 42
3.5
  3
TXT
  4
bigfont
  0
STYLE
  5
10C
330
3
100
AcDbSymbolTableRecord
100
AcDbTextStyleTableRecord
  2
SLDTEXTSTYLE1
 70
     0
 40
0.0
 41
0.9347633011
 50
0.0
 71
     0
 42
3.5
  3
TXT
  4
bigfont
  0
STYLE
  5
10E
330
3
100
AcDbSymbolTableRecord
100
AcDbTextStyleTableRecord
  2
SLDTEXTSTYLE2
 70
     0
 40
0.0
 41
0.8381134104
 50
0.0
 71
     0
 42
3.5
  3
TXT
  4
bigfont
  0
STYLE
  5
110
330
3
100
AcDbSymbolTableRecord
100
AcDbTextStyleTableRecord
  2
SLDTEXTSTYLE3
 70
     0
 40
0.0
 41
0.8368171345
 50
0.0
 71
     0
 42
3.5
  3
TXT
  4
bigfont
  0
STYLE
  5
112
330
3
100
AcDbSymbolTableRecord
100
AcDbTextStyleTableRecord
  2
SLDTEXTSTYLE4
 70
     0
 40
0.0
 41
0.84
 50
0.0
 71
     0
 42
3.5
  3
TXT
  4
bigfont
  0
STYLE
  5
11A
330
3
100
AcDbSymbolTableRecord
100
AcDbTextStyleTableRecord
  2
SLDTEXTSTYLE5
 70
     0
 40
0.0
 41
0.466666669
 50
0.0
 71
     0
 42
3.5
  3
TXT
  4
bigfont
  0
STYLE
  5
11E
330
3
100
AcDbSymbolTableRecord
100
AcDbTextStyleTableRecord
  2
SLDTEXTSTYLE6
 70
     0
 40
0.0
 41
0.8288540274
 50
0.0
 71
     0
 42
3.5
  3
TXT
  4
bigfont
  0
STYLE
  5
120
330
3
100
AcDbSymbolTableRecord
100
AcDbTextStyleTableRecord
  2
SLDTEXTSTYLE7
 70
     0
 40
0.0
 41
0.8088321234
 50
0.0
 71
     0
 42
3.5
  3
TXT
  4
bigfont
  0
STYLE
  5
122
330
3
100
AcDbSymbolTableRecord
100
AcDbTextStyleTableRecord
  2
SLDTEXTSTYLE8
 70
     0
 40
0.0
 41
0.780339084
 50
0.0
 71
     0
 42
3.5
  3
TXT
  4
bigfont
  0
STYLE
  5
124
330
3
100
AcDbSymbolTableRecord
100
AcDbTextStyleTableRecord
  2
SLDTEXTSTYLE9
 70
     0
 40
0.0
 41
0.8293860372
 50
0.0
 71
     0
 42
3.5
  3
TXT
  4
bigfont
  0
STYLE
  5
126
330
3
100
AcDbSymbolTableRecord
100
AcDbTextStyleTableRecord
  2
SLDTEXTSTYLE10
 70
     0
 40
0.0
 41
0.9381829933
 50
0.0
 71
     0
 42
3.5
  3
TXT
  4
bigfont
  0
STYLE
  5
128
330
3
100
AcDbSymbolTableRecord
100
AcDbTextStyleTableRecord
  2
SLDTEXTSTYLE11
 70
     0
 40
0.0
 41
0.851741268
 50
0.0
 71
     0
 42
3.5
  3
TXT
  4
bigfont
  0
STYLE
  5
12B
330
3
100
AcDbSymbolTableRecord
100
AcDbTextStyleTableRecord
  2
SLDTEXTSTYLE12
 70
     0
 40
0.0
 41
0.719248152
 50
0.0
 71
     0
 42
3.5
  3
TXT
  4
bigfont
  0
STYLE
  5
12D
330
3
100
AcDbSymbolTableRecord
100
AcDbTextStyleTableRecord
  2
SLDTEXTSTYLE13
 70
     0
 40
0.0
 41
0.8121071616
 50
0.0
 71
     0
 42
3.5
  3
TXT
  4
bigfont
  0
STYLE
  5
12F
330
3
100
AcDbSymbolTableRecord
100
AcDbTextStyleTableRecord
  2
SLDTEXTSTYLE14
 70
     0
 40
0.0
 41
0.7706230224
 50
0.0
 71
     0
 42
3.5
  3
TXT
  4
bigfont
  0
STYLE
  5
131
330
3
100
AcDbSymbolTableRecord
100
AcDbTextStyleTableRecord
  2
SLDTEXTSTYLE15
 70
     0
 40
0.0
 41
0.7973422044
 50
0.0
 71
     0
 42
3.5
  3
TXT
  4
bigfont
  0
STYLE
  5
133
330
3
100
AcDbSymbolTableRecord
100
AcDbTextStyleTableRecord
  2
SLDTEXTSTYLE16
 70
     0
 40
0.0
 41
0.858372984
 50
0.0
 71
     0
 42
3.5
  3
TXT
  4
bigfont
  0
STYLE
  5
135
330
3
100
AcDbSymbolTableRecord
100
AcDbTextStyleTableRecord
  2
SLDTEXTSTYLE17
 70
     0
 40
0.0
 41
0.8213352588
 50
0.0
 71
     0
 42
3.5
  3
TXT
  4
bigfont
  0
STYLE
  5
137
330
3
100
AcDbSymbolTableRecord
100
AcDbTextStyleTableRecord
  2
SLDTEXTSTYLE18
 70
     0
 40
0.0
 41
0.7910772324
 50
0.0
 71
     0
 42
3.5
  3
TXT
  4
bigfont
  0
STYLE
  5
139
330
3
100
AcDbSymbolTableRecord
100
AcDbTextStyleTableRecord
  2
SLDTEXTSTYLE19
 70
     0
 40
0.0
 41
0.7599353412
 50
0.0
 71
     0
 42
3.5
  3
TXT
  4
bigfont
  0
STYLE
  5
13C
330
3
100
AcDbSymbolTableRecord
100
AcDbTextStyleTableRecord
  2
SLDTEXTSTYLE20
 70
     0
 40
0.0
 41
0.7790601336
 50
0.0
 71
     0
 42
3.5
  3
TXT
  4
bigfont
  0
STYLE
  5
13E
330
3
100
AcDbSymbolTableRecord
100
AcDbTextStyleTableRecord
  2
SLDTEXTSTYLE21
 70
     0
 40
0.0
 41
0.7251541332
 50
0.0
 71
     0
 42
3.5
  3
TXT
  4
bigfont
  0
STYLE
  5
141
330
3
100
AcDbSymbolTableRecord
100
AcDbTextStyleTableRecord
  2
SLDTEXTSTYLE22
 70
     0
 40
0.0
 41
0.8180131428
 50
0.0
 71
     0
 42
3.5
  3
TXT
  4
bigfont
  0
STYLE
  5
143
330
3
100
AcDbSymbolTableRecord
100
AcDbTextStyleTableRecord
  2
SLDTEXTSTYLE23
 70
     0
 40
0.0
 41
0.7218730344
 50
0.0
 71
     0
 42
3.5
  3
TXT
  4
bigfont
  0
STYLE
  5
146
330
3
100
AcDbSymbolTableRecord
100
AcDbTextStyleTableRecord
  2
SLDTEXTSTYLE24
 70
     0
 40
0.0
 41
0.8339245488
 50
0.0
 71
     0
 42
3.5
  3
TXT
  4
bigfont
  0
STYLE
  5
148
330
3
100
AcDbSymbolTableRecord
100
AcDbTextStyleTableRecord
  2
SLDTEXTSTYLE25
 70
     0
 40
0.0
 41
0.7566825756
 50
0.0
 71
     0
 42
3.5
  3
TXT
  4
bigfont
  0
STYLE
  5
159
330
3
100
AcDbSymbolTableRecord
100
AcDbTextStyleTableRecord
  2
SLDTEXTSTYLE26
 70
     0
 40
0.0
 41
0.860070624
 50
0.0
 71
     0
 42
3.5
  3
TXT
  4
bigfont
  0
STYLE
  5
15B
330
3
100
AcDbSymbolTableRecord
100
AcDbTextStyleTableRecord
  2
SLDTEXTSTYLE27
 70
     0
 40
0.0
 41
1.031377368
 50
0.0
 71
     0
 42
3.5
  3
TXT
  4
bigfont
  0
ENDTAB
  0
TABLE
  2
VIEW
  5
6
330
0
100
AcDbSymbolTable
 70
     0
  0
ENDTAB
  0
TABLE
  2
UCS
  5
7
330
0
100
AcDbSymbolTable
 70
     0
  0
ENDTAB
  0
TABLE
  2
APPID
  5
9
330
0
100
AcDbSymbolTable
 70
     1
  0
APPID
  5
12
330
9
100
AcDbSymbolTableRecord
100
AcDbRegAppTableRecord
  2
ACAD
 70
     0
  0
ENDTAB
  0
TABLE
  2
DIMSTYLE
  5
A
330
0
100
AcDbSymbolTable
 70
     4
100
AcDbDimStyleTable
  0
DIMSTYLE
105
27
330
A
100
AcDbSymbolTableRecord
100
AcDbDimStyleTableRecord
  2
ISO-25
 70
     0
 41
2.5
 42
0.625
 43
3.75
 44
1.25
 73
     0
 74
     0
 77
     1
 78
     8
140
2.5
141
2.5
143
0.0393700787
147
0.625
171
     3
172
     1
178
     0
271
     2
272
     2
274
     3
278
    44
283
     0
284
     8
340
11
  0
DIMSTYLE
105
288
102
{ACAD_REACTORS
330
287
330
298
102
}
330
A
100
AcDbSymbolTableRecord
100
AcDbDimStyleTableRecord
  2
SLDDIMSTYLE0
 70
     0
 41
3.0
 44
0.0
 45
0.000000001
 73
     0
 74
     0
 77
     1
 78
    12
 79
     3
140
3.5
147
0.875
173
     1
178
     0
271
     2
272
     2
276
     2
284
    12
340
101
341
289
343
289
344
289
  0
DIMSTYLE
105
2A9
330
A
100
AcDbSymbolTableRecord
100
AcDbDimStyleTableRecord
  2
SLDDIMSTYLE1
 70
     0
 41
1.0
 44
0.0
 45
0.000000001
147
0.0
173
     1
178
     0
271
     0
272
     0
276
     2
340
11
341
2AA
343
2AA
344
2AA
  0
DIMSTYLE
105
491
330
A
100
AcDbSymbolTableRecord
100
AcDbDimStyleTableRecord
  2
SLDDIMSTYLE2
 70
     0
 41
3.0
 44
0.0
 45
0.000000001
146
3.0
147
0.0
173
     1
178
     0
271
     0
272
     0
276
     2
340
11
341
289
343
289
344
289
  0
ENDTAB
  0
TABLE
  2
BLOCK_RECORD
  5
1
330
0
100
AcDbSymbolTable
 70
    14
  0
BLOCK_RECORD
  5
1F
330
1
100
AcDbSymbolTableRecord
100
AcDbBlockTableRecord
  2
*Model_Space
340
22
  0
BLOCK_RECORD
  5
1B
330
1
100
AcDbSymbolTableRecord
100
AcDbBlockTableRecord
  2
*Paper_Space
340
1E
  0
BLOCK_RECORD
  5
23
330
1
100
AcDbSymbolTableRecord
100
AcDbBlockTableRecord
  2
*Paper_Space0
340
26
  0
BLOCK_RECORD
  5
103
330
1
100
AcDbSymbolTableRecord
100
AcDbBlockTableRecord
  2
SW_NOTE_0
340
0
102
{BLKREFS
331
10A
102
}
  0
BLOCK_RECORD
  5
169
330
1
100
AcDbSymbolTableRecord
100
AcDbBlockTableRecord
  2
SW_NOTE_1
340
0
102
{BLKREFS
331
170
102
}
  0
BLOCK_RECORD
  5
171
330
1
100
AcDbSymbolTableRecord
100
AcDbBlockTableRecord
  2
SW_NOTE_2
340
0
102
{BLKREFS
331
178
102
}
  0
BLOCK_RECORD
  5
179
330
1
100
AcDbSymbolTableRecord
100
AcDbBlockTableRecord
  2
SW_NOTE_3
340
0
102
{BLKREFS
331
180
102
}
  0
BLOCK_RECORD
  5
181
330
1
100
AcDbSymbolTableRecord
100
AcDbBlockTableRecord
  2
SW_NOTE_4
340
0
102
{BLKREFS
331
188
102
}
  0
BLOCK_RECORD
  5
289
330
1
100
AcDbSymbolTableRecord
100
AcDbBlockTableRecord
  2
_OPEN30
340
0
102
{BLKREFS
331
292
331
293
331
29C
331
29D
102
}
  0
BLOCK_RECORD
  5
28F
330
1
100
AcDbSymbolTableRecord
100
AcDbBlockTableRecord
  2
_D
340
0
  0
BLOCK_RECORD
  5
299
330
1
100
AcDbSymbolTableRecord
100
AcDbBlockTableRecord
  2
_D_1
340
0
  0
BLOCK_RECORD
  5
2A3
330
1
100
AcDbSymbolTableRecord
100
AcDbBlockTableRecord
  2
SW_NOTE_5
340
0
102
{BLKREFS
331
2A8
102
}
  0
BLOCK_RECORD
  5
2AA
330
1
100
AcDbSymbolTableRecord
100
AcDbBlockTableRecord
  2
_DOT
340
0
  0
BLOCK_RECORD
  5
48B
330
1
100
AcDbSymbolTableRecord
100
AcDbBlockTableRecord
  2
SW_NOTE_6
340
0
102
{BLKREFS
331
490
102
}
  0
BLOCK_RECORD
  5
493
330
1
100
AcDbSymbolTableRecord
100
AcDbBlockTableRecord
  2
SW_NOTE_7
340
0
102
{BLKREFS
331
498
102
}
  0
BLOCK_RECORD
  5
49A
330
1
100
AcDbSymbolTableRecord
100
AcDbBlockTableRecord
  2
SW_CENTERMARKSYMBOL_0
340
0
102
{BLKREFS
331
4A5
102
}
  0
ENDTAB
  0
ENDSEC
  0
SECTION
  2
BLOCKS
  0
BLOCK
  5
20
330
1F
100
AcDbEntity
  8
0
100
AcDbBlockBegin
  2
*Model_Space
 70
     0
 10
0.0
 20
0.0
 30
0.0
  3
*Model_Space
  1

  0
ENDBLK
  5
21
330
1F
100
AcDbEntity
  8
0
100
AcDbBlockEnd
  0
BLOCK
  5
1C
330
1B
100
AcDbEntity
 67
     1
  8
0
100
AcDbBlockBegin
  2
*Paper_Space
 70
     0
 10
0.0
 20
0.0
 30
0.0
  3
*Paper_Space
  1

  0
ENDBLK
  5
1D
330
1B
100
AcDbEntity
 67
     1
  8
0
100
AcDbBlockEnd
  0
BLOCK
  5
24
330
23
100
AcDbEntity
  8
0
100
AcDbBlockBegin
  2
*Paper_Space0
 70
     0
 10
0.0
 20
0.0
 30
0.0
  3
*Paper_Space0
  1

  0
ENDBLK
  5
25
330
23
100
AcDbEntity
  8
0
100
AcDbBlockEnd
  0
BLOCK
  5
104
330
103
100
AcDbEntity
  8
0
100
AcDbBlockBegin
  2
SW_NOTE_0
 70
     0
 10
0.0
 20
0.0
 30
0.0
  3
SW_NOTE_0
  1

  0
LINE
  5
106
330
103
100
AcDbEntity
  8
FORMAT
 62
     0
100
AcDbLine
 10
-3.25882148
 20
0.0
 30
0.0
 11
1.3077276526
 21
7.909495113
 31
0.0
  0
LINE
  5
107
330
103
100
AcDbEntity
  8
FORMAT
 62
     0
100
AcDbLine
 10
1.3077276526
 20
7.909495113
 30
0.0
 11
5.8742767852
 21
0.0
 31
0.0
  0
LINE
  5
108
330
103
100
AcDbEntity
  8
FORMAT
 62
     0
100
AcDbLine
 10
5.8742767852
 20
0.0
 30
0.0
 11
-3.25882148
 21
0.0
 31
0.0
  0
MTEXT
  5
109
330
103
100
AcDbEntity
  8
FORMAT
 62
     0
100
AcDbMText
 10
0.0
 20
5.4570534317
 30
0.0
 40
4.2333333333
 41
0.0
 71
     1
 72
     1
  1
1
  7
SLDTEXTSTYLE0
 73
     1
 44
1.0
  0
ENDBLK
  5
105
330
103
100
AcDbEntity
  8
0
100
AcDbBlockEnd
  0
BLOCK
  5
16A
330
169
100
AcDbEntity
  8
0
100
AcDbBlockBegin
  2
SW_NOTE_1
 70
     0
 10
0.0
 20
0.0
 30
0.0
  3
SW_NOTE_1
  1

  0
LINE
  5
16C
330
169
100
AcDbEntity
  8
FORMAT
 62
     0
100
AcDbLine
 10
-1.62941074
 20
0.0
 30
0.0
 11
0.6933063269
 21
4.0230639715
 31
0.0
  0
LINE
  5
16D
330
169
100
AcDbEntity
  8
FORMAT
 62
     0
100
AcDbLine
 10
0.6933063269
 20
4.0230639715
 30
0.0
 11
3.0160233938
 21
0.0
 31
0.0
  0
LINE
  5
16E
330
169
100
AcDbEntity
  8
FORMAT
 62
     0
100
AcDbLine
 10
3.0160233938
 20
0.0
 30
0.0
 11
-1.62941074
 21
0.0
 31
0.0
  0
MTEXT
  5
16F
330
169
100
AcDbEntity
  8
FORMAT
 62
     0
100
AcDbMText
 10
0.0
 20
2.7285267159
 30
0.0
 40
2.1166666667
 41
0.0
 71
     1
 72
     1
  1
0
  7
SLDTEXTSTYLE0
 73
     1
 44
1.0
  0
ENDBLK
  5
16B
330
169
100
AcDbEntity
  8
0
100
AcDbBlockEnd
  0
BLOCK
  5
172
330
171
100
AcDbEntity
  8
0
100
AcDbBlockBegin
  2
SW_NOTE_2
 70
     0
 10
0.0
 20
0.0
 30
0.0
  3
SW_NOTE_2
  1

  0
LINE
  5
174
330
171
100
AcDbEntity
  8
FORMAT
 62
     0
100
AcDbLine
 10
-1.62941074
 20
0.0
 30
0.0
 11
0.6538638263
 21
3.9547475565
 31
0.0
  0
LINE
  5
175
330
171
100
AcDbEntity
  8
FORMAT
 62
     0
100
AcDbLine
 10
0.6538638263
 20
3.9547475565
 30
0.0
 11
2.9371383926
 21
0.0
 31
0.0
  0
LINE
  5
176
330
171
100
AcDbEntity
  8
FORMAT
 62
     0
100
AcDbLine
 10
2.9371383926
 20
0.0
 30
0.0
 11
-1.62941074
 21
0.0
 31
0.0
  0
MTEXT
  5
177
330
171
100
AcDbEntity
  8
FORMAT
 62
     0
100
AcDbMText
 10
0.0
 20
2.7285267159
 30
0.0
 40
2.1166666667
 41
0.0
 71
     1
 72
     1
  1
1
  7
SLDTEXTSTYLE0
 73
     1
 44
1.0
  0
ENDBLK
  5
173
330
171
100
AcDbEntity
  8
0
100
AcDbBlockEnd
  0
BLOCK
  5
17A
330
179
100
AcDbEntity
  8
0
100
AcDbBlockBegin
  2
SW_NOTE_3
 70
     0
 10
0.0
 20
0.0
 30
0.0
  3
SW_NOTE_3
  1

  0
LINE
  5
17C
330
179
100
AcDbEntity
  8
FORMAT
 62
     0
100
AcDbLine
 10
-1.62941074
 20
0.0
 30
0.0
 11
0.6876717089
 21
4.0133045268
 31
0.0
  0
LINE
  5
17D
330
179
100
AcDbEntity
  8
FORMAT
 62
     0
100
AcDbLine
 10
0.6876717089
 20
4.0133045268
 30
0.0
 11
3.0047541578
 21
0.0
 31
0.0
  0
LINE
  5
17E
330
179
100
AcDbEntity
  8
FORMAT
 62
     0
100
AcDbLine
 10
3.0047541578
 20
0.0
 30
0.0
 11
-1.62941074
 21
0.0
 31
0.0
  0
MTEXT
  5
17F
330
179
100
AcDbEntity
  8
FORMAT
 62
     0
100
AcDbMText
 10
0.0
 20
2.7285267159
 30
0.0
 40
2.1166666667
 41
0.0
 71
     1
 72
     1
  1
2
  7
SLDTEXTSTYLE0
 73
     1
 44
1.0
  0
ENDBLK
  5
17B
330
179
100
AcDbEntity
  8
0
100
AcDbBlockEnd
  0
BLOCK
  5
182
330
181
100
AcDbEntity
  8
0
100
AcDbBlockBegin
  2
SW_NOTE_4
 70
     0
 10
0.0
 20
0.0
 30
0.0
  3
SW_NOTE_4
  1

  0
LINE
  5
184
330
181
100
AcDbEntity
  8
FORMAT
 62
     0
100
AcDbLine
 10
-1.62941074
 20
0.0
 30
0.0
 11
0.6876717089
 21
4.0133045268
 31
0.0
  0
LINE
  5
185
330
181
100
AcDbEntity
  8
FORMAT
 62
     0
100
AcDbLine
 10
0.6876717089
 20
4.0133045268
 30
0.0
 11
3.0047541578
 21
0.0
 31
0.0
  0
LINE
  5
186
330
181
100
AcDbEntity
  8
FORMAT
 62
     0
100
AcDbLine
 10
3.0047541578
 20
0.0
 30
0.0
 11
-1.62941074
 21
0.0
 31
0.0
  0
MTEXT
  5
187
330
181
100
AcDbEntity
  8
FORMAT
 62
     0
100
AcDbMText
 10
0.0
 20
2.7285267159
 30
0.0
 40
2.1166666667
 41
0.0
 71
     1
 72
     1
  1
3
  7
SLDTEXTSTYLE0
 73
     1
 44
1.0
  0
ENDBLK
  5
183
330
181
100
AcDbEntity
  8
0
100
AcDbBlockEnd
  0
BLOCK
  5
28A
330
289
100
AcDbEntity
  8
0
100
AcDbBlockBegin
  2
_OPEN30
 70
     0
 10
0.0
 20
0.0
 30
0.0
  3
_OPEN30
  1

  0
LINE
  5
28C
330
289
100
AcDbEntity
  8
0
  6
ByBlock
 62
     0
370
    -2
100
AcDbLine
 10
-1.0
 20
0.267949
 30
0.0
 11
0.0
 21
0.0
 31
0.0
  0
LINE
  5
28D
330
289
100
AcDbEntity
  8
0
  6
ByBlock
 62
     0
370
    -2
100
AcDbLine
 10
0.0
 20
0.0
 30
0.0
 11
-1.0
 21
-0.267949
 31
0.0
  0
LINE
  5
28E
330
289
100
AcDbEntity
  8
0
  6
ByBlock
 62
     0
370
    -2
100
AcDbLine
 10
0.0
 20
0.0
 30
0.0
 11
-1.0
 21
0.0
 31
0.0
  0
ENDBLK
  5
28B
330
289
100
AcDbEntity
  8
0
100
AcDbBlockEnd
  0
BLOCK
  5
290
330
28F
100
AcDbEntity
  8
0
100
AcDbBlockBegin
  2
_D
 70
     0
 10
0.0
 20
0.0
 30
0.0
  3
_D
  1

  0
INSERT
  5
292
330
28F
100
AcDbEntity
  8
FORMAT
100
AcDbBlockReference
  2
_OPEN30
 10
183.0509632761
 20
133.4155800705
 30
-0.0823278984
 41
3.0
 42
3.0
 50
180.0
  0
INSERT
  5
293
330
28F
100
AcDbEntity
  8
FORMAT
100
AcDbBlockReference
  2
_OPEN30
 10
294.6509632761
 20
133.4155800705
 30
-0.0823278984
 41
3.0
 42
3.0
 50
0.0
  0
LINE
  5
294
330
28F
100
AcDbEntity
  8
FORMAT
100
AcDbLine
 10
183.0509632761
 20
156.0509928686
 30
0.0
 11
183.0509632761
 21
132.4155800705
 31
0.0
  0
LINE
  5
295
330
28F
100
AcDbEntity
  8
FORMAT
100
AcDbLine
 10
294.6509632761
 20
162.4273685824
 30
0.0
 11
294.6509632761
 21
132.4155800705
 31
0.0
  0
LINE
  5
296
330
28F
100
AcDbEntity
  8
FORMAT
100
AcDbLine
 10
183.0509632761
 20
133.4155800705
 30
0.0
 11
294.6509632761
 21
133.4155800705
 31
0.0
  0
MTEXT
  5
297
330
28F
100
AcDbEntity
  8
FORMAT
100
AcDbMText
 10
230.7693660001
 20
137.9273169269
 30
0.0
 40
3.5
 41
0.0
 71
     1
 72
     1
  1
約112mm
  7
SLDTEXTSTYLE0
 73
     1
 44
1.0
  0
ENDBLK
  5
291
330
28F
100
AcDbEntity
  8
0
100
AcDbBlockEnd
  0
BLOCK
  5
29A
330
299
100
AcDbEntity
  8
0
100
AcDbBlockBegin
  2
_D_1
 70
     0
 10
0.0
 20
0.0
 30
0.0
  3
_D_1
  1

  0
INSERT
  5
29C
330
299
100
AcDbEntity
  8
FORMAT
100
AcDbBlockReference
  2
_OPEN30
 10
294.6509632761
 20
133.4155800705
 30
-0.0823278984
 41
3.0
 42
3.0
 50
180.0
  0
INSERT
  5
29D
330
299
100
AcDbEntity
  8
FORMAT
100
AcDbBlockReference
  2
_OPEN30
 10
351.2009632761
 20
133.4155800705
 30
-0.0823278984
 41
3.0
 42
3.0
 50
0.0
  0
LINE
  5
29E
330
299
100
AcDbEntity
  8
FORMAT
100
AcDbLine
 10
294.6509632761
 20
162.4273685824
 30
0.0
 11
294.6509632761
 21
132.4155800705
 31
0.0
  0
LINE
  5
29F
330
299
100
AcDbEntity
  8
FORMAT
100
AcDbLine
 10
351.2009632761
 20
164.7009928686
 30
0.0
 11
351.2009632761
 21
132.4155800705
 31
0.0
  0
LINE
  5
2A0
330
299
100
AcDbEntity
  8
FORMAT
100
AcDbLine
 10
294.6509632761
 20
133.4155800705
 30
0.0
 11
351.2009632761
 21
133.4155800705
 31
0.0
  0
MTEXT
  5
2A1
330
299
100
AcDbEntity
  8
FORMAT
100
AcDbMText
 10
311.7235329235
 20
142.0009279219
 30
0.0
 40
3.5
 41
0.0
 71
     1
 72
     1
  1
指定長±5％
  7
SLDTEXTSTYLE0
 73
     1
 44
1.0
  0
MTEXT
  5
2A2
330
299
100
AcDbEntity
  8
FORMAT
100
AcDbMText
 10
306.4759623492
 20
137.9273169269
 30
0.0
 40
3.5
 41
0.0
 71
     1
 72
     1
  1
(2m未満は±10cm)
  7
SLDTEXTSTYLE0
 73
     1
 44
1.0
  0
ENDBLK
  5
29B
330
299
100
AcDbEntity
  8
0
100
AcDbBlockEnd
  0
BLOCK
  5
2A4
330
2A3
100
AcDbEntity
  8
0
100
AcDbBlockBegin
  2
SW_NOTE_5
 70
     0
 10
0.0
 20
0.0
 30
0.0
  3
SW_NOTE_5
  1

  0
LINE
  5
2A6
330
2A3
100
AcDbEntity
  8
FORMAT
 62
     0
100
AcDbLine
 10
28.4027896285
 20
0.0
 30
0.0
 11
0.0
 21
0.0
 31
0.0
  0
MTEXT
  5
2A7
330
2A3
100
AcDbEntity
  8
FORMAT
 62
     0
100
AcDbMText
 10
0.3986194045
 20
4.5669711088
 30
0.0
 40
3.5
 41
0.0
 71
     1
 72
     1
  1
嵌合識別シール
  7
SLDTEXTSTYLE0
 73
     1
 44
1.0
  0
ENDBLK
  5
2A5
330
2A3
100
AcDbEntity
  8
0
100
AcDbBlockEnd
  0
BLOCK
  5
2AB
330
2AA
100
AcDbEntity
  8
0
100
AcDbBlockBegin
  2
_DOT
 70
     0
 10
0.0
 20
0.0
 30
0.0
  3
_DOT
  1

  0
POLYLINE
  5
2AD
330
2AA
100
AcDbEntity
  8
0
  6
ByBlock
 62
     0
100
AcDb2dPolyline
 66
     1
 10
0.0
 20
0.0
 30
0.0
 70
     1
 40
0.5
 41
0.5
  0
VERTEX
  5
2AF
330
2AD
100
AcDbEntity
  8
0
  6
ByBlock
 62
     0
100
AcDbVertex
100
AcDb2dVertex
 10
-0.25
 20
0.0
 30
0.0
 42
1.0
  0
VERTEX
  5
2B0
330
2AD
100
AcDbEntity
  8
0
  6
ByBlock
 62
     0
100
AcDbVertex
100
AcDb2dVertex
 10
0.25
 20
0.0
 30
0.0
 42
1.0
  0
SEQEND
  5
2B1
330
2AD
100
AcDbEntity
  8
0
  6
ByBlock
 62
     0
  0
LINE
  5
2AE
330
2AA
100
AcDbEntity
  8
0
  6
ByBlock
 62
     0
370
    -2
100
AcDbLine
 10
-0.5
 20
0.0
 30
0.0
 11
-1.0
 21
0.0
 31
0.0
  0
ENDBLK
  5
2AC
330
2AA
100
AcDbEntity
  8
0
100
AcDbBlockEnd
  0
BLOCK
  5
48C
330
48B
100
AcDbEntity
  8
0
100
AcDbBlockBegin
  2
SW_NOTE_6
 70
     0
 10
0.0
 20
0.0
 30
0.0
  3
SW_NOTE_6
  1

  0
LINE
  5
48E
330
48B
100
AcDbEntity
  8
FORMAT
 62
     0
100
AcDbLine
 10
-24.4229015499
 20
0.0
 30
0.0
 11
0.0
 21
0.0
 31
0.0
  0
MTEXT
  5
48F
330
48B
100
AcDbEntity
  8
FORMAT
 62
     0
100
AcDbMText
 10
-24.903572106
 20
4.5679603242
 30
0.0
 40
3.5
 41
0.0
 71
     1
 72
     1
  1
直径：約42mm
  7
SLDTEXTSTYLE0
 73
     1
 44
1.0
  0
ENDBLK
  5
48D
330
48B
100
AcDbEntity
  8
0
100
AcDbBlockEnd
  0
BLOCK
  5
494
330
493
100
AcDbEntity
  8
0
100
AcDbBlockBegin
  2
SW_NOTE_7
 70
     0
 10
0.0
 20
0.0
 30
0.0
  3
SW_NOTE_7
  1

  0
LINE
  5
496
330
493
100
AcDbEntity
  8
FORMAT
 62
     0
100
AcDbLine
 10
26.0111234546
 20
0.0
 30
0.0
 11
0.0
 21
0.0
 31
0.0
  0
MTEXT
  5
497
330
493
100
AcDbEntity
  8
FORMAT
 62
     0
100
AcDbMText
 10
0.4378630875
 20
4.5168760162
 30
0.0
 40
3.5
 41
0.0
 71
     1
 72
     1
  1
端子(代表 3極)
  7
SLDTEXTSTYLE0
 73
     1
 44
1.0
  0
ENDBLK
  5
495
330
493
100
AcDbEntity
  8
0
100
AcDbBlockEnd
  0
BLOCK
  5
49B
330
49A
100
AcDbEntity
  8
0
100
AcDbBlockBegin
  2
SW_CENTERMARKSYMBOL_0
 70
     0
 10
0.0
 20
0.0
 30
0.0
  3
SW_CENTERMARKSYMBOL_0
  1

  0
LINE
  5
49D
330
49A
100
AcDbEntity
  8
FORMAT
 62
     0
100
AcDbLine
 10
0.0
 20
0.0
 30
0.0
 11
0.0
 21
2.5
 31
0.0
  0
LINE
  5
49E
330
49A
100
AcDbEntity
  8
FORMAT
 62
     0
100
AcDbLine
 10
0.0
 20
0.0
 30
0.0
 11
-2.5
 21
0.0
 31
0.0
  0
LINE
  5
49F
330
49A
100
AcDbEntity
  8
FORMAT
 62
     0
100
AcDbLine
 10
0.0
 20
0.0
 30
0.0
 11
0.0
 21
-2.5
 31
0.0
  0
LINE
  5
4A0
330
49A
100
AcDbEntity
  8
FORMAT
 62
     0
100
AcDbLine
 10
0.0
 20
0.0
 30
0.0
 11
2.5
 21
0.0
 31
0.0
  0
LINE
  5
4A1
330
49A
100
AcDbEntity
  8
FORMAT
 62
     0
100
AcDbLine
 10
0.0
 20
5.0
 30
0.0
 11
0.0
 21
23.5
 31
0.0
  0
LINE
  5
4A2
330
49A
100
AcDbEntity
  8
FORMAT
 62
     0
100
AcDbLine
 10
-5.0
 20
0.0
 30
0.0
 11
-23.5
 21
0.0
 31
0.0
  0
LINE
  5
4A3
330
49A
100
AcDbEntity
  8
FORMAT
 62
     0
100
AcDbLine
 10
0.0
 20
-5.0
 30
0.0
 11
0.0
 21
-23.5
 31
0.0
  0
LINE
  5
4A4
330
49A
100
AcDbEntity
  8
FORMAT
 62
     0
100
AcDbLine
 10
5.0
 20
0.0
 30
0.0
 11
23.5
 21
0.0
 31
0.0
  0
ENDBLK
  5
49C
330
49A
100
AcDbEntity
  8
0
100
AcDbBlockEnd
  0
ENDSEC
  0
SECTION
  2
ENTITIES
  0
LINE
  5
7A
330
1F
100
AcDbEntity
  8
0
  6
Continuous
 62
     7
370
    35
100
AcDbLine
 10
374.8999
 20
45.0
 30
0.0
 11
374.8999
 21
25.0
 31
0.0
  0
LINE
  5
7B
330
1F
100
AcDbEntity
  8
0
  6
Continuous
 62
     7
370
    18
100
AcDbLine
 10
248.0
 20
5.0
 30
0.0
 11
248.0
 21
10.0
 31
0.0
  0
LINE
  5
7C
330
1F
100
AcDbEntity
  8
0
  6
Continuous
 62
     7
370
    18
100
AcDbLine
 10
313.0
 20
5.0
 30
0.0
 11
313.0
 21
10.0
 31
0.0
  0
LINE
  5
7D
330
1F
100
AcDbEntity
  8
0
  6
Continuous
 62
     7
370
    18
100
AcDbLine
 10
312.0
 20
5.0
 30
0.0
 11
312.0
 21
10.0
 31
0.0
  0
LINE
  5
7E
330
1F
100
AcDbEntity
  8
0
  6
Continuous
 62
     7
370
    18
100
AcDbLine
 10
311.0
 20
5.0
 30
0.0
 11
311.0
 21
10.0
 31
0.0
  0
LINE
  5
7F
330
1F
100
AcDbEntity
  8
0
  6
Continuous
 62
     7
370
    18
100
AcDbLine
 10
310.0
 20
5.0
 30
0.0
 11
310.0
 21
10.0
 31
0.0
  0
LINE
  5
80
330
1F
100
AcDbEntity
  8
0
  6
Continuous
 62
     7
370
    18
100
AcDbLine
 10
309.0
 20
5.0
 30
0.0
 11
309.0
 21
10.0
 31
0.0
  0
LINE
  5
81
330
1F
100
AcDbEntity
  8
0
  6
Continuous
 62
     7
370
    18
100
AcDbLine
 10
308.0
 20
5.0
 30
0.0
 11
308.0
 21
10.0
 31
0.0
  0
LINE
  5
82
330
1F
100
AcDbEntity
  8
0
  6
Continuous
 62
     7
370
    18
100
AcDbLine
 10
304.0
 20
5.0
 30
0.0
 11
304.0
 21
10.0
 31
0.0
  0
LINE
  5
83
330
1F
100
AcDbEntity
  8
0
  6
Continuous
 62
     7
370
    18
100
AcDbLine
 10
303.0
 20
5.0
 30
0.0
 11
303.0
 21
10.0
 31
0.0
  0
LINE
  5
84
330
1F
100
AcDbEntity
  8
0
  6
Continuous
 62
     7
370
    18
100
AcDbLine
 10
302.0
 20
5.0
 30
0.0
 11
302.0
 21
10.0
 31
0.0
  0
LINE
  5
85
330
1F
100
AcDbEntity
  8
0
  6
Continuous
 62
     7
370
    18
100
AcDbLine
 10
301.0
 20
5.0
 30
0.0
 11
301.0
 21
10.0
 31
0.0
  0
LINE
  5
86
330
1F
100
AcDbEntity
  8
0
  6
Continuous
 62
     7
370
    18
100
AcDbLine
 10
300.0
 20
5.0
 30
0.0
 11
300.0
 21
10.0
 31
0.0
  0
LINE
  5
87
330
1F
100
AcDbEntity
  8
0
  6
Continuous
 62
     7
370
    18
100
AcDbLine
 10
299.0
 20
5.0
 30
0.0
 11
299.0
 21
10.0
 31
0.0
  0
LINE
  5
88
330
1F
100
AcDbEntity
  8
0
  6
Continuous
 62
     7
370
    18
100
AcDbLine
 10
298.0
 20
5.0
 30
0.0
 11
298.0
 21
10.0
 31
0.0
  0
LINE
  5
89
330
1F
100
AcDbEntity
  8
0
  6
Continuous
 62
     7
370
    18
100
AcDbLine
 10
294.0
 20
5.0
 30
0.0
 11
294.0
 21
10.0
 31
0.0
  0
LINE
  5
8A
330
1F
100
AcDbEntity
  8
0
  6
Continuous
 62
     7
370
    18
100
AcDbLine
 10
293.0
 20
5.0
 30
0.0
 11
293.0
 21
10.0
 31
0.0
  0
LINE
  5
8B
330
1F
100
AcDbEntity
  8
0
  6
Continuous
 62
     7
370
    18
100
AcDbLine
 10
292.0
 20
5.0
 30
0.0
 11
292.0
 21
10.0
 31
0.0
  0
LINE
  5
8C
330
1F
100
AcDbEntity
  8
0
  6
Continuous
 62
     7
370
    18
100
AcDbLine
 10
291.0
 20
5.0
 30
0.0
 11
291.0
 21
10.0
 31
0.0
  0
LINE
  5
8D
330
1F
100
AcDbEntity
  8
0
  6
Continuous
 62
     7
370
    18
100
AcDbLine
 10
290.0
 20
5.0
 30
0.0
 11
290.0
 21
10.0
 31
0.0
  0
LINE
  5
8E
330
1F
100
AcDbEntity
  8
0
  6
Continuous
 62
     7
370
    18
100
AcDbLine
 10
289.0
 20
5.0
 30
0.0
 11
289.0
 21
10.0
 31
0.0
  0
LINE
  5
8F
330
1F
100
AcDbEntity
  8
0
  6
Continuous
 62
     7
370
    18
100
AcDbLine
 10
288.0
 20
5.0
 30
0.0
 11
288.0
 21
10.0
 31
0.0
  0
LINE
  5
90
330
1F
100
AcDbEntity
  8
0
  6
Continuous
 62
     7
370
    18
100
AcDbLine
 10
284.0
 20
5.0
 30
0.0
 11
284.0
 21
10.0
 31
0.0
  0
LINE
  5
91
330
1F
100
AcDbEntity
  8
0
  6
Continuous
 62
     7
370
    18
100
AcDbLine
 10
283.0
 20
5.0
 30
0.0
 11
283.0
 21
10.0
 31
0.0
  0
LINE
  5
92
330
1F
100
AcDbEntity
  8
0
  6
Continuous
 62
     7
370
    18
100
AcDbLine
 10
282.0
 20
5.0
 30
0.0
 11
282.0
 21
10.0
 31
0.0
  0
LINE
  5
93
330
1F
100
AcDbEntity
  8
0
  6
Continuous
 62
     7
370
    18
100
AcDbLine
 10
281.0
 20
5.0
 30
0.0
 11
281.0
 21
10.0
 31
0.0
  0
LINE
  5
94
330
1F
100
AcDbEntity
  8
0
  6
Continuous
 62
     7
370
    18
100
AcDbLine
 10
280.0
 20
5.0
 30
0.0
 11
280.0
 21
10.0
 31
0.0
  0
LINE
  5
95
330
1F
100
AcDbEntity
  8
0
  6
Continuous
 62
     7
370
    18
100
AcDbLine
 10
279.0
 20
5.0
 30
0.0
 11
279.0
 21
10.0
 31
0.0
  0
LINE
  5
96
330
1F
100
AcDbEntity
  8
0
  6
Continuous
 62
     7
370
    18
100
AcDbLine
 10
278.0
 20
5.0
 30
0.0
 11
278.0
 21
10.0
 31
0.0
  0
LINE
  5
97
330
1F
100
AcDbEntity
  8
0
  6
Continuous
 62
     7
370
    18
100
AcDbLine
 10
274.0
 20
5.0
 30
0.0
 11
274.0
 21
10.0
 31
0.0
  0
LINE
  5
98
330
1F
100
AcDbEntity
  8
0
  6
Continuous
 62
     7
370
    18
100
AcDbLine
 10
273.0
 20
5.0
 30
0.0
 11
273.0
 21
10.0
 31
0.0
  0
LINE
  5
99
330
1F
100
AcDbEntity
  8
0
  6
Continuous
 62
     7
370
    18
100
AcDbLine
 10
272.0
 20
5.0
 30
0.0
 11
272.0
 21
10.0
 31
0.0
  0
LINE
  5
9A
330
1F
100
AcDbEntity
  8
0
  6
Continuous
 62
     7
370
    18
100
AcDbLine
 10
271.0
 20
5.0
 30
0.0
 11
271.0
 21
10.0
 31
0.0
  0
LINE
  5
9B
330
1F
100
AcDbEntity
  8
0
  6
Continuous
 62
     7
370
    18
100
AcDbLine
 10
270.0
 20
5.0
 30
0.0
 11
270.0
 21
10.0
 31
0.0
  0
LINE
  5
9C
330
1F
100
AcDbEntity
  8
0
  6
Continuous
 62
     7
370
    18
100
AcDbLine
 10
269.0
 20
5.0
 30
0.0
 11
269.0
 21
10.0
 31
0.0
  0
LINE
  5
9D
330
1F
100
AcDbEntity
  8
0
  6
Continuous
 62
     7
370
    18
100
AcDbLine
 10
268.0
 20
5.0
 30
0.0
 11
268.0
 21
10.0
 31
0.0
  0
LINE
  5
9E
330
1F
100
AcDbEntity
  8
0
  6
Continuous
 62
     7
370
    18
100
AcDbLine
 10
264.0
 20
5.0
 30
0.0
 11
264.0
 21
10.0
 31
0.0
  0
LINE
  5
9F
330
1F
100
AcDbEntity
  8
0
  6
Continuous
 62
     7
370
    18
100
AcDbLine
 10
263.0
 20
5.0
 30
0.0
 11
263.0
 21
10.0
 31
0.0
  0
LINE
  5
A0
330
1F
100
AcDbEntity
  8
0
  6
Continuous
 62
     7
370
    18
100
AcDbLine
 10
262.0
 20
5.0
 30
0.0
 11
262.0
 21
10.0
 31
0.0
  0
LINE
  5
A1
330
1F
100
AcDbEntity
  8
0
  6
Continuous
 62
     7
370
    18
100
AcDbLine
 10
261.0
 20
5.0
 30
0.0
 11
261.0
 21
10.0
 31
0.0
  0
LINE
  5
A2
330
1F
100
AcDbEntity
  8
0
  6
Continuous
 62
     7
370
    18
100
AcDbLine
 10
260.0
 20
5.0
 30
0.0
 11
260.0
 21
10.0
 31
0.0
  0
LINE
  5
A3
330
1F
100
AcDbEntity
  8
0
  6
Continuous
 62
     7
370
    18
100
AcDbLine
 10
259.0
 20
5.0
 30
0.0
 11
259.0
 21
10.0
 31
0.0
  0
LINE
  5
A4
330
1F
100
AcDbEntity
  8
0
  6
Continuous
 62
     7
370
    18
100
AcDbLine
 10
258.0
 20
5.0
 30
0.0
 11
258.0
 21
10.0
 31
0.0
  0
LINE
  5
A5
330
1F
100
AcDbEntity
  8
0
  6
Continuous
 62
     7
370
    18
100
AcDbLine
 10
254.0
 20
5.0
 30
0.0
 11
254.0
 21
10.0
 31
0.0
  0
LINE
  5
A6
330
1F
100
AcDbEntity
  8
0
  6
Continuous
 62
     7
370
    18
100
AcDbLine
 10
253.0
 20
5.0
 30
0.0
 11
253.0
 21
10.0
 31
0.0
  0
LINE
  5
A7
330
1F
100
AcDbEntity
  8
0
  6
Continuous
 62
     7
370
    18
100
AcDbLine
 10
252.0
 20
5.0
 30
0.0
 11
252.0
 21
10.0
 31
0.0
  0
LINE
  5
A8
330
1F
100
AcDbEntity
  8
0
  6
Continuous
 62
     7
370
    18
100
AcDbLine
 10
251.0
 20
5.0
 30
0.0
 11
251.0
 21
10.0
 31
0.0
  0
LINE
  5
A9
330
1F
100
AcDbEntity
  8
0
  6
Continuous
 62
     7
370
    18
100
AcDbLine
 10
250.0
 20
5.0
 30
0.0
 11
250.0
 21
10.0
 31
0.0
  0
LINE
  5
AA
330
1F
100
AcDbEntity
  8
0
  6
Continuous
 62
     7
370
    18
100
AcDbLine
 10
249.0
 20
5.0
 30
0.0
 11
249.0
 21
10.0
 31
0.0
  0
LINE
  5
AB
330
1F
100
AcDbEntity
  8
0
  6
Continuous
 62
     7
370
    18
100
AcDbLine
 10
240.0
 20
5.0
 30
0.0
 11
240.0
 21
10.0
 31
0.0
  0
LINE
  5
AC
330
1F
100
AcDbEntity
  8
0
  6
Continuous
 62
     7
370
    18
100
AcDbLine
 10
239.0
 20
5.0
 30
0.0
 11
239.0
 21
10.0
 31
0.0
  0
LINE
  5
AD
330
1F
100
AcDbEntity
  8
0
  6
Continuous
 62
     7
370
    18
100
AcDbLine
 10
243.0
 20
5.0
 30
0.0
 11
243.0
 21
10.0
 31
0.0
  0
LINE
  5
AE
330
1F
100
AcDbEntity
  8
0
  6
Continuous
 62
     7
370
    18
100
AcDbLine
 10
242.0
 20
5.0
 30
0.0
 11
242.0
 21
10.0
 31
0.0
  0
LINE
  5
AF
330
1F
100
AcDbEntity
  8
0
  6
Continuous
 62
     7
370
    18
100
AcDbLine
 10
241.0
 20
5.0
 30
0.0
 11
241.0
 21
10.0
 31
0.0
  0
LINE
  5
B0
330
1F
100
AcDbEntity
  8
0
  6
Continuous
 62
     7
370
    18
100
AcDbLine
 10
314.0
 20
5.0
 30
0.0
 11
314.0
 21
10.0
 31
0.0
  0
LINE
  5
B1
330
1F
100
AcDbEntity
  8
0
  6
Continuous
 62
     7
370
    18
100
AcDbLine
 10
244.0
 20
5.0
 30
0.0
 11
244.0
 21
10.0
 31
0.0
  0
LINE
  5
B2
330
1F
100
AcDbEntity
  8
0
  6
Continuous
 62
     7
370
    18
100
AcDbLine
 10
307.0
 20
5.0
 30
0.0
 11
307.0
 21
10.0
 31
0.0
  0
LINE
  5
B3
330
1F
100
AcDbEntity
  8
0
  6
Continuous
 62
     7
370
    18
100
AcDbLine
 10
297.0
 20
5.0
 30
0.0
 11
297.0
 21
10.0
 31
0.0
  0
LINE
  5
B4
330
1F
100
AcDbEntity
  8
0
  6
Continuous
 62
     7
370
    18
100
AcDbLine
 10
287.0
 20
5.0
 30
0.0
 11
287.0
 21
10.0
 31
0.0
  0
LINE
  5
B5
330
1F
100
AcDbEntity
  8
0
  6
Continuous
 62
     7
370
    18
100
AcDbLine
 10
277.0
 20
5.0
 30
0.0
 11
277.0
 21
10.0
 31
0.0
  0
LINE
  5
B6
330
1F
100
AcDbEntity
  8
0
  6
Continuous
 62
     7
370
    18
100
AcDbLine
 10
267.0
 20
5.0
 30
0.0
 11
267.0
 21
10.0
 31
0.0
  0
LINE
  5
B7
330
1F
100
AcDbEntity
  8
0
  6
Continuous
 62
     7
370
    18
100
AcDbLine
 10
257.0
 20
5.0
 30
0.0
 11
257.0
 21
10.0
 31
0.0
  0
LINE
  5
B8
330
1F
100
AcDbEntity
  8
0
  6
Continuous
 62
     7
370
    18
100
AcDbLine
 10
247.0
 20
5.0
 30
0.0
 11
247.0
 21
10.0
 31
0.0
  0
LINE
  5
B9
330
1F
100
AcDbEntity
  8
0
  6
Continuous
 62
     7
370
    18
100
AcDbLine
 10
238.0
 20
5.0
 30
0.0
 11
238.0
 21
10.0
 31
0.0
  0
LINE
  5
BA
330
1F
100
AcDbEntity
  8
0
  6
Continuous
 62
     7
370
    18
100
AcDbLine
 10
237.0
 20
5.0
 30
0.0
 11
237.0
 21
10.0
 31
0.0
  0
LINE
  5
BB
330
1F
100
AcDbEntity
  8
0
  6
Continuous
 62
     7
370
    18
100
AcDbLine
 10
266.0
 20
5.0
 30
0.0
 11
266.0
 21
10.0
 31
0.0
  0
LINE
  5
BC
330
1F
100
AcDbEntity
  8
0
  6
Continuous
 62
     7
370
    18
100
AcDbLine
 10
256.0
 20
5.0
 30
0.0
 11
256.0
 21
10.0
 31
0.0
  0
LINE
  5
BD
330
1F
100
AcDbEntity
  8
0
  6
Continuous
 62
     7
370
    18
100
AcDbLine
 10
306.0
 20
5.0
 30
0.0
 11
306.0
 21
10.0
 31
0.0
  0
LINE
  5
BE
330
1F
100
AcDbEntity
  8
0
  6
Continuous
 62
     7
370
    18
100
AcDbLine
 10
296.0
 20
5.0
 30
0.0
 11
296.0
 21
10.0
 31
0.0
  0
LINE
  5
BF
330
1F
100
AcDbEntity
  8
0
  6
Continuous
 62
     7
370
    18
100
AcDbLine
 10
286.0
 20
5.0
 30
0.0
 11
286.0
 21
10.0
 31
0.0
  0
LINE
  5
C0
330
1F
100
AcDbEntity
  8
0
  6
Continuous
 62
     7
370
    18
100
AcDbLine
 10
276.0
 20
5.0
 30
0.0
 11
276.0
 21
10.0
 31
0.0
  0
LINE
  5
C1
330
1F
100
AcDbEntity
  8
0
  6
Continuous
 62
     7
370
    18
100
AcDbLine
 10
246.0
 20
5.0
 30
0.0
 11
246.0
 21
10.0
 31
0.0
  0
LINE
  5
C2
330
1F
100
AcDbEntity
  8
0
  6
Continuous
 62
     7
370
    18
100
AcDbLine
 10
236.0
 20
5.0
 30
0.0
 11
236.0
 21
10.0
 31
0.0
  0
LINE
  5
C3
330
1F
100
AcDbEntity
  8
0
  6
Continuous
 62
     7
370
    18
100
AcDbLine
 10
295.0
 20
5.0
 30
0.0
 11
295.0
 21
15.0
 31
0.0
  0
LINE
  5
C4
330
1F
100
AcDbEntity
  8
0
  6
Continuous
 62
     7
370
    18
100
AcDbLine
 10
265.0
 20
5.0
 30
0.0
 11
265.0
 21
15.0
 31
0.0
  0
LINE
  5
C5
330
1F
100
AcDbEntity
  8
0
  6
Continuous
 62
     7
370
    18
100
AcDbLine
 10
305.0
 20
5.0
 30
0.0
 11
305.0
 21
15.0
 31
0.0
  0
LINE
  5
C6
330
1F
100
AcDbEntity
  8
0
  6
Continuous
 62
     7
370
    18
100
AcDbLine
 10
285.0
 20
5.0
 30
0.0
 11
285.0
 21
15.0
 31
0.0
  0
LINE
  5
C7
330
1F
100
AcDbEntity
  8
0
  6
Continuous
 62
     7
370
    18
100
AcDbLine
 10
255.0
 20
5.0
 30
0.0
 11
255.0
 21
15.0
 31
0.0
  0
LINE
  5
C8
330
1F
100
AcDbEntity
  8
0
  6
Continuous
 62
     7
370
    18
100
AcDbLine
 10
245.0
 20
5.0
 30
0.0
 11
245.0
 21
15.0
 31
0.0
  0
LINE
  5
C9
330
1F
100
AcDbEntity
  8
0
  6
Continuous
 62
     7
370
    18
100
AcDbLine
 10
235.0
 20
5.0
 30
0.0
 11
235.0
 21
15.0
 31
0.0
  0
LINE
  5
CA
330
1F
100
AcDbEntity
  8
0
  6
Continuous
 62
     7
370
    18
100
AcDbLine
 10
315.0
 20
5.0
 30
0.0
 11
315.0
 21
15.0
 31
0.0
  0
LINE
  5
CB
330
1F
100
AcDbEntity
  8
0
  6
Continuous
 62
     7
370
    18
100
AcDbLine
 10
275.0
 20
5.0
 30
0.0
 11
275.0
 21
15.0
 31
0.0
  0
LINE
  5
CC
330
1F
100
AcDbEntity
  8
0
  6
Continuous
 62
     7
370
    18
100
AcDbLine
 10
0.099999964
 20
50.0
 30
0.0
 11
0.099999964
 21
0.099999964
 31
0.0
  0
LINE
  5
CD
330
1F
100
AcDbEntity
  8
0
  6
Continuous
 62
     7
370
    18
100
AcDbLine
 10
0.099999964
 20
0.099999964
 30
0.0
 11
50.0
 21
0.099999964
 31
0.0
  0
LINE
  5
CE
330
1F
100
AcDbEntity
  8
0
  6
Continuous
 62
     7
370
    18
100
AcDbLine
 10
0.099999964
 20
296.8999
 30
0.0
 11
0.099999964
 21
247.0
 31
0.0
  0
LINE
  5
CF
330
1F
100
AcDbEntity
  8
0
  6
Continuous
 62
     7
370
    18
100
AcDbLine
 10
0.099999964
 20
296.8999
 30
0.0
 11
50.0
 21
296.8999
 31
0.0
  0
LINE
  5
D0
330
1F
100
AcDbEntity
  8
0
  6
Continuous
 62
     7
370
    18
100
AcDbLine
 10
370.0
 20
296.8999
 30
0.0
 11
419.8999
 21
296.8999
 31
0.0
  0
LINE
  5
D1
330
1F
100
AcDbEntity
  8
0
  6
Continuous
 62
     7
370
    18
100
AcDbLine
 10
419.8999
 20
296.8999
 30
0.0
 11
419.8999
 21
247.0
 31
0.0
  0
LINE
  5
D2
330
1F
100
AcDbEntity
  8
0
  6
Continuous
 62
     7
370
    18
100
AcDbLine
 10
370.0
 20
0.099999964
 30
0.0
 11
419.8999
 21
0.099999964
 31
0.0
  0
LINE
  5
D3
330
1F
100
AcDbEntity
  8
0
  6
Continuous
 62
     7
370
    18
100
AcDbLine
 10
419.8999
 20
50.0
 30
0.0
 11
419.8999
 21
0.099999964
 31
0.0
  0
LINE
  5
D4
330
1F
100
AcDbEntity
  8
灰
100
AcDbLine
 10
145.0
 20
20.0
 30
0.0
 11
15.0
 21
20.0
 31
0.0
  0
LINE
  5
D5
330
1F
100
AcDbEntity
  8
灰
100
AcDbLine
 10
145.0
 20
25.0
 30
0.0
 11
15.0
 21
25.0
 31
0.0
  0
LINE
  5
D6
330
1F
100
AcDbEntity
  8
0
  6
Continuous
 62
     7
370
    18
100
AcDbLine
 10
383.8999
 20
28.0
 30
0.0
 11
396.8999
 21
28.0
 31
0.0
  0
LINE
  5
D7
330
1F
100
AcDbEntity
  8
灰
100
AcDbLine
 10
15.0
 20
30.0
 30
0.0
 11
145.0
 21
30.0
 31
0.0
  0
LINE
  5
D8
330
1F
100
AcDbEntity
  8
灰
100
AcDbLine
 10
15.0
 20
35.0
 30
0.0
 11
145.0
 21
35.0
 31
0.0
  0
LINE
  5
D9
330
1F
100
AcDbEntity
  8
太線灰
100
AcDbLine
 10
145.0
 20
40.0
 30
0.0
 11
15.0
 21
40.0
 31
0.0
  0
LINE
  5
DA
330
1F
100
AcDbEntity
  8
0
  6
HIDDEN
 62
     7
370
    18
100
AcDbLine
 10
210.0
 20
55.0
 30
0.0
 11
275.0
 21
55.0
 31
0.0
  0
LINE
  5
DB
330
1F
100
AcDbEntity
  8
灰
100
AcDbLine
 10
24.82
 20
40.0
 30
0.0
 11
24.82
 21
15.0
 31
0.0
  0
LINE
  5
DC
330
1F
100
AcDbEntity
  8
灰
100
AcDbLine
 10
49.82
 20
40.0
 30
0.0
 11
49.82
 21
15.0
 31
0.0
  0
LINE
  5
DD
330
1F
100
AcDbEntity
  8
灰
100
AcDbLine
 10
102.82
 20
40.0
 30
0.0
 11
102.82
 21
15.0
 31
0.0
  0
LINE
  5
DE
330
1F
100
AcDbEntity
  8
灰
100
AcDbLine
 10
130.32
 20
40.0
 30
0.0
 11
130.32
 21
15.0
 31
0.0
  0
LINE
  5
DF
330
1F
100
AcDbEntity
  8
0
  6
Continuous
 62
     7
370
    35
100
AcDbLine
 10
145.0
 20
15.0
 30
0.0
 11
145.0
 21
75.0
 31
0.0
  0
LINE
  5
E0
330
1F
100
AcDbEntity
  8
0
  6
Continuous
 62
     7
370
    50
100
AcDbLine
 10
15.0
 20
282.0
 30
0.0
 11
15.0
 21
15.0
 31
0.0
  0
LINE
  5
E1
330
1F
100
AcDbEntity
  8
0
  6
HIDDEN
 62
     7
370
    18
100
AcDbLine
 10
210.0
 20
50.0
 30
0.0
 11
275.0
 21
50.0
 31
0.0
  0
LINE
  5
E2
330
1F
100
AcDbEntity
  8
0
  6
Continuous
 62
     7
370
    35
100
AcDbLine
 10
339.94995
 20
65.0
 30
0.0
 11
339.94995
 21
75.0
 31
0.0
  0
LINE
  5
E3
330
1F
100
AcDbEntity
  8
0
  6
Continuous
 62
     7
370
    50
100
AcDbLine
 10
145.0
 20
75.0
 30
0.0
 11
404.8999
 21
75.0
 31
0.0
  0
LINE
  5
E4
330
1F
100
AcDbEntity
  8
0
  6
Continuous
 62
     7
370
    35
100
AcDbLine
 10
210.0
 20
70.0
 30
0.0
 11
210.0
 21
45.0
 31
0.0
  0
LINE
  5
E5
330
1F
100
AcDbEntity
  8
0
  6
Continuous
 62
     7
370
    35
100
AcDbLine
 10
170.0
 20
35.0
 30
0.0
 11
170.0
 21
45.0
 31
0.0
  0
LINE
  5
E6
330
1F
100
AcDbEntity
  8
0
  6
Continuous
 62
     7
370
    35
100
AcDbLine
 10
205.0
 20
35.0
 30
0.0
 11
205.0
 21
45.0
 31
0.0
  0
LINE
  5
E7
330
1F
100
AcDbEntity
  8
0
  6
Continuous
 62
     7
370
    35
100
AcDbLine
 10
230.0
 20
35.0
 30
0.0
 11
230.0
 21
45.0
 31
0.0
  0
LINE
  5
E8
330
1F
100
AcDbEntity
  8
0
  6
Continuous
 62
     7
370
    35
100
AcDbLine
 10
245.0
 20
35.0
 30
0.0
 11
245.0
 21
45.0
 31
0.0
  0
LINE
  5
E9
330
1F
100
AcDbEntity
  8
0
  6
Continuous
 62
     7
370
    35
100
AcDbLine
 10
260.0
 20
35.0
 30
0.0
 11
260.0
 21
45.0
 31
0.0
  0
LINE
  5
EA
330
1F
100
AcDbEntity
  8
0
  6
Continuous
 62
     7
370
    18
100
AcDbLine
 10
175.0
 20
15.0
 30
0.0
 11
175.0
 21
35.0
 31
0.0
  0
LINE
  5
EB
330
1F
100
AcDbEntity
  8
0
  6
Continuous
 62
     7
370
    18
100
AcDbLine
 10
200.0
 20
15.0
 30
0.0
 11
200.0
 21
35.0
 31
0.0
  0
LINE
  5
EC
330
1F
100
AcDbEntity
  8
0
  6
Continuous
 62
     7
370
    18
100
AcDbLine
 10
225.0
 20
15.0
 30
0.0
 11
225.0
 21
35.0
 31
0.0
  0
LINE
  5
ED
330
1F
100
AcDbEntity
  8
0
  6
Continuous
 62
     7
370
    18
100
AcDbLine
 10
250.0
 20
15.0
 30
0.0
 11
250.0
 21
35.0
 31
0.0
  0
LINE
  5
EE
330
1F
100
AcDbEntity
  8
0
  6
Continuous
 62
     7
370
    35
100
AcDbLine
 10
145.0
 20
70.0
 30
0.0
 11
275.0
 21
70.0
 31
0.0
  0
LINE
  5
EF
330
1F
100
AcDbEntity
  8
0
  6
Continuous
 62
     7
370
    18
100
AcDbLine
 10
145.0
 20
65.0
 30
0.0
 11
275.0
 21
65.0
 31
0.0
  0
LINE
  5
F0
330
1F
100
AcDbEntity
  8
0
  6
Continuous
 62
     7
370
    35
100
AcDbLine
 10
145.0
 20
60.0
 30
0.0
 11
275.0
 21
60.0
 31
0.0
  0
LINE
  5
F1
330
1F
100
AcDbEntity
  8
0
  6
Continuous
 62
     7
370
    35
100
AcDbLine
 10
145.0
 20
55.0
 30
0.0
 11
210.0
 21
55.0
 31
0.0
  0
LINE
  5
F2
330
1F
100
AcDbEntity
  8
0
  6
Continuous
 62
     7
370
    35
100
AcDbLine
 10
145.0
 20
50.0
 30
0.0
 11
210.0
 21
50.0
 31
0.0
  0
LINE
  5
F3
330
1F
100
AcDbEntity
  8
0
  6
Continuous
 62
     7
370
    35
100
AcDbLine
 10
145.0
 20
45.0
 30
0.0
 11
275.0
 21
45.0
 31
0.0
  0
LINE
  5
F4
330
1F
100
AcDbEntity
  8
0
  6
Continuous
 62
     7
370
    18
100
AcDbLine
 10
145.0
 20
40.0
 30
0.0
 11
275.0
 21
40.0
 31
0.0
  0
LINE
  5
F5
330
1F
100
AcDbEntity
  8
0
  6
Continuous
 62
     7
370
    35
100
AcDbLine
 10
145.0
 20
35.0
 30
0.0
 11
275.0
 21
35.0
 31
0.0
  0
LINE
  5
F6
330
1F
100
AcDbEntity
  8
0
  6
Continuous
 62
     7
370
    35
100
AcDbLine
 10
145.0
 20
30.0
 30
0.0
 11
275.0
 21
30.0
 31
0.0
  0
LINE
  5
F7
330
1F
100
AcDbEntity
  8
0
  6
Continuous
 62
     7
370
    18
100
AcDbLine
 10
145.0
 20
20.0
 30
0.0
 11
275.0
 21
20.0
 31
0.0
  0
LINE
  5
F8
330
1F
100
AcDbEntity
  8
0
  6
HIDDEN
 62
     7
370
    35
100
AcDbLine
 10
290.46899
 20
55.0
 30
0.0
 11
404.8999
 21
55.0
 31
0.0
  0
LINE
  5
F9
330
1F
100
AcDbEntity
  8
0
  6
Continuous
 62
     7
370
    35
100
AcDbLine
 10
275.0
 20
45.0
 30
0.0
 11
404.8999
 21
45.0
 31
0.0
  0
LINE
  5
FA
330
1F
100
AcDbEntity
  8
0
  6
Continuous
 62
     7
370
    35
100
AcDbLine
 10
275.0
 20
25.0
 30
0.0
 11
404.8999
 21
25.0
 31
0.0
  0
LINE
  5
FB
330
1F
100
AcDbEntity
  8
0
  6
Continuous
 62
     7
370
    35
100
AcDbLine
 10
275.0
 20
65.0
 30
0.0
 11
404.8999
 21
65.0
 31
0.0
  0
LINE
  5
FC
330
1F
100
AcDbEntity
  8
0
  6
Continuous
 62
     7
370
    35
100
AcDbLine
 10
275.0
 20
35.0
 30
0.0
 11
404.8999
 21
35.0
 31
0.0
  0
LINE
  5
FD
330
1F
100
AcDbEntity
  8
0
  6
Continuous
 62
     7
370
    35
100
AcDbLine
 10
275.0
 20
15.0
 30
0.0
 11
275.0
 21
75.0
 31
0.0
  0
LINE
  5
FE
330
1F
100
AcDbEntity
  8
0
  6
Continuous
 62
     7
370
    50
100
AcDbLine
 10
15.0
 20
282.0
 30
0.0
 11
404.8999
 21
282.0
 31
0.0
  0
LINE
  5
FF
330
1F
100
AcDbEntity
  8
0
  6
Continuous
 62
     7
370
    50
100
AcDbLine
 10
404.8999
 20
282.0
 30
0.0
 11
404.8999
 21
15.0
 31
0.0
  0
LINE
  5
100
330
1F
100
AcDbEntity
  8
0
  6
Continuous
 62
     7
370
    50
100
AcDbLine
 10
15.0
 20
15.0
 30
0.0
 11
404.8999
 21
15.0
 31
0.0
  0
MTEXT
  5
102
330
1F
100
AcDbEntity
  8
FORMAT
100
AcDbMText
 10
254.1847073469
 20
85.652185444
 30
0.0
 40
4.2333333333
 41
0.0
 71
     1
 72
     1
  1
※コネクタ寸法は、2～5極まで同一寸法です。
  7
SLDTEXTSTYLE0
 73
     1
 44
1.0
  0
INSERT
  5
10A
330
1F
100
AcDbEntity
  8
FORMAT
100
AcDbBlockReference
  2
SW_NOTE_0
 10
44.8171398962
 20
201.845340488
 30
0.0
  0
MTEXT
  5
10B
330
1F
100
AcDbEntity
  8
FORMAT
100
AcDbMText
 10
254.1847073469
 20
94.8921180206
 30
0.0
 40
4.2333333333
 41
0.0
 71
     1
 72
     1
  1
※コネクタ色は、電源用：黒　制御及び複合用：灰　となります。
  7
SLDTEXTSTYLE0
 73
     1
 44
1.0
  0
MTEXT
  5
10D
330
1F
100
AcDbEntity
  8
0
  6
Continuous
 62
     7
370
     0
100
AcDbMText
 10
375.410020225
 20
33.9493166522
 30
0.0
 40
2.6000004
 41
0.0
 71
     1
 72
     1
  1
SET DWG NO.
  7
SLDTEXTSTYLE1
 73
     1
 44
1.0
  0
MTEXT
  5
10F
330
1F
100
AcDbEntity
  8
0
  6
Continuous
 62
     7
370
     0
100
AcDbMText
 10
276.47336
 20
39.1785177399
 30
0.0
 40
2.7999992
 41
0.0
 71
     1
 72
     1
  1
CH. CODE
  7
SLDTEXTSTYLE2
 73
     1
 44
1.0
  0
MTEXT
  5
111
330
1F
100
AcDbEntity
  8
0
  6
Continuous
 62
     7
370
     0
100
AcDbMText
 10
276.38037
 20
44.1004537399
 30
0.0
 40
2.7999992
 41
0.0
 71
     1
 72
     1
  1
PART NO.
  7
SLDTEXTSTYLE3
 73
     1
 44
1.0
  0
MTEXT
  5
113
330
1F
100
AcDbEntity
  8
0
  6
Continuous
 62
     7
370
     0
100
AcDbMText
 10
267.06445
 20
39.1690916888
 30
0.0
 40
3.0819824219
 41
0.0
 71
     1
 72
     1
  1
3
  7
SLDTEXTSTYLE4
 73
     1
 44
1.0
  0
MTEXT
  5
114
330
1F
100
AcDbEntity
  8
0
  6
Continuous
 62
     7
370
     0
100
AcDbMText
 10
318.04688
 20
14.4453388795
 30
0.0
 40
5.0
 41
0.0
 71
     1
 72
     1
  1
3
  7
SLDTEXTSTYLE0
 73
     1
 44
1.0
  0
MTEXT
  5
115
330
1F
100
AcDbEntity
  8
0
  6
Continuous
 62
     7
370
     0
100
AcDbMText
 10
218.04688
 20
14.4453388795
 30
0.0
 40
5.0
 41
0.0
 71
     1
 72
     1
  1
2
  7
SLDTEXTSTYLE0
 73
     1
 44
1.0
  0
MTEXT
  5
116
330
1F
100
AcDbEntity
  8
0
  6
Continuous
 62
     7
370
     0
100
AcDbMText
 10
405.44678
 20
112.9453388795
 30
0.0
 40
5.0
 41
0.0
 71
     1
 72
     1
  1
A
  7
SLDTEXTSTYLE0
 73
     1
 44
1.0
  0
MTEXT
  5
117
330
1F
100
AcDbEntity
  8
0
  6
Continuous
 62
     7
370
     0
100
AcDbMText
 10
405.44678
 20
212.9453388795
 30
0.0
 40
5.0
 41
0.0
 71
     1
 72
     1
  1
B
  7
SLDTEXTSTYLE0
 73
     1
 44
1.0
  0
MTEXT
  5
118
330
1F
100
AcDbEntity
  8
0
  6
Continuous
 62
     7
370
     0
100
AcDbMText
 10
318.04688
 20
288.4453388795
 30
0.0
 40
5.0
 41
0.0
 71
     1
 72
     1
  1
3
  7
SLDTEXTSTYLE0
 73
     1
 44
1.0
  0
MTEXT
  5
119
330
1F
100
AcDbEntity
  8
0
  6
Continuous
 62
     7
370
     0
100
AcDbMText
 10
218.04688
 20
288.4453388795
 30
0.0
 40
5.0
 41
0.0
 71
     1
 72
     1
  1
2
  7
SLDTEXTSTYLE0
 73
     1
 44
1.0
  0
MTEXT
  5
11B
330
1F
100
AcDbEntity
  8
0
  6
Continuous
 62
     7
370
     0
100
AcDbMText
 10
118.04688
 20
288.4453388795
 30
0.0
 40
5.0
 41
0.0
 71
     1
 72
     1
  1
1
  7
SLDTEXTSTYLE5
 73
     1
 44
1.0
  0
MTEXT
  5
11C
330
1F
100
AcDbEntity
  8
0
  6
Continuous
 62
     7
370
     0
100
AcDbMText
 10
10.546875
 20
212.9453388795
 30
0.0
 40
5.0
 41
0.0
 71
     1
 72
     1
  1
B
  7
SLDTEXTSTYLE0
 73
     1
 44
1.0
  0
MTEXT
  5
11D
330
1F
100
AcDbEntity
  8
0
  6
Continuous
 62
     7
370
     0
100
AcDbMText
 10
10.546875
 20
112.9453388795
 30
0.0
 40
5.0
 41
0.0
 71
     1
 72
     1
  1
A
  7
SLDTEXTSTYLE0
 73
     1
 44
1.0
  0
MTEXT
  5
11F
330
1F
100
AcDbEntity
  8
0
  6
Continuous
 62
     7
370
     0
100
AcDbMText
 10
211.40288
 20
59.2414134143
 30
0.0
 40
3.199995
 41
0.0
 71
     1
 72
     1
  1
TRIAL PART NO.
  7
SLDTEXTSTYLE6
 73
     1
 44
1.0
  0
MTEXT
  5
121
330
1F
100
AcDbEntity
  8
0
  6
Continuous
 62
     7
370
     0
100
AcDbMText
 10
276.22412
 20
34.3027534143
 30
0.0
 40
3.199995
 41
0.0
 71
     1
 72
     1
  1
DWG NO.
  7
SLDTEXTSTYLE7
 73
     1
 44
1.0
  0
MTEXT
  5
123
330
1F
100
AcDbEntity
  8
0
  6
Continuous
 62
     7
370
     0
100
AcDbMText
 10
276.22412
 20
63.0649764143
 30
0.0
 40
3.199995
 41
0.0
 71
     1
 72
     1
  1
NAME
  7
SLDTEXTSTYLE8
 73
     1
 44
1.0
  0
MTEXT
  5
125
330
1F
100
AcDbEntity
  8
0
  6
Continuous
 62
     7
370
     0
100
AcDbMText
 10
340.89746
 20
74.5688674143
 30
0.0
 40
3.199995
 41
0.0
 71
     1
 72
     1
  1
TREAT.
  7
SLDTEXTSTYLE9
 73
     1
 44
1.0
  0
MTEXT
  5
127
330
1F
100
AcDbEntity
  8
0
  6
Continuous
 62
     7
370
     0
100
AcDbMText
 10
340.89746
 20
69.7688734143
 30
0.0
 40
3.199995
 41
0.0
 71
     1
 72
     1
  1
& FIN.
  7
SLDTEXTSTYLE10
 73
     1
 44
1.0
  0
MTEXT
  5
129
330
1F
100
AcDbEntity
  8
0
  6
Continuous
 62
     7
370
     0
100
AcDbMText
 10
276.05688
 20
74.7688794143
 30
0.0
 40
3.199995
 41
0.0
 71
     1
 72
     1
  1
MATL.
  7
SLDTEXTSTYLE11
 73
     1
 44
1.0
  0
MTEXT
  5
12A
330
1F
100
AcDbEntity
  8
0
  6
Continuous
 62
     7
370
     0
100
AcDbMText
 10
276.05688
 20
69.9688854143
 30
0.0
 40
3.199995
 41
0.0
 71
     1
 72
     1
  1
SPEC.
  7
SLDTEXTSTYLE11
 73
     1
 44
1.0
  0
MTEXT
  5
12C
330
1F
100
AcDbEntity
  8
0
  6
Continuous
 62
     7
370
     0
100
AcDbMText
 10
254.31299
 20
34.3454474143
 30
0.0
 40
3.199995
 41
0.0
 71
     1
 72
     1
  1
DRAWN
  7
SLDTEXTSTYLE12
 73
     1
 44
1.0
  0
MTEXT
  5
12E
330
1F
100
AcDbEntity
  8
0
  6
Continuous
 62
     7
370
     0
100
AcDbMText
 10
229.41702
 20
34.3454474143
 30
0.0
 40
3.199995
 41
0.0
 71
     1
 72
     1
  1
DESIGN
  7
SLDTEXTSTYLE13
 73
     1
 44
1.0
  0
MTEXT
  5
130
330
1F
100
AcDbEntity
  8
0
  6
Continuous
 62
     7
370
     0
100
AcDbMText
 10
260.89722
 20
44.2633554143
 30
0.0
 40
3.199995
 41
0.0
 71
     1
 72
     1
  1
ANGLE
  7
SLDTEXTSTYLE14
 73
     1
 44
1.0
  0
MTEXT
  5
132
330
1F
100
AcDbEntity
  8
0
  6
Continuous
 62
     7
370
     0
100
AcDbMText
 10
249.25284
 20
44.2633554143
 30
0.0
 40
3.199995
 41
0.0
 71
     1
 72
     1
  1
SCL
  7
SLDTEXTSTYLE15
 73
     1
 44
1.0
  0
MTEXT
  5
134
330
1F
100
AcDbEntity
  8
0
  6
Continuous
 62
     7
370
     0
100
AcDbMText
 10
231.44109
 20
44.2633554143
 30
0.0
 40
3.199995
 41
0.0
 71
     1
 72
     1
  1
UNIT
  7
SLDTEXTSTYLE16
 73
     1
 44
1.0
  0
MTEXT
  5
136
330
1F
100
AcDbEntity
  8
0
  6
Continuous
 62
     7
370
     0
100
AcDbMText
 10
211.40288
 20
69.3617294143
 30
0.0
 40
3.199995
 41
0.0
 71
     1
 72
     1
  1
CUSTOMER DWG NO.
  7
SLDTEXTSTYLE17
 73
     1
 44
1.0
  0
MTEXT
  5
138
330
1F
100
AcDbEntity
  8
0
  6
Continuous
 62
     7
370
     0
100
AcDbMText
 10
206.54512
 20
44.2633554143
 30
0.0
 40
3.199995
 41
0.0
 71
     1
 72
     1
  1
DWG DATE
  7
SLDTEXTSTYLE18
 73
     1
 44
1.0
  0
MTEXT
  5
13A
330
1F
100
AcDbEntity
  8
0
  6
Continuous
 62
     7
370
     0
100
AcDbMText
 10
202.48497
 20
34.3454474143
 30
0.0
 40
3.199995
 41
0.0
 71
     1
 72
     1
  1
CHECKED
  7
SLDTEXTSTYLE19
 73
     1
 44
1.0
  0
MTEXT
  5
13B
330
1F
100
AcDbEntity
  8
0
  6
Continuous
 62
     7
370
     0
100
AcDbMText
 10
177.38661
 20
34.3454474143
 30
0.0
 40
3.199995
 41
0.0
 71
     1
 72
     1
  1
CHECKED
  7
SLDTEXTSTYLE19
 73
     1
 44
1.0
  0
MTEXT
  5
13D
330
1F
100
AcDbEntity
  8
0
  6
Continuous
 62
     7
370
     0
100
AcDbMText
 10
174.36255
 20
44.2633554143
 30
0.0
 40
3.199995
 41
0.0
 71
     1
 72
     1
  1
DWG SOURCE
  7
SLDTEXTSTYLE20
 73
     1
 44
1.0
  0
MTEXT
  5
13F
330
1F
100
AcDbEntity
  8
0
  6
Continuous
 62
     7
370
     0
100
AcDbMText
 10
149.26418
 20
34.3454474143
 30
0.0
 40
3.199995
 41
0.0
 71
     1
 72
     1
  1
APPROVED
  7
SLDTEXTSTYLE21
 73
     1
 44
1.0
  0
MTEXT
  5
140
330
1F
100
AcDbEntity
  8
0
  6
Continuous
 62
     7
370
     0
100
AcDbMText
 10
147.24011
 20
44.2633554143
 30
0.0
 40
3.199995
 41
0.0
 71
     1
 72
     1
  1
DWG TYPE
  7
SLDTEXTSTYLE18
 73
     1
 44
1.0
  0
MTEXT
  5
142
330
1F
100
AcDbEntity
  8
0
  6
Continuous
 62
     7
370
     0
100
AcDbMText
 10
146.4305
 20
49.3235054143
 30
0.0
 40
3.199995
 41
0.0
 71
     1
 72
     1
  1
VENDOR NO.
  7
SLDTEXTSTYLE22
 73
     1
 44
1.0
  0
MTEXT
  5
144
330
1F
100
AcDbEntity
  8
0
  6
Continuous
 62
     7
370
     0
100
AcDbMText
 10
146.4305
 20
54.3836714143
 30
0.0
 40
3.199995
 41
0.0
 71
     1
 72
     1
  1
VENDOR
  7
SLDTEXTSTYLE23
 73
     1
 44
1.0
  0
MTEXT
  5
145
330
1F
100
AcDbEntity
  8
0
  6
Continuous
 62
     7
370
     0
100
AcDbMText
 10
146.4305
 20
59.2414134143
 30
0.0
 40
3.199995
 41
0.0
 71
     1
 72
     1
  1
OFFICE
  7
SLDTEXTSTYLE13
 73
     1
 44
1.0
  0
MTEXT
  5
147
330
1F
100
AcDbEntity
  8
0
  6
Continuous
 62
     7
370
     0
100
AcDbMText
 10
146.4305
 20
69.3617294143
 30
0.0
 40
3.199995
 41
0.0
 71
     1
 72
     1
  1
CUSTOMER PART NO.
  7
SLDTEXTSTYLE24
 73
     1
 44
1.0
  0
MTEXT
  5
149
330
1F
100
AcDbEntity
  8
0
  6
Continuous
 62
     7
370
     0
100
AcDbMText
 10
146.4305
 20
74.2194864143
 30
0.0
 40
3.199995
 41
0.0
 71
     1
 72
     1
  1
CUSTOMER
  7
SLDTEXTSTYLE25
 73
     1
 44
1.0
  0
MTEXT
  5
14A
330
1F
100
AcDbEntity
  8
0
  6
Continuous
 62
     7
370
     0
100
AcDbMText
 10
249.5068390142
 20
39.3843808466
 30
0.0
 40
3.175
 41
0.0
 71
     1
 72
     1
  1
1:1
  7
SLDTEXTSTYLE4
 73
     1
 44
1.0
  0
MTEXT
  5
14B
330
1F
100
AcDbEntity
  8
0
  6
Continuous
 62
     7
370
     0
100
AcDbMText
 10
232.9907856572
 20
39.4785758094
 30
0.0
 40
3.175
 41
0.0
 71
     1
 72
     1
  1
ｍｍ
  7
SLDTEXTSTYLE0
 73
     1
 44
1.0
  0
MTEXT
  5
14C
330
1F
100
AcDbEntity
  8
0
  6
Continuous
 62
     7
370
     0
100
AcDbMText
 10
181.9568909487
 20
39.2365913784
 30
0.0
 40
3.175
 41
0.0
 71
     1
 72
     1
  1
NEW
  7
SLDTEXTSTYLE4
 73
     1
 44
1.0
  0
MTEXT
  5
14D
330
1F
100
AcDbEntity
  8
0
  6
Continuous
 62
     7
370
     0
100
AcDbMText
 10
207.235725888
 20
39.4513035665
 30
0.0
 40
3.175
 41
0.0
 71
     1
 72
     1
  1
2018.7.13
  7
SLDTEXTSTYLE0
 73
     1
 44
1.0
  0
MTEXT
  5
14E
330
1F
100
AcDbEntity
  8
0
  6
Continuous
 62
     7
370
     0
100
AcDbMText
 10
156.5368702922
 20
39.4433861022
 30
0.0
 40
3.175
 41
0.0
 71
     1
 72
     1
  1
R
  7
SLDTEXTSTYLE0
 73
     1
 44
1.0
  0
MTEXT
  5
14F
330
1F
100
AcDbEntity
  8
0
  6
Continuous
 62
     7
370
     0
100
AcDbMText
 10
229.5791610766
 20
26.7706336468
 30
0.0
 40
2.9104166667
 41
0.0
 71
     1
 72
     1
  1
W.IIZUKA
  7
SLDTEXTSTYLE0
 73
     1
 44
1.0
  0
MTEXT
  5
150
330
1F
100
AcDbEntity
  8
0
  6
Continuous
 62
     7
370
     0
100
AcDbMText
 10
253.2790334005
 20
19.5472190798
 30
0.0
 40
3.175
 41
0.0
 71
     1
 72
     1
  1
2018.7.13
  7
SLDTEXTSTYLE0
 73
     1
 44
1.0
  0
MTEXT
  5
151
330
1F
100
AcDbEntity
  8
0
  6
Continuous
 62
     7
370
     0
100
AcDbMText
 10
253.2790334005
 20
26.7706336468
 30
0.0
 40
2.9104166667
 41
0.0
 71
     1
 72
     1
  1
Y.HIROTANI
  7
SLDTEXTSTYLE0
 73
     1
 44
1.0
  0
MTEXT
  5
152
330
1F
100
AcDbEntity
  8
0
  6
Continuous
 62
     7
370
     0
100
AcDbMText
 10
299.1431374184
 20
32.8773898714
 30
0.0
 40
4.7625
 41
0.0
 71
     1
 72
     1
  1
YDR79018041:R
  7
SLDTEXTSTYLE0
 73
     1
 44
1.0
  0
MTEXT
  5
153
330
1F
100
AcDbEntity
  8
0
  6
Continuous
 62
     7
370
     0
100
AcDbMText
 10
299.1442735221
 20
42.9025089624
 30
0.0
 40
4.7625
 41
0.0
 71
     1
 72
     1
  1
NRS-E / NRS-C
  7
SLDTEXTSTYLE0
 73
     1
 44
1.0
  0
MTEXT
  5
154
330
1F
100
AcDbEntity
  8
0
  6
Continuous
 62
     7
370
     0
100
AcDbMText
 10
299.1431374184
 20
71.9166448562
 30
0.0
 40
3.175
 41
0.0
 71
     1
 72
     1
  1
-
  7
SLDTEXTSTYLE0
 73
     1
 44
1.0
  0
MTEXT
  5
155
330
1F
100
AcDbEntity
  8
0
  6
Continuous
 62
     7
370
     0
100
AcDbMText
 10
290.232828364
 20
60.9668172747
 30
0.0
 40
4.2333333333
 41
0.0
 71
     1
 72
     1
  1
EGy防水コネクタ 直線接続 レセプタクル
  7
SLDTEXTSTYLE0
 73
     1
 44
1.0
  0
MTEXT
  5
156
330
1F
100
AcDbEntity
  8
0
  6
Continuous
 62
     7
370
     0
100
AcDbMText
 10
366.2698338047
 20
71.9166448562
 30
0.0
 40
3.175
 41
0.0
 71
     1
 72
     1
  1
-
  7
SLDTEXTSTYLE0
 73
     1
 44
1.0
  0
MTEXT
  5
157
330
1F
100
AcDbEntity
  8
0
  6
Continuous
 62
     7
370
     0
100
AcDbMText
 10
204.9132770883
 20
26.7706336468
 30
0.0
 40
2.9104166667
 41
0.0
 71
     1
 72
     1
  1
W.IIZUKA
  7
SLDTEXTSTYLE0
 73
     1
 44
1.0
  0
MTEXT
  5
158
330
1F
100
AcDbEntity
  8
0
  6
Continuous
 62
     7
370
     0
100
AcDbMText
 10
152.1485244476
 20
26.7706336468
 30
0.0
 40
2.9104166667
 41
0.0
 71
     1
 72
     1
  1
K.TAZAWA
  7
SLDTEXTSTYLE0
 73
     1
 44
1.0
  0
MTEXT
  5
15A
330
1F
100
AcDbEntity
  8
0
  6
Continuous
 62
     7
370
     0
100
AcDbMText
 10
284.67188
 20
22.9453388795
 30
0.0
 40
5.0
 41
0.0
 71
     1
 72
     1
  1
YAZAKI Energy System Corporation
  7
SLDTEXTSTYLE26
 73
     1
 44
1.0
  0
MTEXT
  5
15C
330
1F
100
AcDbEntity
  8
0
  6
Continuous
 62
     7
370
     0
100
AcDbMText
 10
375.5809958965
 20
43.8754193167
 30
0.0
 40
2.6000004
 41
0.0
 71
     1
 72
     1
  1
SHEET
  7
SLDTEXTSTYLE27
 73
     1
 44
1.0
  0
MTEXT
  5
15D
330
1F
100
AcDbEntity
  8
0
  6
Continuous
 62
     7
370
     0
100
AcDbMText
 10
386.3423960176
 20
39.9950967188
 30
0.0
 40
3.5
 41
0.0
 71
     1
 72
     1
  1
1/1
  7
SLDTEXTSTYLE0
 73
     1
 44
1.0
  0
MTEXT
  5
15E
330
1F
100
AcDbEntity
  8
FORMAT
100
AcDbMText
 10
404.8999
 20
15.1562711291
 30
0.0
 40
4.0
 41
0.0
 71
     1
 72
     1
  1
A3
  7
SLDTEXTSTYLE0
 73
     1
 44
1.0
  0
MTEXT
  5
15F
330
1F
100
AcDbEntity
  8
FORMAT
100
AcDbMText
 10
181.6231438227
 20
26.7706336468
 30
0.0
 40
2.9104166667
 41
0.0
 71
     1
 72
     1
  1
T.SATOU
  7
SLDTEXTSTYLE0
 73
     1
 44
1.0
  0
MTEXT
  5
160
330
1F
100
AcDbEntity
  8
FORMAT
100
AcDbMText
 10
203.2055821294
 20
19.4311705041
 30
0.0
 40
3.175
 41
0.0
 71
     1
 72
     1
  1
2018.7.13
  7
SLDTEXTSTYLE0
 73
     1
 44
1.0
  0
MTEXT
  5
161
330
1F
100
AcDbEntity
  8
FORMAT
100
AcDbMText
 10
227.8714661177
 20
19.4765462527
 30
0.0
 40
3.175
 41
0.0
 71
     1
 72
     1
  1
2018.7.13
  7
SLDTEXTSTYLE0
 73
     1
 44
1.0
  0
MTEXT
  5
162
330
1F
100
AcDbEntity
  8
FORMAT
100
AcDbMText
 10
178.4976843954
 20
19.4311705041
 30
0.0
 40
3.175
 41
0.0
 71
     1
 72
     1
  1
2018.7.13
  7
SLDTEXTSTYLE0
 73
     1
 44
1.0
  0
MTEXT
  5
163
330
1F
100
AcDbEntity
  8
FORMAT
100
AcDbMText
 10
150.5829823755
 20
19.4311705041
 30
0.0
 40
3.175
 41
0.0
 71
     1
 72
     1
  1
2018.7.13
  7
SLDTEXTSTYLE0
 73
     1
 44
1.0
  0
MTEXT
  5
164
330
1F
100
AcDbEntity
  8
FORMAT
100
AcDbMText
 10
16.9151998388
 20
19.3940410861
 30
0.0
 40
3.175
 41
0.0
 71
     1
 72
     1
  1
LET
  7
SLDTEXTSTYLE0
 73
     1
 44
1.0
  0
MTEXT
  5
165
330
1F
100
AcDbEntity
  8
FORMAT
100
AcDbMText
 10
32.9086530529
 20
19.3940410861
 30
0.0
 40
3.175
 41
0.0
 71
     1
 72
     1
  1
DATE
  7
SLDTEXTSTYLE0
 73
     1
 44
1.0
  0
MTEXT
  5
166
330
1F
100
AcDbEntity
  8
FORMAT
100
AcDbMText
 10
61.4063333249
 20
19.3940410861
 30
0.0
 40
3.175
 41
0.0
 71
     1
 72
     1
  1
REVISION RECORD
  7
SLDTEXTSTYLE0
 73
     1
 44
1.0
  0
MTEXT
  5
167
330
1F
100
AcDbEntity
  8
FORMAT
100
AcDbMText
 10
114.4693587201
 20
19.4311703877
 30
0.0
 40
3.175
 41
0.0
 71
     1
 72
     1
  1
No.
  7
SLDTEXTSTYLE0
 73
     1
 44
1.0
  0
MTEXT
  5
168
330
1F
100
AcDbEntity
  8
FORMAT
100
AcDbMText
 10
133.6310870931
 20
19.4311703877
 30
0.0
 40
3.175
 41
0.0
 71
     1
 72
     1
  1
CHKD
  7
SLDTEXTSTYLE0
 73
     1
 44
1.0
  0
INSERT
  5
170
330
1F
100
AcDbEntity
  8
FORMAT
100
AcDbBlockReference
  2
SW_NOTE_1
 10
19.3189885731
 20
20.652292546
 30
0.0
  0
INSERT
  5
178
330
1F
100
AcDbEntity
  8
FORMAT
100
AcDbBlockReference
  2
SW_NOTE_2
 10
19.3584310154
 20
25.6780073488
 30
0.0
  0
INSERT
  5
180
330
1F
100
AcDbEntity
  8
FORMAT
100
AcDbBlockReference
  2
SW_NOTE_3
 10
19.3246230747
 20
30.6519606388
 30
0.0
  0
INSERT
  5
188
330
1F
100
AcDbEntity
  8
FORMAT
100
AcDbBlockReference
  2
SW_NOTE_4
 10
19.3246230747
 20
35.7363708748
 30
0.0
  0
MTEXT
  5
189
330
1F
100
AcDbEntity
  8
FORMAT
100
AcDbMText
 10
28.7350207447
 20
24.5471351288
 30
0.0
 40
3.175
 41
0.0
 71
     1
 72
     1
  1
2018.7.13
  7
SLDTEXTSTYLE0
 73
     1
 44
1.0
  0
MTEXT
  5
18A
330
1F
100
AcDbEntity
  8
FORMAT
100
AcDbMText
 10
73.7451052754
 20
24.5471350124
 30
0.0
 40
3.175
 41
0.0
 71
     1
 72
     1
  1
NEW
  7
SLDTEXTSTYLE0
 73
     1
 44
1.0
  0
MTEXT
  5
18B
330
1F
100
AcDbEntity
  8
FORMAT
100
AcDbMText
 10
28.6056674896
 20
29.5728498152
 30
0.0
 40
3.175
 41
0.0
 71
     1
 72
     1
  1
2020.2.13
  7
SLDTEXTSTYLE0
 73
     1
 44
1.0
  0
MTEXT
  5
18C
330
1F
100
AcDbEntity
  8
FORMAT
100
AcDbMText
 10
62.5311810052
 20
29.5728498152
 30
0.0
 40
3.175
 41
0.0
 71
     1
 72
     1
  1
レイアウト変更
  7
SLDTEXTSTYLE0
 73
     1
 44
1.0
  0
MTEXT
  5
18D
330
1F
100
AcDbEntity
  8
FORMAT
100
AcDbMText
 10
116.6168934658
 20
29.5728498152
 30
0.0
 40
3.175
 41
0.0
 71
     1
 72
     1
  1
1
  7
SLDTEXTSTYLE0
 73
     1
 44
1.0
  0
MTEXT
  5
18E
330
1F
100
AcDbEntity
  8
FORMAT
100
AcDbMText
 10
134.6335641094
 20
29.5728498152
 30
0.0
 40
3.175
 41
0.0
 71
     1
 72
     1
  1
Y.K
  7
SLDTEXTSTYLE0
 73
     1
 44
1.0
  0
LINE
  5
18F
330
1F
100
AcDbEntity
  8
0
  6
Continuous
 62
     7
370
    25
100
AcDbLine
 10
294.6509638782
 20
165.7009927792
 30
0.0
 11
351.2009674664
 21
165.7009927792
 31
0.0
  0
LINE
  5
190
330
1F
100
AcDbEntity
  8
0
  6
Continuous
 62
     7
370
    25
100
AcDbLine
 10
351.2009674664
 20
180.200992362
 30
0.0
 11
294.6509638782
 21
180.200992362
 31
0.0
  0
LINE
  5
191
330
1F
100
AcDbEntity
  8
0
  6
Continuous
 62
     7
370
    25
100
AcDbLine
 10
257.0810275134
 20
192.7009916169
 30
0.0
 11
242.6509628054
 21
192.7009916169
 31
0.0
  0
LINE
  5
192
330
1F
100
AcDbEntity
  8
0
  6
Continuous
 62
     7
370
    25
100
AcDbLine
 10
242.6509628054
 20
153.2009935243
 30
0.0
 11
257.0810275134
 21
153.2009935243
 31
0.0
  0
ARC
  5
193
330
1F
100
AcDbEntity
  8
0
  6
Continuous
 62
     7
370
    25
100
AcDbCircle
 10
257.0810284877
 20
185.7009928686
 30
0.0
 40
7.0
100
AcDbArc
 50
65.2299279279
 51
90.0
  0
ARC
  5
194
330
1F
100
AcDbEntity
  8
0
  6
Continuous
 62
     7
370
    25
100
AcDbCircle
 10
257.0810284877
 20
160.2009928686
 30
0.0
 40
7.0
100
AcDbArc
 50
270.0
 51
294.7700720721
  0
ARC
  5
195
330
1F
100
AcDbEntity
  8
0
  6
Continuous
 62
     7
370
    25
100
AcDbCircle
 10
294.6509632761
 20
267.1214474141
 30
0.0
 40
82.67045454545465
100
AcDbArc
 50
245.2299279279
 51
268.6464910529
  0
ARC
  5
196
330
1F
100
AcDbEntity
  8
0
  6
Continuous
 62
     7
370
    25
100
AcDbCircle
 10
294.6509632761
 20
78.7805383232
 30
0.0
 40
82.67045454545467
100
AcDbArc
 50
91.3535089471
 51
114.7700720721
  0
ARC
  5
197
330
1F
100
AcDbEntity
  8
0
  6
Continuous
 62
     7
370
    25
100
AcDbCircle
 10
292.6509632761
 20
182.4746171549
 30
0.0
 40
2.000000000000057
100
AcDbArc
 50
0.0
 51
88.6464910529
  0
ARC
  5
198
330
1F
100
AcDbEntity
  8
0
  6
Continuous
 62
     7
370
    25
100
AcDbCircle
 10
292.6509632761
 20
163.4273685824
 30
0.0
 40
2.000000000000057
100
AcDbArc
 50
271.3535089471
 51
0.0
  0
LINE
  5
199
330
1F
100
AcDbEntity
  8
0
  6
Continuous
 62
     7
370
    25
100
AcDbLine
 10
240.6509624775
 20
151.9509947164
 30
0.0
 11
242.1509617921
 21
151.9509947164
 31
0.0
  0
LINE
  5
19A
330
1F
100
AcDbEntity
  8
0
  6
Continuous
 62
     7
370
    25
100
AcDbLine
 10
242.1509617921
 20
193.9509904248
 30
0.0
 11
240.6509624775
 21
193.9509904248
 31
0.0
  0
ARC
  5
19B
330
1F
100
AcDbEntity
  8
0
  6
Continuous
 62
     7
370
    25
100
AcDbCircle
 10
240.6509632761
 20
193.4509928686
 30
0.0
 40
0.5
100
AcDbArc
 50
90.0
 51
179.9999999999
  0
ARC
  5
19C
330
1F
100
AcDbEntity
  8
0
  6
Continuous
 62
     7
370
    25
100
AcDbCircle
 10
240.6509632761
 20
152.4509928686
 30
0.0
 40
0.5
100
AcDbArc
 50
180.0000000001
 51
270.0
  0
ARC
  5
19D
330
1F
100
AcDbEntity
  8
0
  6
Continuous
 62
     7
370
    25
100
AcDbCircle
 10
242.1509632761
 20
152.4509928686
 30
0.0
 40
0.5
100
AcDbArc
 50
270.0
 51
359.9999999999
  0
ARC
  5
19E
330
1F
100
AcDbEntity
  8
0
  6
Continuous
 62
     7
370
    25
100
AcDbCircle
 10
242.1509632761
 20
193.4509928686
 30
0.0
 40
0.5
100
AcDbArc
 50
0.0000000001
 51
90.0
  0
LINE
  5
19F
330
1F
100
AcDbEntity
  8
0
  6
Continuous
 62
     7
370
    25
100
AcDbLine
 10
239.6132903155
 20
175.2301102741
 30
0.0
 11
232.3936032113
 21
175.2301102741
 31
0.0
  0
ARC
  5
1A0
330
1F
100
AcDbEntity
  8
0
  6
Continuous
 62
     7
370
    25
100
AcDbCircle
 10
239.6509632761
 20
156.6083827524
 30
0.0
 40
0.5
100
AcDbArc
 50
0.0
 51
90.0
  0
SPLINE
  5
1A1
330
1F
100
AcDbEntity
  8
0
  6
Continuous
 62
     7
370
    25
100
AcDbSpline
210
0.0
220
0.0
230
1.0
 70
     8
 71
     3
 72
     9
 73
     5
 74
     0
 42
0.000000001
 43
0.00000001
 40
0.0
 40
0.0
 40
0.0
 40
0.0
 40
0.351210771314579
 40
1.0
 40
1.0
 40
1.0
 40
1.0
 10
231.550963034839
 20
157.2233421964402
 30
0.0
 10
231.646663195789
 20
157.1967385559006
 30
0.0
 10
231.9191496021478
 20
157.1209901941974
 30
0.0
 10
232.206602251659
 20
157.1150997017399
 30
0.0
 10
232.393098434419
 20
157.1112780136818
 30
0.0
  0
LINE
  5
1A2
330
1F
100
AcDbEntity
  8
0
  6
Continuous
 62
     7
370
    25
100
AcDbLine
 10
232.3936032113
 20
157.1083834631
 30
0.0
 11
239.6509641763
 21
157.1083834631
 31
0.0
  0
ARC
  5
1A3
330
1F
100
AcDbEntity
  8
0
  6
Continuous
 62
     7
370
    25
100
AcDbCircle
 10
237.6509632761
 20
153.9509928686
 30
0.0
 40
2.5
100
AcDbArc
 50
360.0
 51
90.0
  0
LINE
  5
1A4
330
1F
100
AcDbEntity
  8
0
  6
Continuous
 62
     7
370
    25
100
AcDbLine
 10
231.5509630348
 20
156.45099266
 30
0.0
 11
237.6509638484
 21
156.45099266
 31
0.0
  0
ARC
  5
1A5
330
1F
100
AcDbEntity
  8
0
  6
Continuous
 62
     7
370
    25
100
AcDbCircle
 10
239.6509632761
 20
190.7877632183
 30
0.0
 40
0.5
100
AcDbArc
 50
270.0
 51
0.0
  0
SPLINE
  5
1A6
330
1F
100
AcDbEntity
  8
0
  6
Continuous
 62
     7
370
    25
100
AcDbSpline
210
0.0
220
0.0
230
1.0
 70
     8
 71
     3
 72
     9
 73
     5
 74
     0
 42
0.000000001
 43
0.00000001
 40
0.0
 40
0.0
 40
0.0
 40
0.0
 40
0.5898790567667183
 40
1.0
 40
1.0
 40
1.0
 40
1.0
 10
232.3938174154466
 20
190.2811175448651
 30
0.0
 10
232.2242769225633
 20
190.2790770623535
 30
0.0
 10
231.9368612380456
 20
190.2756179083316
 30
0.0
 10
231.6631980426591
 20
190.1961579342905
 30
0.0
 10
231.550963034839
 20
190.1635697347874
 30
0.0
  0
LINE
  5
1A7
330
1F
100
AcDbEntity
  8
0
  6
Continuous
 62
     7
370
    25
100
AcDbLine
 10
239.6509641763
 20
190.2877634628
 30
0.0
 11
232.3936032113
 21
190.2877634628
 31
0.0
  0
ARC
  5
1A8
330
1F
100
AcDbEntity
  8
0
  6
Continuous
 62
     7
370
    25
100
AcDbCircle
 10
237.6509632761
 20
191.9509928686
 30
0.0
 40
2.500000000000016
100
AcDbArc
 50
318.2952799972
 51
0.0
  0
SPLINE
  5
1A9
330
1F
100
AcDbEntity
  8
0
  6
Continuous
 62
     7
370
    25
100
AcDbSpline
210
0.0
220
0.0
230
1.0
 70
     8
 71
     3
 72
     9
 73
     5
 74
     0
 42
0.000000001
 43
0.00000001
 40
0.0
 40
0.0
 40
0.0
 40
0.0
 40
0.3199539176778861
 40
0.9999999999999999
 40
0.9999999999999999
 40
0.9999999999999999
 40
0.9999999999999999
 10
231.550963034839
 20
155.7388698918578
 30
0.0
 10
231.6379864524133
 20
155.7121291838693
 30
0.0
 10
231.909973800485
 20
155.628552435747
 30
0.0
 10
232.1977540759995
 20
155.6204659318356
 30
0.0
 10
232.3934579249328
 20
155.6149667365309
 30
0.0
  0
LINE
  5
1AA
330
1F
100
AcDbEntity
  8
0
  6
Continuous
 62
     7
370
    25
100
AcDbLine
 10
232.3936032113
 20
155.6142216785
 30
0.0
 11
239.5174199696
 21
155.6142216785
 31
0.0
  0
ARC
  5
1AB
330
1F
100
AcDbEntity
  8
0
  6
Continuous
 62
     7
370
    25
100
AcDbCircle
 10
214.0509632761
 20
189.9509928686
 30
0.0
 40
3.999999999999992
100
AcDbArc
 50
90.0
 51
141.1508053009
  0
ARC
  5
1AC
330
1F
100
AcDbEntity
  8
0
  6
Continuous
 62
     7
370
    25
100
AcDbCircle
 10
214.0509632761
 20
155.9509928686
 30
0.0
 40
4.000000000000005
100
AcDbArc
 50
218.8491946991
 51
270.0
  0
ARC
  5
1AD
330
1F
100
AcDbEntity
  8
0
  6
Continuous
 62
     7
370
    25
100
AcDbCircle
 10
231.0509632761
 20
152.4509928686
 30
0.0
 40
0.5
100
AcDbArc
 50
270.0
 51
0.0
  0
ARC
  5
1AE
330
1F
100
AcDbEntity
  8
0
  6
Continuous
 62
     7
370
    25
100
AcDbCircle
 10
231.0509632761
 20
193.4509928686
 30
0.0
 40
0.5
100
AcDbArc
 50
0.0
 51
90.0
  0
LINE
  5
1AF
330
1F
100
AcDbEntity
  8
0
  6
Continuous
 62
     7
370
    25
100
AcDbLine
 10
231.0509638842
 20
193.9509904248
 30
0.0
 11
214.0509629603
 21
193.9509904248
 31
0.0
  0
LINE
  5
1B0
330
1F
100
AcDbEntity
  8
0
  6
Continuous
 62
     7
370
    25
100
AcDbLine
 10
214.0509629603
 20
151.9509947164
 30
0.0
 11
231.0509638842
 21
151.9509947164
 31
0.0
  0
ARC
  5
1B1
330
1F
100
AcDbEntity
  8
0
  6
Continuous
 62
     7
370
    25
100
AcDbCircle
 10
205.4841669087
 20
196.8509928686
 30
0.0
 40
7.0
100
AcDbArc
 50
270.0
 51
321.1508053009
  0
ARC
  5
1B2
330
1F
100
AcDbEntity
  8
0
  6
Continuous
 62
     7
370
    25
100
AcDbCircle
 10
205.4841669087
 20
149.0509928686
 30
0.0
 40
7.000000000000024
100
AcDbArc
 50
38.8491946991
 51
90.0
  0
SPLINE
  5
1B3
330
1F
100
AcDbEntity
  8
0
  6
Continuous
 62
     7
370
    25
100
AcDbSpline
210
0.0
220
0.0
230
1.0
 70
     8
 71
     3
 72
     9
 73
     5
 74
     0
 42
0.000000001
 43
0.00000001
 40
0.0
 40
0.0
 40
0.0
 40
0.0
 40
0.2846034839934918
 40
1.0
 40
1.0
 40
1.0
 40
1.0
 10
205.0514521756997
 20
159.05976130197
 30
0.0
 10
205.0850567559091
 20
159.0615895401226
 30
0.0
 10
205.2031318396635
 20
159.0680133481762
 30
0.0
 10
205.3157591490436
 20
159.0467827080221
 30
0.0
 10
205.3963323337813
 20
159.0315943820233
 30
0.0
  0
SPLINE
  5
1B4
330
1F
100
AcDbEntity
  8
0
  6
Continuous
 62
     7
370
    25
100
AcDbSpline
210
0.0
220
0.0
230
1.0
 70
     8
 71
     3
 72
    13
 73
     9
 74
     0
 42
0.000000001
 43
0.00000001
 40
0.0
 40
0.0
 40
0.0
 40
0.0
 40
0.0315668319859417
 40
0.2423791974825429
 40
0.4508923818318326
 40
0.660409734256735
 40
0.8747411607498126
 40
1.0
 40
1.0
 40
1.0
 40
1.0
 10
183.0563465114539
 20
159.9918289346451
 30
0.0
 10
183.0548503450152
 20
159.9762520956452
 30
0.0
 10
183.0433623496131
 20
159.856648654356
 30
0.0
 10
183.1150932859022
 20
159.6346138749861
 30
0.0
 10
183.2862761000816
 20
159.3690491201152
 30
0.0
 10
183.5452708208678
 20
159.1769094541938
 30
0.0
 10
183.8125262342427
 20
159.0719189787032
 30
0.0
 10
183.9867643296955
 20
159.0768297289507
 30
0.0
 10
184.0510325487559
 20
159.0786410732026
 30
0.0
  0
SPLINE
  5
1B5
330
1F
100
AcDbEntity
  8
0
  6
Continuous
 62
     7
370
    25
100
AcDbSpline
210
0.0
220
0.0
230
1.0
 70
     8
 71
     3
 72
     9
 73
     5
 74
     0
 42
0.000000001
 43
0.00000001
 40
0.0
 40
0.0
 40
0.0
 40
0.0
 40
0.2582883067456018
 40
1.0
 40
1.0
 40
1.0
 40
1.0
 10
205.3950886688983
 20
186.8861189348454
 30
0.0
 10
205.3675397713766
 20
186.8796649057659
 30
0.0
 10
205.2608802873728
 20
186.8546772121267
 30
0.0
 10
205.1399512143071
 20
186.8559050785063
 30
0.0
 10
205.0502567067599
 20
186.8568158013577
 30
0.0
  0
SPLINE
  5
1B6
330
1F
100
AcDbEntity
  8
0
  6
Continuous
 62
     7
370
    25
100
AcDbSpline
210
0.0
220
0.0
230
1.0
 70
     8
 71
     3
 72
    13
 73
     9
 74
     0
 42
0.000000001
 43
0.00000001
 40
0.0
 40
0.0
 40
0.0
 40
0.0
 40
0.0323556316144245
 40
0.2544899578184849
 40
0.4811153514919388
 40
0.7082220567033671
 40
0.9307727970075472
 40
1.0
 40
1.0
 40
1.0
 40
1.0
 10
184.0512840058511
 20
186.8478974563832
 30
0.0
 10
184.0347389949366
 20
186.8491390785779
 30
0.0
 10
183.9046058799385
 20
186.8589049327491
 30
0.0
 10
183.658720020753
 20
186.7937639292825
 30
0.0
 10
183.3568191624747
 20
186.6205562379256
 30
0.0
 10
183.1456702635877
 20
186.350096483598
 30
0.0
 10
183.0453709768907
 20
186.0979008278704
 30
0.0
 10
183.0602681728891
 20
185.9528699006319
 30
0.0
 10
183.0638026799863
 20
185.9184598786587
 30
0.0
  0
SPLINE
  5
1B7
330
1F
100
AcDbEntity
  8
0
  6
Continuous
 62
     7
370
    25
100
AcDbSpline
210
0.0
220
0.0
230
1.0
 70
     8
 71
     3
 72
    12
 73
     8
 74
     0
 42
0.000000001
 43
0.00000001
 40
0.0
 40
0.0
 40
0.0
 40
0.0
 40
0.0853418076492635
 40
0.3371270473626431
 40
0.5952384273558217
 40
0.8159283697924814
 40
1.0
 40
1.0
 40
1.0
 40
1.0
 10
205.3952833153164
 20
159.0284800393338
 30
0.0
 10
205.4316364299299
 20
159.0242946867073
 30
0.0
 10
205.5752426943118
 20
159.0077612242459
 30
0.0
 10
205.7816120390009
 20
158.9141612460492
 30
0.0
 10
205.9645930781967
 20
158.7928463442187
 30
0.0
 10
206.0492974805332
 20
158.6824464240268
 30
0.0
 10
206.0491741723236
 20
158.6784022100242
 30
0.0
 10
206.0491180959945
 20
158.676563040709
 30
0.0
  0
SPLINE
  5
1B8
330
1F
100
AcDbEntity
  8
0
  6
Continuous
 62
     7
370
    25
100
AcDbSpline
210
0.0
220
0.0
230
1.0
 70
     8
 71
     3
 72
    12
 73
     8
 74
     0
 42
0.000000001
 43
0.00000001
 40
0.0
 40
0.0
 40
0.0
 40
0.0
 40
0.1890985007129453
 40
0.4151441863210703
 40
0.6553247944977264
 40
0.8998822491384281
 40
1.0
 40
1.0
 40
1.0
 40
1.0
 10
206.0504198521232
 20
187.2427931291814
 30
0.0
 10
206.0496272546184
 20
187.238998006126
 30
0.0
 10
206.0478871972146
 20
187.2306662463983
 30
0.0
 10
205.9610949892715
 20
187.1215528743378
 30
0.0
 10
205.7827938276237
 20
187.0039162146462
 30
0.0
 10
205.5826705644999
 20
186.9131732985362
 30
0.0
 10
205.437359718218
 20
186.8944255990221
 30
0.0
 10
205.3951513003414
 20
186.8889799577946
 30
0.0
  0
LINE
  5
1B9
330
1F
100
AcDbEntity
  8
0
  6
Continuous
 62
     7
370
    25
100
AcDbLine
 10
184.0509636309
 20
159.0654907984
 30
0.0
 11
205.0509632313
 21
159.0654907984
 31
0.0
  0
LINE
  5
1BA
330
1F
100
AcDbEntity
  8
0
  6
Continuous
 62
     7
370
    25
100
AcDbLine
 10
205.0509632313
 20
186.8520474298
 30
0.0
 11
184.0509636309
 21
186.8520474298
 31
0.0
  0
LINE
  5
1BB
330
1F
100
AcDbEntity
  8
0
  6
Continuous
 62
     7
370
    25
100
AcDbLine
 10
184.0509636309
 20
156.0509933395
 30
0.0
 11
205.4841668792
 21
156.0509933395
 31
0.0
  0
LINE
  5
1BC
330
1F
100
AcDbEntity
  8
0
  6
Continuous
 62
     7
370
    25
100
AcDbLine
 10
205.4841668792
 20
189.850995527
 30
0.0
 11
184.0509636309
 21
189.850995527
 31
0.0
  0
ARC
  5
1BD
330
1F
100
AcDbEntity
  8
0
  6
Continuous
 62
     7
370
    25
100
AcDbCircle
 10
184.0509632761
 20
157.0509928686
 30
0.0
 40
1.0
100
AcDbArc
 50
180.0
 51
270.0
  0
ARC
  5
1BE
330
1F
100
AcDbEntity
  8
0
  6
Continuous
 62
     7
370
    25
100
AcDbCircle
 10
184.0509632761
 20
188.8509928686
 30
0.0
 40
1.0
100
AcDbArc
 50
90.0
 51
180.0
  0
LINE
  5
1BF
330
1F
100
AcDbEntity
  8
0
  6
Continuous
 62
     7
370
    25
100
AcDbLine
 10
351.2009674664
 20
180.200992362
 30
0.0
 11
351.2009674664
 21
165.7009927792
 31
0.0
  0
LINE
  5
1C0
330
1F
100
AcDbEntity
  8
0
  6
Continuous
 62
     7
370
    25
100
AcDbLine
 10
294.6509638782
 20
177.8185798092
 30
0.0
 11
294.6509638782
 21
163.427369879
 31
0.0
  0
LINE
  5
1C1
330
1F
100
AcDbEntity
  8
0
  6
Continuous
 62
     7
370
    25
100
AcDbLine
 10
294.6509638782
 20
182.4746152622
 30
0.0
 11
294.6509638782
 21
177.8185798092
 31
0.0
  0
LINE
  5
1C2
330
1F
100
AcDbEntity
  8
0
  6
Continuous
 62
     7
370
    25
100
AcDbLine
 10
240.1509614643
 20
152.4509920044
 30
0.0
 11
240.1509614643
 21
193.4509894116
 31
0.0
  0
LINE
  5
1C3
330
1F
100
AcDbEntity
  8
0
  6
Continuous
 62
     7
370
    25
100
AcDbLine
 10
242.6509628054
 20
193.4509894116
 30
0.0
 11
242.6509628054
 21
152.4509920044
 31
0.0
  0
LINE
  5
1C4
330
1F
100
AcDbEntity
  8
0
  6
Continuous
 62
     7
370
    25
100
AcDbLine
 10
239.6509641763
 20
173.8107746703
 30
0.0
 11
239.6509641763
 21
174.2664410038
 31
0.0
  0
ARC
  5
1C5
330
1F
100
AcDbEntity
  8
0
  6
Continuous
 62
     7
370
    25
100
AcDbCircle
 10
239.7753695996
 20
176.0978624882
 30
0.0
 40
1.835641948418523
100
AcDbArc
 50
266.113962469
 51
281.8067069453
  0
ARC
  5
1C6
330
1F
100
AcDbEntity
  8
0
  6
Continuous
 62
     7
370
    25
100
AcDbCircle
 10
239.687326765
 20
173.3465563592
 30
0.0
 40
0.4656402885039062
100
AcDbArc
 50
5.3197271222
 51
94.4788784489
  0
LINE
  5
1C7
330
1F
100
AcDbEntity
  8
0
  6
Continuous
 62
     7
370
    25
100
AcDbLine
 10
239.6509641763
 20
174.2664410038
 30
0.0
 11
239.6509641763
 21
174.7781953079
 31
0.0
  0
ARC
  5
1C8
330
1F
100
AcDbEntity
  8
0
  6
Continuous
 62
     7
370
    25
100
AcDbCircle
 10
239.7748192435
 20
176.1139752494
 30
0.0
 40
1.341509645796043
100
AcDbArc
 50
264.7026150624
 51
286.2833192543
  0
LINE
  5
1C9
330
1F
100
AcDbEntity
  8
0
  6
Continuous
 62
     7
370
    25
100
AcDbLine
 10
239.6509641763
 20
174.7781953079
 30
0.0
 11
239.6509641763
 21
175.1898510618
 31
0.0
  0
ARC
  5
1CA
330
1F
100
AcDbEntity
  8
0
  6
Continuous
 62
     7
370
    25
100
AcDbCircle
 10
239.6702797322
 20
175.6706037396
 30
0.0
 40
0.4811405490496827
100
AcDbArc
 50
267.6992225641
 51
357.4976046773
  0
LINE
  5
1CB
330
1F
100
AcDbEntity
  8
0
  6
Continuous
 62
     7
370
    25
100
AcDbLine
 10
232.3936032113
 20
174.7781953079
 30
0.0
 11
232.3936032113
 21
174.2664410038
 31
0.0
  0
LINE
  5
1CC
330
1F
100
AcDbEntity
  8
0
  6
Continuous
 62
     7
370
    25
100
AcDbLine
 10
232.3936032113
 20
173.7335382266
 30
0.0
 11
232.3936032113
 21
174.2664410038
 31
0.0
  0
SPLINE
  5
1CD
330
1F
100
AcDbEntity
  8
0
  6
Continuous
 62
     7
370
    25
100
AcDbSpline
210
0.0
220
0.0
230
1.0
 70
     8
 71
     3
 72
     9
 73
     5
 74
     0
 42
0.000000001
 43
0.00000001
 40
0.0
 40
0.0
 40
0.0
 40
0.0
 40
0.6805890588706761
 40
1.0
 40
1.0
 40
1.0
 40
1.0
 10
231.550963034839
 20
175.2136891944164
 30
0.0
 10
231.7373001306966
 20
175.2193879610614
 30
0.0
 10
232.0110880992643
 20
175.2277612467772
 30
0.0
 10
232.3010016508851
 20
175.2282428205748
 30
0.0
 10
232.3936032112544
 20
175.2283966405147
 30
0.0
  0
SPLINE
  5
1CE
330
1F
100
AcDbEntity
  8
0
  6
Continuous
 62
     7
370
    25
100
AcDbSpline
210
0.0
220
0.0
230
1.0
 70
     8
 71
     3
 72
    11
 73
     7
 74
     0
 42
0.000000001
 43
0.00000001
 40
0.0
 40
0.0
 40
0.0
 40
0.0
 40
0.252420497015901
 40
0.5049111224607954
 40
0.7571084621810042
 40
1.0
 40
1.0
 40
1.0
 40
1.0
 10
240.0840850528186
 20
173.2334887845272
 30
0.0
 10
239.9924554244307
 20
173.2150753964482
 30
0.0
 10
239.8091707107608
 20
173.1782435046122
 30
0.0
 10
239.2165139787519
 20
173.1360317525679
 30
0.0
 10
238.4754101197282
 20
173.1080934556227
 30
0.0
 10
237.9223138985444
 20
173.1046209683678
 30
0.0
 10
237.6509638484424
 20
173.1029173595661
 30
0.0
  0
SPLINE
  5
1CF
330
1F
100
AcDbEntity
  8
0
  6
Continuous
 62
     7
370
    25
100
AcDbSpline
210
0.0
220
0.0
230
1.0
 70
     8
 71
     3
 72
    11
 73
     7
 74
     0
 42
0.000000001
 43
0.00000001
 40
0.0
 40
0.0
 40
0.0
 40
0.0
 40
0.2512852369190989
 40
0.5025057107291951
 40
0.7539802811892269
 40
1.0
 40
1.0
 40
1.0
 40
1.0
 10
237.6509638484424
 20
160.1210220021958
 30
0.0
 10
237.9317984586576
 20
160.0986734750202
 30
0.0
 10
238.4933953002938
 20
160.0539821804984
 30
0.0
 10
239.2363258405389
 20
159.7039960778685
 30
0.0
 10
239.8162401162981
 20
159.196050105832
 30
0.0
 10
239.9954584294444
 20
158.7657916495873
 30
0.0
 10
240.0840850528186
 20
158.5530212385411
 30
0.0
  0
LINE
  5
1D0
330
1F
100
AcDbEntity
  8
0
  6
Continuous
 62
     7
370
    25
100
AcDbLine
 10
237.6509638484
 20
160.1210220022
 30
0.0
 11
237.6509638484
 21
173.1029173596
 31
0.0
  0
SPLINE
  5
1D1
330
1F
100
AcDbEntity
  8
0
  6
Continuous
 62
     7
370
    25
100
AcDbSpline
210
0.0
220
0.0
230
1.0
 70
     8
 71
     3
 72
    10
 73
     6
 74
     0
 42
0.000000001
 43
0.00000001
 40
0.0
 40
0.0
 40
0.0
 40
0.0
 40
0.5221711581184064
 40
0.638885597078283
 40
1.0
 40
1.0
 40
1.0
 40
1.0
 10
239.5974615570014
 20
173.73353822658
 30
0.0
 10
239.6137493822617
 20
173.7395406660747
 30
0.0
 10
239.6336778229746
 20
173.7468847563808
 30
0.0
 10
239.6483056631934
 20
173.7759004544871
 30
0.0
 10
239.6498198469375
 20
173.7957634264757
 30
0.0
 10
239.6509641762679
 20
173.810774670338
 30
0.0
  0
ARC
  5
1D2
330
1F
100
AcDbEntity
  8
0
  6
Continuous
 62
     7
370
    25
100
AcDbCircle
 10
239.58024993
 20
173.2299849846
 30
0.0
 40
0.503847305877278
100
AcDbArc
 50
0.398443269
 51
88.0423722164
  0
LINE
  5
1D3
330
1F
100
AcDbEntity
  8
0
  6
Continuous
 62
     7
370
    25
100
AcDbLine
 10
239.6509641763
 20
174.7781953079
 30
0.0
 11
232.3936032113
 21
174.7781953079
 31
0.0
  0
LINE
  5
1D4
330
1F
100
AcDbEntity
  8
0
  6
Continuous
 62
     7
370
    25
100
AcDbLine
 10
232.3936032113
 20
174.2664410038
 30
0.0
 11
239.6509641763
 21
174.2664410038
 31
0.0
  0
LINE
  5
1D5
330
1F
100
AcDbEntity
  8
0
  6
Continuous
 62
     7
370
    25
100
AcDbLine
 10
239.597461557
 20
173.7335382266
 30
0.0
 11
232.3936032113
 21
173.7335382266
 31
0.0
  0
SPLINE
  5
1D6
330
1F
100
AcDbEntity
  8
0
  6
Continuous
 62
     7
370
    25
100
AcDbSpline
210
0.0
220
0.0
230
1.0
 70
     8
 71
     3
 72
    11
 73
     7
 74
     0
 42
0.000000001
 43
0.00000001
 40
0.0
 40
0.0
 40
0.0
 40
0.0
 40
0.2524214414944208
 40
0.5049113936075282
 40
0.7571088071598517
 40
1.0
 40
1.0
 40
1.0
 40
1.0
 10
240.0840850528186
 20
189.047420607304
 30
0.0
 10
239.9924558405994
 20
188.8064581299815
 30
0.0
 10
239.8091725467444
 20
188.3244677748368
 30
0.0
 10
239.2165125384648
 20
187.7619487200099
 30
0.0
 10
238.4754110704268
 20
187.3858982899422
 30
0.0
 10
237.9223140525939
 20
187.3388523653789
 30
0.0
 10
237.6509638484424
 20
187.3157715661282
 30
0.0
  0
SPLINE
  5
1D7
330
1F
100
AcDbEntity
  8
0
  6
Continuous
 62
     7
370
    25
100
AcDbSpline
210
0.0
220
0.0
230
1.0
 70
     8
 71
     3
 72
    11
 73
     7
 74
     0
 42
0.000000001
 43
0.00000001
 40
0.0
 40
0.0
 40
0.0
 40
0.0
 40
0.2512851652160955
 40
0.5025060119781461
 40
0.7539800891409393
 40
1.0
 40
1.0
 40
1.0
 40
1.0
 10
237.6509638484424
 20
175.5210740728134
 30
0.0
 10
237.931798625319
 20
175.5238036985592
 30
0.0
 10
238.4933962971581
 20
175.5292622513811
 30
0.0
 10
239.2363242719814
 20
175.5717819020354
 30
0.0
 10
239.8162410093219
 20
175.6330228933624
 30
0.0
 10
239.9954586427348
 20
175.6841866588565
 30
0.0
 10
240.0840850528186
 20
175.7094880802387
 30
0.0
  0
LINE
  5
1D8
330
1F
100
AcDbEntity
  8
0
  6
Continuous
 62
     7
370
    25
100
AcDbLine
 10
237.6509638484
 20
175.5210740728
 30
0.0
 11
237.6509638484
 21
187.3157715661
 31
0.0
  0
LWPOLYLINE
  5
1D9
330
1F
100
AcDbEntity
  8
0
  6
Continuous
 62
     7
370
    25
100
AcDbPolyline
 90
        3
 70
   128
 43
0.0
 10
239.597461557
 20
175.2283966405
 10
239.6914841588
 20
175.2359515292
 10
239.7612625714
 20
175.2542762322
  0
SPLINE
  5
1DA
330
1F
100
AcDbEntity
  8
0
  6
Continuous
 62
     7
370
    25
100
AcDbSpline
210
0.0
220
0.0
230
1.0
 70
     8
 71
     3
 72
    11
 73
     7
 74
     0
 42
0.000000001
 43
0.00000001
 40
0.0
 40
0.0
 40
0.0
 40
0.0
 40
0.2428044345645542
 40
0.4949629320000716
 40
0.747487589353929
 40
1.0
 40
1.0
 40
1.0
 40
1.0
 10
237.6509638484424
 20
173.6058054728264
 30
0.0
 10
237.8680511687396
 20
173.6075107529814
 30
0.0
 10
238.3105891180445
 20
173.6109870093642
 30
0.0
 10
238.9034894743312
 20
173.6387442857386
 30
0.0
 10
239.3775611232504
 20
173.6802442251493
 30
0.0
 10
239.5241625974036
 20
173.7157738466239
 30
0.0
 10
239.5974615570014
 20
173.73353822658
 30
0.0
  0
LINE
  5
1DB
330
1F
100
AcDbEntity
  8
0
  6
Continuous
 62
     7
370
    25
100
AcDbLine
 10
237.6509638484
 20
173.6058054728
 30
0.0
 11
237.6509638484
 21
173.1029173596
 31
0.0
  0
SPLINE
  5
1DC
330
1F
100
AcDbEntity
  8
0
  6
Continuous
 62
     7
370
    25
100
AcDbSpline
210
0.0
220
0.0
230
1.0
 70
     8
 71
     3
 72
    10
 73
     6
 74
     0
 42
0.000000001
 43
0.00000001
 40
0.0
 40
0.0
 40
0.0
 40
0.0
 40
0.3611654753999588
 40
0.8847755660908692
 40
1.0
 40
1.0
 40
1.0
 40
1.0
 10
239.6509641762679
 20
157.9529812795872
 30
0.0
 10
239.6497655651522
 20
157.9827690757019
 30
0.0
 10
239.6468292329147
 20
158.0557425905174
 30
0.0
 10
239.6234030105002
 20
158.1306565223003
 30
0.0
 10
239.6014255564479
 20
158.1710181260358
 30
0.0
 10
239.5974615570014
 20
158.1782980127091
 30
0.0
  0
ARC
  5
1DD
330
1F
100
AcDbEntity
  8
0
  6
Continuous
 62
     7
370
    25
100
AcDbCircle
 10
239.5650495158
 20
158.7237203618
 30
0.0
 40
0.5463845526172477
100
AcDbArc
 50
273.4008356356
 51
341.7951265539
  0
ARC
  5
1DE
330
1F
100
AcDbEntity
  8
0
  6
Continuous
 62
     7
370
    25
100
AcDbCircle
 10
239.7741748773
 20
159.0457064974
 30
0.0
 40
1.099649616273368
100
AcDbArc
 50
263.566761572
 51
290.0379455514
  0
LINE
  5
1DF
330
1F
100
AcDbEntity
  8
0
  6
Continuous
 62
     7
370
    25
100
AcDbLine
 10
239.6509641763
 20
157.4863774938
 30
0.0
 11
239.6509641763
 21
157.9529812796
 31
0.0
  0
ARC
  5
1E0
330
1F
100
AcDbEntity
  8
0
  6
Continuous
 62
     7
370
    25
100
AcDbCircle
 10
239.6931544062
 20
157.027581609
 30
0.0
 40
0.4607316783719734
100
AcDbArc
 50
6.4591941738
 51
95.2540631262
  0
SPLINE
  5
1E1
330
1F
100
AcDbEntity
  8
0
  6
Continuous
 62
     7
370
    25
100
AcDbSpline
210
0.0
220
0.0
230
1.0
 70
     8
 71
     3
 72
    11
 73
     7
 74
     0
 42
0.000000001
 43
0.00000001
 40
0.0
 40
0.0
 40
0.0
 40
0.0
 40
0.2461091446338041
 40
0.497620345851001
 40
0.7488038594142059
 40
0.9999999999999999
 40
0.9999999999999999
 40
0.9999999999999999
 40
0.9999999999999999
 10
239.5974615570014
 20
158.1782980127091
 30
0.0
 10
239.5265654035973
 20
158.350355272451
 30
0.0
 10
239.3832169374972
 20
158.6982464214222
 30
0.0
 10
238.9193377377356
 20
159.1094272007888
 30
0.0
 10
238.3249814245002
 20
159.392943022598
 30
0.0
 10
237.8756401384396
 20
159.4291654871803
 30
0.0
 10
237.6509638484424
 20
159.4472771746869
 30
0.0
  0
LINE
  5
1E2
330
1F
100
AcDbEntity
  8
0
  6
Continuous
 62
     7
370
    25
100
AcDbLine
 10
237.6509638484
 20
159.4472771747
 30
0.0
 11
237.6509638484
 21
160.1210220022
 31
0.0
  0
LINE
  5
1E3
330
1F
100
AcDbEntity
  8
0
  6
Continuous
 62
     7
370
    25
100
AcDbLine
 10
239.6509641763
 20
157.193718688
 30
0.0
 11
239.6509641763
 21
157.4863774938
 31
0.0
  0
ARC
  5
1E4
330
1F
100
AcDbEntity
  8
0
  6
Continuous
 62
     7
370
    25
100
AcDbCircle
 10
239.6899931582
 20
156.732001994
 30
0.0
 40
0.4633633206211481
100
AcDbArc
 50
5.8279809688
 51
94.8317346104
  0
LINE
  5
1E5
330
1F
100
AcDbEntity
  8
0
  6
Continuous
 62
     7
370
    25
100
AcDbLine
 10
232.3936032113
 20
158.1782980127
 30
0.0
 11
239.597461557
 21
158.1782980127
 31
0.0
  0
LINE
  5
1E6
330
1F
100
AcDbEntity
  8
0
  6
Continuous
 62
     7
370
    25
100
AcDbLine
 10
232.3936032113
 20
157.4863774938
 30
0.0
 11
232.3936032113
 21
158.1782980127
 31
0.0
  0
LINE
  5
1E7
330
1F
100
AcDbEntity
  8
0
  6
Continuous
 62
     7
370
    25
100
AcDbLine
 10
239.6509641763
 20
157.4863774938
 30
0.0
 11
232.3936032113
 21
157.4863774938
 31
0.0
  0
LINE
  5
1E8
330
1F
100
AcDbEntity
  8
0
  6
Continuous
 62
     7
370
    25
100
AcDbLine
 10
232.3936032113
 20
157.4863774938
 30
0.0
 11
232.3936032113
 21
157.193718688
 31
0.0
  0
LINE
  5
1E9
330
1F
100
AcDbEntity
  8
0
  6
Continuous
 62
     7
370
    25
100
AcDbLine
 10
232.3936032113
 20
157.193718688
 30
0.0
 11
239.6509641763
 21
157.193718688
 31
0.0
  0
SPLINE
  5
1EA
330
1F
100
AcDbEntity
  8
0
  6
Continuous
 62
     7
370
    25
100
AcDbSpline
210
0.0
220
0.0
230
1.0
 70
     8
 71
     3
 72
    10
 73
     6
 74
     0
 42
0.000000001
 43
0.00000001
 40
0.0
 40
0.0
 40
0.0
 40
0.0
 40
0.5221712353220096
 40
0.6388966561686532
 40
1.0
 40
1.0
 40
1.0
 40
1.0
 10
239.5974615570014
 20
189.3611049515957
 30
0.0
 10
239.6137496642511
 20
189.399152603857
 30
0.0
 10
239.6336787920031
 20
189.4457053745968
 30
0.0
 10
239.6483049035555
 20
189.527141434753
 30
0.0
 10
239.6498195398201
 20
189.5671839826165
 30
0.0
 10
239.6509641762679
 20
189.5974448187108
 30
0.0
  0
ARC
  5
1EB
330
1F
100
AcDbEntity
  8
0
  6
Continuous
 62
     7
370
    25
100
AcDbCircle
 10
239.7756928005
 20
192.3313199931
 30
0.0
 40
2.736718966014917
100
AcDbArc
 50
267.3877843469
 51
277.8814334056
  0
ARC
  5
1EC
330
1F
100
AcDbEntity
  8
0
  6
Continuous
 62
     7
370
    25
100
AcDbCircle
 10
239.567475436
 20
188.7802914631
 30
0.0
 40
0.5815870320751526
100
AcDbArc
 50
27.342636885
 51
87.0445690811
  0
LINE
  5
1ED
330
1F
100
AcDbEntity
  8
0
  6
Continuous
 62
     7
370
    25
100
AcDbLine
 10
239.6509641763
 20
189.5974448187
 30
0.0
 11
239.6509641763
 21
190.0237148864
 31
0.0
  0
ARC
  5
1EE
330
1F
100
AcDbEntity
  8
0
  6
Continuous
 62
     7
370
    25
100
AcDbCircle
 10
239.6750408618
 20
190.4997799109
 30
0.0
 40
0.4766734672158979
100
AcDbArc
 50
267.104769192
 51
356.7793554762
  0
SPLINE
  5
1EF
330
1F
100
AcDbEntity
  8
0
  6
Continuous
 62
     7
370
    25
100
AcDbSpline
210
0.0
220
0.0
230
1.0
 70
     8
 71
     3
 72
    11
 73
     7
 74
     0
 42
0.000000001
 43
0.00000001
 40
0.0
 40
0.0
 40
0.0
 40
0.0
 40
0.2428045121560887
 40
0.4949636414530388
 40
0.7474886261387856
 40
1.0
 40
1.0
 40
1.0
 40
1.0
 10
237.6509638484424
 20
187.9643967611546
 30
0.0
 10
237.8680512856343
 20
187.9830340685694
 30
0.0
 10
238.3105899661228
 20
188.0210267296736
 30
0.0
 10
238.9034890303797
 20
188.3245655317444
 30
0.0
 10
239.3775600927227
 20
188.778377618685
 30
0.0
 10
239.5241623858949
 20
189.1668659972371
 30
0.0
 10
239.5974615570014
 20
189.3611049515957
 30
0.0
  0
LINE
  5
1F0
330
1F
100
AcDbEntity
  8
0
  6
Continuous
 62
     7
370
    25
100
AcDbLine
 10
237.6509638484
 20
187.9643967612
 30
0.0
 11
237.6509638484
 21
187.3157715661
 31
0.0
  0
LINE
  5
1F1
330
1F
100
AcDbEntity
  8
0
  6
Continuous
 62
     7
370
    25
100
AcDbLine
 10
232.3936032113
 20
189.3611049516
 30
0.0
 11
232.3936032113
 21
190.0237148864
 31
0.0
  0
LINE
  5
1F2
330
1F
100
AcDbEntity
  8
0
  6
Continuous
 62
     7
370
    25
100
AcDbLine
 10
239.597461557
 20
189.3611049516
 30
0.0
 11
232.3936032113
 21
189.3611049516
 31
0.0
  0
LINE
  5
1F3
330
1F
100
AcDbEntity
  8
0
  6
Continuous
 62
     7
370
    25
100
AcDbLine
 10
232.3936032113
 20
190.0237148864
 30
0.0
 11
239.6509641763
 21
190.0237148864
 31
0.0
  0
LINE
  5
1F4
330
1F
100
AcDbEntity
  8
0
  6
Continuous
 62
     7
370
    25
100
AcDbLine
 10
239.6509641763
 20
190.0237148864
 30
0.0
 11
239.6509641763
 21
190.24281411
 31
0.0
  0
ARC
  5
1F5
330
1F
100
AcDbEntity
  8
0
  6
Continuous
 62
     7
370
    25
100
AcDbCircle
 10
239.6724348001
 20
190.7214401469
 30
0.0
 40
0.4791073688442976
100
AcDbArc
 50
267.4314979547
 51
357.1787423976
  0
LINE
  5
1F6
330
1F
100
AcDbEntity
  8
0
  6
Continuous
 62
     7
370
    25
100
AcDbLine
 10
232.3936032113
 20
190.24281411
 30
0.0
 11
232.3936032113
 21
190.0237148864
 31
0.0
  0
LINE
  5
1F7
330
1F
100
AcDbEntity
  8
0
  6
Continuous
 62
     7
370
    25
100
AcDbLine
 10
239.6509641763
 20
190.24281411
 30
0.0
 11
232.3936032113
 21
190.24281411
 31
0.0
  0
SPLINE
  5
1F8
330
1F
100
AcDbEntity
  8
0
  6
Continuous
 62
     7
370
    25
100
AcDbSpline
210
0.0
220
0.0
230
1.0
 70
     8
 71
     3
 72
    19
 73
    15
 74
     0
 42
0.000000001
 43
0.00000001
 40
0.0
 40
0.0
 40
0.0
 40
0.0
 40
0.1023053007413057
 40
0.1984129871836673
 40
0.2831482158426207
 40
0.3933265804233594
 40
0.4770446391055889
 40
0.4949261505400565
 40
0.582782859166477
 40
0.6183110849994825
 40
0.7255452919372829
 40
0.8226958282204961
 40
0.9308049136261681
 40
1.0
 40
1.0
 40
1.0
 40
1.0
 10
214.0509629603332
 20
170.855200128054
 30
0.0
 10
213.8017199600466
 20
170.8727266816271
 30
0.0
 10
213.3183330009825
 20
170.9067180371508
 30
0.0
 10
212.6868518830481
 20
171.1668809295683
 30
0.0
 10
212.1451283481133
 20
171.5781242176974
 30
0.0
 10
211.7805395939373
 20
172.1348621418295
 30
0.0
 10
211.6640772206482
 20
172.6409605482558
 30
0.0
 10
211.6416115580578
 20
173.099994259784
 30
0.0
 10
211.6893751529831
 20
173.4478377445363
 30
0.0
 10
211.8800540984548
 20
173.9622931453318
 30
0.0
 10
212.2100801211457
 20
174.4301232939705
 30
0.0
 10
212.8160602867505
 20
174.8447329099402
 30
0.0
 10
213.4519774154336
 20
175.0516887411693
 30
0.0
 10
213.8828210485623
 20
175.072859047203
 30
0.0
 10
214.0509629603332
 20
175.0811210138553
 30
0.0
  0
LINE
  5
1F9
330
1F
100
AcDbEntity
  8
0
  6
Continuous
 62
     7
370
    25
100
AcDbLine
 10
214.0509629603
 20
174.3414907021
 30
0.0
 11
214.0509629603
 21
175.0811210139
 31
0.0
  0
SPLINE
  5
1FA
330
1F
100
AcDbEntity
  8
0
  6
Continuous
 62
     7
370
    25
100
AcDbSpline
210
0.0
220
0.0
230
1.0
 70
     8
 71
     3
 72
    18
 73
    14
 74
     0
 42
0.000000001
 43
0.00000001
 40
0.0
 40
0.0
 40
0.0
 40
0.0
 40
0.0687228418597933
 40
0.1753277974241803
 40
0.2705335166316312
 40
0.37750303544221
 40
0.4743551511644727
 40
0.5054058747752544
 40
0.6106115473916448
 40
0.7208911379070372
 40
0.8039702634168129
 40
0.8984794884064529
 40
1.0
 40
1.0
 40
1.0
 40
1.0
 10
214.0509629603332
 20
174.3414907021278
 30
0.0
 10
213.945984271543
 20
174.3362745039902
 30
0.0
 10
213.6781594583666
 20
174.3229667811773
 30
0.0
 10
213.2807371707093
 20
174.1926102175347
 30
0.0
 10
212.8969547792104
 20
173.9225150722117
 30
0.0
 10
212.6408290207949
 20
173.540634954774
 30
0.0
 10
212.5566300292313
 20
173.1861118524382
 30
0.0
 10
212.5452100827834
 20
172.8303476413019
 30
0.0
 10
212.6141272404511
 20
172.4520958603245
 30
0.0
 10
212.8561744199952
 20
172.0605800467868
 30
0.0
 10
213.1990405566906
 20
171.7922633014284
 30
0.0
 10
213.5952888226772
 20
171.6268189416955
 30
0.0
 10
213.8954925083397
 20
171.6056218127187
 30
0.0
 10
214.0509629603332
 20
171.5946441752666
 30
0.0
  0
LINE
  5
1FB
330
1F
100
AcDbEntity
  8
0
  6
Continuous
 62
     7
370
    25
100
AcDbLine
 10
214.0509629603
 20
170.8552001281
 30
0.0
 11
214.0509629603
 21
171.5946441753
 31
0.0
  0
LINE
  5
1FC
330
1F
100
AcDbEntity
  8
0
  6
Continuous
 62
     7
370
    25
100
AcDbLine
 10
231.5509630348
 20
193.4509894116
 30
0.0
 11
231.5509630348
 21
152.450999455
 31
0.0
  0
LINE
  5
1FD
330
1F
100
AcDbEntity
  8
0
  6
Continuous
 62
     7
370
    25
100
AcDbLine
 10
217.2481877711
 20
170.8552001281
 30
0.0
 11
214.0509629603
 21
170.8552001281
 31
0.0
  0
SPLINE
  5
1FE
330
1F
100
AcDbEntity
  8
0
  6
Continuous
 62
     7
370
    25
100
AcDbSpline
210
0.0
220
0.0
230
1.0
 70
     8
 71
     3
 72
    17
 73
    13
 74
     0
 42
0.000000001
 43
0.00000001
 40
0.0
 40
0.0
 40
0.0
 40
0.0
 40
0.1171692016957017
 40
0.2364610841000621
 40
0.3534352576559754
 40
0.4606625911235583
 40
0.558861964068321
 40
0.6531618026599435
 40
0.7490509613937589
 40
0.8506998882012871
 40
0.9604546050225196
 40
0.9999999999999999
 40
0.9999999999999999
 40
0.9999999999999999
 40
0.9999999999999999
 10
217.2481877710526
 20
175.0811210138553
 30
0.0
 10
217.5118721762042
 20
175.0541621014753
 30
0.0
 10
218.0440179909749
 20
174.9997558790612
 30
0.0
 10
218.7402223076306
 20
174.572601897545
 30
0.0
 10
219.2266782237295
 20
173.9591510388887
 30
0.0
 10
219.4472248746731
 20
173.2553777240453
 30
0.0
 10
219.4243213041523
 20
172.5730388064664
 30
0.0
 10
219.200134673985
 20
171.9570279696071
 30
0.0
 10
218.795923488071
 20
171.4312161744996
 30
0.0
 10
218.2216961609276
 20
171.0357009085925
 30
0.0
 10
217.6710082707623
 20
170.8704980603197
 30
0.0
 10
217.3367289492413
 20
170.8584036078938
 30
0.0
 10
217.2481877710526
 20
170.855200128054
 30
0.0
  0
LINE
  5
1FF
330
1F
100
AcDbEntity
  8
0
  6
Continuous
 62
     7
370
    25
100
AcDbLine
 10
214.0509629603
 20
175.0811210139
 30
0.0
 11
217.2481877711
 21
175.0811210139
 31
0.0
  0
LINE
  5
200
330
1F
100
AcDbEntity
  8
0
  6
Continuous
 62
     7
370
    25
100
AcDbLine
 10
217.2481877711
 20
170.8552001281
 30
0.0
 11
217.2481877711
 21
171.5946441753
 31
0.0
  0
SPLINE
  5
201
330
1F
100
AcDbEntity
  8
0
  6
Continuous
 62
     7
370
    25
100
AcDbSpline
210
0.0
220
0.0
230
1.0
 70
     8
 71
     3
 72
    17
 73
    13
 74
     0
 42
0.000000001
 43
0.00000001
 40
0.0
 40
0.0
 40
0.0
 40
0.0
 40
0.0409522111647164
 40
0.1540201721784569
 40
0.2569179073997609
 40
0.3518319457577015
 40
0.443370830782527
 40
0.5378321227698032
 40
0.6416986401691175
 40
0.7575736875057887
 40
0.8788920398437322
 40
1.0
 40
1.0
 40
1.0
 40
1.0
 10
217.2481877710526
 20
171.5946441752666
 30
0.0
 10
217.3101486602104
 20
171.5967278108817
 30
0.0
 10
217.5431819090872
 20
171.604564308767
 30
0.0
 10
217.9254615357921
 20
171.7102834348544
 30
0.0
 10
218.3276743700289
 20
171.9656069593879
 30
0.0
 10
218.6124331907044
 20
172.3070686342495
 30
0.0
 10
218.7712806276692
 20
172.7092015323939
 30
0.0
 10
218.7876149086641
 20
173.1564677314121
 30
0.0
 10
218.6304242804204
 20
173.617474738798
 30
0.0
 10
218.2867115520317
 20
174.0157206161385
 30
0.0
 10
217.800737843335
 20
174.2895673663434
 30
0.0
 10
217.4322645340231
 20
174.3241929402538
 30
0.0
 10
217.2481877710526
 20
174.3414907021278
 30
0.0
  0
LINE
  5
202
330
1F
100
AcDbEntity
  8
0
  6
Continuous
 62
     7
370
    25
100
AcDbLine
 10
217.2481877711
 20
174.3414907021
 30
0.0
 11
217.2481877711
 21
175.0811210139
 31
0.0
  0
LINE
  5
203
330
1F
100
AcDbEntity
  8
0
  6
Continuous
 62
     7
370
    25
100
AcDbLine
 10
217.2481877711
 20
171.5946441753
 30
0.0
 11
217.2481877711
 21
174.3414907021
 31
0.0
  0
LINE
  5
204
330
1F
100
AcDbEntity
  8
0
  6
Continuous
 62
     7
370
    25
100
AcDbLine
 10
214.0509629603
 20
171.5946441753
 30
0.0
 11
217.2481877711
 21
171.5946441753
 31
0.0
  0
LINE
  5
205
330
1F
100
AcDbEntity
  8
0
  6
Continuous
 62
     7
370
    25
100
AcDbLine
 10
217.2481877711
 20
174.3414907021
 30
0.0
 11
214.0509629603
 21
174.3414907021
 31
0.0
  0
SPLINE
  5
206
330
1F
100
AcDbEntity
  8
0
  6
Continuous
 62
     7
370
    25
100
AcDbSpline
210
0.0
220
0.0
230
1.0
 70
     8
 71
     3
 72
    11
 73
     7
 74
     0
 42
0.000000001
 43
0.00000001
 40
0.0
 40
0.0
 40
0.0
 40
0.0
 40
0.2194554692747349
 40
0.4903780816617332
 40
0.7490911464352967
 40
1.0
 40
1.0
 40
1.0
 40
1.0
 10
206.4798436108833
 20
158.260500268435
 30
0.0
 10
206.4698654887843
 20
158.1928317065129
 30
0.0
 10
206.4475691550924
 20
158.0416248138624
 30
0.0
 10
206.2516351724511
 20
157.8590313241222
 30
0.0
 10
205.9266512937828
 20
157.7157996573606
 30
0.0
 10
205.630148161327
 20
157.663210645284
 30
0.0
 10
205.4841668791925
 20
157.6373188061471
 30
0.0
  0
SPLINE
  5
207
330
1F
100
AcDbEntity
  8
0
  6
Continuous
 62
     7
370
    25
100
AcDbSpline
210
0.0
220
0.0
230
1.0
 70
     8
 71
     3
 72
    11
 73
     7
 74
     0
 42
0.000000001
 43
0.00000001
 40
0.0
 40
0.0
 40
0.0
 40
0.0
 40
0.2082509223020173
 40
0.4681592439737119
 40
0.7315483459733879
 40
1.0
 40
1.0
 40
1.0
 40
1.0
 10
205.4841668791925
 20
159.1192914409394
 30
0.0
 10
205.6059449752123
 20
159.0869282134327
 30
0.0
 10
205.8797086672764
 20
159.014173942025
 30
0.0
 10
206.2037828402667
 20
158.7961783409606
 30
0.0
 10
206.4356765578362
 20
158.5255270516556
 30
0.0
 10
206.4650281280734
 20
158.3494013718607
 30
0.0
 10
206.4798436108833
 20
158.260500268435
 30
0.0
  0
LINE
  5
208
330
1F
100
AcDbEntity
  8
0
  6
Continuous
 62
     7
370
    25
100
AcDbLine
 10
205.4841668792
 20
186.7986342175
 30
0.0
 11
205.4841668792
 21
159.1192914409
 31
0.0
  0
SPLINE
  5
209
330
1F
100
AcDbEntity
  8
0
  6
Continuous
 62
     7
370
    25
100
AcDbSpline
210
0.0
220
0.0
230
1.0
 70
     8
 71
     3
 72
    11
 73
     7
 74
     0
 42
0.000000001
 43
0.00000001
 40
0.0
 40
0.0
 40
0.0
 40
0.0
 40
0.2194565082782057
 40
0.4903780338299393
 40
0.7490915164720902
 40
0.9999999999999999
 40
0.9999999999999999
 40
0.9999999999999999
 40
0.9999999999999999
 10
206.4798436108833
 20
187.6554286343808
 30
0.0
 10
206.4698656605266
 20
187.5835685492909
 30
0.0
 10
206.4475698183302
 20
187.4229963816496
 30
0.0
 10
206.2516341051613
 20
187.1651900380234
 30
0.0
 10
205.9266520845094
 20
186.9226871391242
 30
0.0
 10
205.6301482687525
 20
186.8395608239787
 30
0.0
 10
205.4841668791925
 20
186.7986342174763
 30
0.0
  0
SPLINE
  5
20A
330
1F
100
AcDbEntity
  8
0
  6
Continuous
 62
     7
370
    25
100
AcDbSpline
210
0.0
220
0.0
230
1.0
 70
     8
 71
     3
 72
    11
 73
     7
 74
     0
 42
0.000000001
 43
0.00000001
 40
0.0
 40
0.0
 40
0.0
 40
0.0
 40
0.2082505381242126
 40
0.4681588105396473
 40
0.7315493957061157
 40
1.0
 40
1.0
 40
1.0
 40
1.0
 10
205.4841668791925
 20
188.2763898236508
 30
0.0
 10
205.6059449887831
 20
188.2556242887383
 30
0.0
 10
205.8797089629326
 20
188.2089422094869
 30
0.0
 10
206.2037838296594
 20
188.0830607052498
 30
0.0
 10
206.4356756386382
 20
187.9001074018681
 30
0.0
 10
206.4650278662609
 20
187.7375039018051
 30
0.0
 10
206.4798436108833
 20
187.6554286343808
 30
0.0
  0
LINE
  5
20B
330
1F
100
AcDbEntity
  8
0
  6
Continuous
 62
     7
370
    25
100
AcDbLine
 10
205.0509632313
 20
186.7606213553
 30
0.0
 11
184.0509636309
 21
186.7606213553
 31
0.0
  0
LINE
  5
20C
330
1F
100
AcDbEntity
  8
0
  6
Continuous
 62
     7
370
    25
100
AcDbLine
 10
205.4841668792
 20
186.7986342175
 30
0.0
 11
205.0509632313
 21
186.7606213553
 31
0.0
  0
LINE
  5
20D
330
1F
100
AcDbEntity
  8
0
  6
Continuous
 62
     7
370
    25
100
AcDbLine
 10
205.0509632313
 20
159.1573937101
 30
0.0
 11
205.4841668792
 21
159.1192914409
 31
0.0
  0
LINE
  5
20E
330
1F
100
AcDbEntity
  8
0
  6
Continuous
 62
     7
370
    25
100
AcDbLine
 10
184.0509636309
 20
159.1573937101
 30
0.0
 11
205.0509632313
 21
159.1573937101
 31
0.0
  0
LINE
  5
20F
330
1F
100
AcDbEntity
  8
0
  6
Continuous
 62
     7
370
    25
100
AcDbLine
 10
184.0509636309
 20
170.29097511
 30
0.0
 11
184.0509636309
 21
159.1573937101
 31
0.0
  0
LINE
  5
210
330
1F
100
AcDbEntity
  8
0
  6
Continuous
 62
     7
370
    25
100
AcDbLine
 10
199.5509633776
 20
170.29097511
 30
0.0
 11
184.0509636309
 21
170.29097511
 31
0.0
  0
SPLINE
  5
211
330
1F
100
AcDbEntity
  8
0
  6
Continuous
 62
     7
370
    25
100
AcDbSpline
210
0.0
220
0.0
230
1.0
 70
     8
 71
     3
 72
    12
 73
     8
 74
     0
 42
0.000000001
 43
0.00000001
 40
0.0
 40
0.0
 40
0.0
 40
0.0
 40
0.1448949333052917
 40
0.3611725337314498
 40
0.5757503198852699
 40
0.788039379128074
 40
1.0
 40
1.0
 40
1.0
 40
1.0
 10
202.2009632997071
 20
172.9648804528469
 30
0.0
 10
202.1875201504446
 20
172.7632068449578
 30
0.0
 10
202.1540110678998
 20
172.2605048781845
 30
0.0
 10
201.8300235225249
 20
171.5061499894966
 30
0.0
 10
201.2293344166241
 20
170.8339271207626
 30
0.0
 10
200.4392216591725
 20
170.3786969561668
 30
0.0
 10
199.8468966194073
 20
170.3202006301798
 30
0.0
 10
199.5509633775657
 20
170.2909751100296
 30
0.0
  0
SPLINE
  5
212
330
1F
100
AcDbEntity
  8
0
  6
Continuous
 62
     7
370
    25
100
AcDbSpline
210
0.0
220
0.0
230
1.0
 70
     8
 71
     3
 72
    12
 73
     8
 74
     0
 42
0.000000001
 43
0.00000001
 40
0.0
 40
0.0
 40
0.0
 40
0.0
 40
0.1436170083514863
 40
0.3585537504526087
 40
0.5729090816474506
 40
0.7862315979243917
 40
1.0
 40
1.0
 40
1.0
 40
1.0
 10
199.5509633775657
 20
175.6384356183762
 30
0.0
 10
199.7508746397226
 20
175.6248609596307
 30
0.0
 10
200.2499724389794
 20
175.5909705112767
 30
0.0
 10
200.9986987661631
 20
175.2629660889484
 30
0.0
 10
201.6644641495551
 20
174.6562411594146
 30
0.0
 10
202.1143858361418
 20
173.8595089797531
 30
0.0
 10
202.1720840660716
 20
173.2632974447699
 30
0.0
 10
202.2009632997071
 20
172.9648804528469
 30
0.0
  0
LINE
  5
213
330
1F
100
AcDbEntity
  8
0
  6
Continuous
 62
     7
370
    25
100
AcDbLine
 10
184.0509636309
 20
175.6384356184
 30
0.0
 11
199.5509633776
 21
175.6384356184
 31
0.0
  0
LINE
  5
214
330
1F
100
AcDbEntity
  8
0
  6
Continuous
 62
     7
370
    25
100
AcDbLine
 10
184.0509636309
 20
186.7606213553
 30
0.0
 11
184.0509636309
 21
175.6384356184
 31
0.0
  0
SPLINE
  5
215
330
1F
100
AcDbEntity
  8
0
  6
Continuous
 62
     7
370
    25
100
AcDbSpline
210
0.0
220
0.0
230
1.0
 70
     8
 71
     3
 72
    12
 73
     8
 74
     0
 42
0.000000001
 43
0.00000001
 40
0.0
 40
0.0
 40
0.0
 40
0.0
 40
0.2128268848866068
 40
0.4256377466640153
 40
0.6401518550194155
 40
0.8557543736775877
 40
1.0
 40
1.0
 40
1.0
 40
1.0
 10
199.5509633775657
 20
170.4645848138088
 30
0.0
 10
199.8300691761937
 20
170.4918769410593
 30
0.0
 10
200.3882597603966
 20
170.5464591408163
 30
0.0
 10
201.1333820352753
 20
170.9715140055444
 30
0.0
 10
201.700351984595
 20
171.5997438507592
 30
0.0
 10
202.00661112387
 20
172.3056438422837
 30
0.0
 10
202.0382720112259
 20
172.7761505348819
 30
0.0
 10
202.0509633216863
 20
172.9647537929768
 30
0.0
  0
ARC
  5
216
330
1F
100
AcDbEntity
  8
0
  6
Continuous
 62
     7
370
    25
100
AcDbCircle
 10
202.1642991834
 20
127.5646437775
 30
0.0
 40
45.4002514798991
100
AcDbArc
 50
89.9537293454
 51
90.143031659
  0
LINE
  5
217
330
1F
100
AcDbEntity
  8
0
  6
Continuous
 62
     7
370
    25
100
AcDbLine
 10
199.5509633776
 20
170.4645848138
 30
0.0
 11
199.5509633776
 21
170.29097511
 31
0.0
  0
SPLINE
  5
218
330
1F
100
AcDbEntity
  8
0
  6
Continuous
 62
     7
370
    25
100
AcDbSpline
210
0.0
220
0.0
230
1.0
 70
     8
 71
     3
 72
    12
 73
     8
 74
     0
 42
0.000000001
 43
0.00000001
 40
0.0
 40
0.0
 40
0.0
 40
0.0
 40
0.2128459959793861
 40
0.4256766063108224
 40
0.6401665396840963
 40
0.8557783578059387
 40
1.0
 40
1.0
 40
1.0
 40
1.0
 10
202.0509633216863
 20
172.9647537929768
 30
0.0
 10
202.0236713244057
 20
173.2438815884728
 30
0.0
 10
201.969089302656
 20
173.8021170026136
 30
0.0
 10
201.5440127672749
 20
174.547222672418
 30
0.0
 10
200.9158097044409
 20
175.1140804703332
 30
0.0
 10
200.2100186421911
 20
175.420247785987
 30
0.0
 10
199.7395340955043
 20
175.4518955765602
 30
0.0
 10
199.5509633775657
 20
175.4645800454373
 30
0.0
  0
LINE
  5
219
330
1F
100
AcDbEntity
  8
0
  6
Continuous
 62
     7
370
    25
100
AcDbLine
 10
199.5509633776
 20
175.4645800454
 30
0.0
 11
199.5509633776
 21
175.6384356184
 31
0.0
  0
LINE
  5
21A
330
1F
100
AcDbEntity
  8
0
  6
Continuous
 62
     7
370
    25
100
AcDbLine
 10
202.0509633217
 20
172.9646308584
 30
0.0
 11
202.0509633217
 21
172.964753793
 31
0.0
  0
SPLINE
  5
21B
330
1F
100
AcDbEntity
  8
0
  6
Continuous
 62
     7
370
    25
100
AcDbSpline
210
0.0
220
0.0
230
1.0
 70
     8
 71
     3
 72
    12
 73
     8
 74
     0
 42
0.000000001
 43
0.00000001
 40
0.0
 40
0.0
 40
0.0
 40
0.0
 40
0.213046706092698
 40
0.426036494386599
 40
0.6405130650530242
 40
0.856036123141285
 40
1.0
 40
1.0
 40
1.0
 40
1.0
 10
202.0509633216863
 20
172.9646308583969
 30
0.0
 10
202.023645395766
 20
173.2439257367461
 30
0.0
 10
201.9690168422135
 20
173.802440876709
 30
0.0
 10
201.5434029639683
 20
174.5479930390281
 30
0.0
 10
200.9145192843196
 20
175.1147999946661
 30
0.0
 10
200.2089904776429
 20
175.420307313077
 30
0.0
 10
199.7391289941141
 20
175.4518455906529
 30
0.0
 10
199.5509633775657
 20
175.4644757373089
 30
0.0
  0
LINE
  5
21C
330
1F
100
AcDbEntity
  8
0
  6
Continuous
 62
     7
370
    25
100
AcDbLine
 10
199.5509633776
 20
175.4644757373
 30
0.0
 11
199.5509633776
 21
175.4645800454
 31
0.0
  0
SPLINE
  5
21D
330
1F
100
AcDbEntity
  8
0
  6
Continuous
 62
     7
370
    25
100
AcDbSpline
210
0.0
220
0.0
230
1.0
 70
     8
 71
     3
 72
    10
 73
     6
 74
     0
 42
0.000000001
 43
0.00000001
 40
0.0
 40
0.0
 40
0.0
 40
0.0
 40
0.4190490080092965
 40
0.8377258871479754
 40
1.0
 40
1.0
 40
1.0
 40
1.0
 10
184.0509636308854
 20
170.2909751100296
 30
0.0
 10
183.9397926056508
 20
170.2912109582069
 30
0.0
 10
183.7175492785941
 20
170.2916824451209
 30
0.0
 10
183.4793174626364
 20
170.2945923891406
 30
0.0
 10
183.367932494541
 20
170.2969335544124
 30
0.0
 10
183.3368198927348
 20
170.2975875003094
 30
0.0
  0
SPLINE
  5
21E
330
1F
100
AcDbEntity
  8
0
  6
Continuous
 62
     7
370
    25
100
AcDbSpline
210
0.0
220
0.0
230
1.0
 70
     8
 71
     3
 72
    12
 73
     8
 74
     0
 42
0.000000001
 43
0.00000001
 40
0.0
 40
0.0
 40
0.0
 40
0.0
 40
0.2155309992037727
 40
0.4312383465156325
 40
0.6467163599252407
 40
0.8615028614242404
 40
1.0
 40
1.0
 40
1.0
 40
1.0
 10
183.0509634669726
 20
160.000177310204
 30
0.0
 10
183.0620918283071
 20
159.9051811178874
 30
0.0
 10
183.0843576562345
 20
159.7151110070856
 30
0.0
 10
183.2580179705986
 20
159.4618050720099
 30
0.0
 10
183.5132797702619
 20
159.2711934760173
 30
0.0
 10
183.7941380293675
 20
159.1713961114666
 30
0.0
 10
183.9786354463215
 20
159.1613371186489
 30
0.0
 10
184.0509636308854
 20
159.157393710112
 30
0.0
  0
LINE
  5
21F
330
1F
100
AcDbEntity
  8
0
  6
Continuous
 62
     7
370
    25
100
AcDbLine
 10
183.050963467
 20
160.0001773102
 30
0.0
 11
183.050963467
 21
185.9169474108
 31
0.0
  0
SPLINE
  5
220
330
1F
100
AcDbEntity
  8
0
  6
Continuous
 62
     7
370
    25
100
AcDbSpline
210
0.0
220
0.0
230
1.0
 70
     8
 71
     3
 72
    12
 73
     8
 74
     0
 42
0.000000001
 43
0.00000001
 40
0.0
 40
0.0
 40
0.0
 40
0.0
 40
0.2138760240556319
 40
0.4275997554536621
 40
0.6414997266394726
 40
0.8560385424993399
 40
1.0
 40
1.0
 40
1.0
 40
1.0
 10
184.0509636308854
 20
186.7606213552708
 30
0.0
 10
183.9389049579534
 20
186.7513467420987
 30
0.0
 10
183.7148674046382
 20
186.7328041198397
 30
0.0
 10
183.4160443524708
 20
186.588260806823
 30
0.0
 10
183.1898281180633
 20
186.3753742721123
 30
0.0
 10
183.0685150013254
 20
186.1379546705391
 30
0.0
 10
183.0559921971457
 20
185.9802687052892
 30
0.0
 10
183.0509634669726
 20
185.9169474107975
 30
0.0
  0
SPLINE
  5
221
330
1F
100
AcDbEntity
  8
0
  6
Continuous
 62
     7
370
    25
100
AcDbSpline
210
0.0
220
0.0
230
1.0
 70
     8
 71
     3
 72
    10
 73
     6
 74
     0
 42
0.000000001
 43
0.00000001
 40
0.0
 40
0.0
 40
0.0
 40
0.0
 40
0.1622722210816279
 40
0.5809508988809119
 40
1.0
 40
1.0
 40
1.0
 40
1.0
 10
183.3368198927348
 20
175.6313240391964
 30
0.0
 10
183.3679325982629
 20
175.6320249074638
 30
0.0
 10
183.4793192183679
 20
175.6345340864671
 30
0.0
 10
183.7175481204665
 20
175.6376685370851
 30
0.0
 10
183.9397923703702
 20
175.6381798492491
 30
0.0
 10
184.0509636308854
 20
175.6384356183762
 30
0.0
  0
LINE
  5
222
330
1F
100
AcDbEntity
  8
0
  6
Continuous
 62
     7
370
    25
100
AcDbLine
 10
183.3368198927
 20
175.6313240392
 30
0.0
 11
183.3368198927
 21
170.2975875003
 31
0.0
  0
SPLINE
  5
223
330
1F
100
AcDbEntity
  8
0
  6
Continuous
 62
     7
370
    25
100
AcDbSpline
210
0.0
220
0.0
230
1.0
 70
     8
 71
     3
 72
     9
 73
     5
 74
     0
 42
0.000000001
 43
0.00000001
 40
0.0
 40
0.0
 40
0.0
 40
0.0
 40
0.3972531428666952
 40
1.0
 40
1.0
 40
1.0
 40
1.0
 10
183.6044130828088
 20
170.4644767803902
 30
0.0
 10
183.6593306267581
 20
170.4645017836428
 30
0.0
 10
183.7975738224017
 20
170.4645647239946
 30
0.0
 10
183.9556710336712
 20
170.4645772586092
 30
0.0
 10
184.0509636308854
 20
170.4645848138088
 30
0.0
  0
LINE
  5
224
330
1F
100
AcDbEntity
  8
0
  6
Continuous
 62
     7
370
    25
100
AcDbLine
 10
184.0509636309
 20
170.4645848138
 30
0.0
 11
184.0509636309
 21
170.29097511
 31
0.0
  0
SPLINE
  5
225
330
1F
100
AcDbEntity
  8
0
  6
Continuous
 62
     7
370
    25
100
AcDbSpline
210
0.0
220
0.0
230
1.0
 70
     8
 71
     3
 72
    12
 73
     8
 74
     0
 42
0.000000001
 43
0.00000001
 40
0.0
 40
0.0
 40
0.0
 40
0.0
 40
0.1220762927351427
 40
0.2434565028441006
 40
0.420812489843954
 40
0.6770700425714643
 40
1.0
 40
1.0
 40
1.0
 40
1.0
 10
183.3368198927348
 20
170.2975875003094
 30
0.0
 10
183.3384681715951
 20
170.3116046990553
 30
0.0
 10
183.3417553307809
 20
170.339559170066
 30
0.0
 10
183.3679412053699
 20
170.3816258551079
 30
0.0
 10
183.4168748667626
 20
170.423950706857
 30
0.0
 10
183.4995407701176
 20
170.4583298941866
 30
0.0
 10
183.5668720610575
 20
170.4622763865708
 30
0.0
 10
183.6044130828088
 20
170.4644767803902
 30
0.0
  0
SPLINE
  5
226
330
1F
100
AcDbEntity
  8
0
  6
Continuous
 62
     7
370
    25
100
AcDbSpline
210
0.0
220
0.0
230
1.0
 70
     8
 71
     3
 72
     9
 73
     5
 74
     0
 42
0.000000001
 43
0.00000001
 40
0.0
 40
0.0
 40
0.0
 40
0.0
 40
0.6027481602987997
 40
1.0
 40
1.0
 40
1.0
 40
1.0
 10
184.0509636308854
 20
175.4645800454373
 30
0.0
 10
183.9556711677452
 20
175.4645741063052
 30
0.0
 10
183.7975745207262
 20
175.4645642528832
 30
0.0
 10
183.659330696364
 20
175.4645009031192
 30
0.0
 10
183.6044130828088
 20
175.4644757373089
 30
0.0
  0
SPLINE
  5
227
330
1F
100
AcDbEntity
  8
0
  6
Continuous
 62
     7
370
    25
100
AcDbSpline
210
0.0
220
0.0
230
1.0
 70
     8
 71
     3
 72
    12
 73
     8
 74
     0
 42
0.000000001
 43
0.00000001
 40
0.0
 40
0.0
 40
0.0
 40
0.0
 40
0.438944438125616
 40
0.6309750152484659
 40
0.7943563918093377
 40
0.9178930855065578
 40
1.0
 40
1.0
 40
1.0
 40
1.0
 10
183.6044130828088
 20
175.4644757373089
 30
0.0
 10
183.5529274438699
 20
175.4683879254089
 30
0.0
 10
183.4789177310388
 20
175.4740116279363
 30
0.0
 10
183.3973368282941
 20
175.5194144639348
 30
0.0
 10
183.3584479032706
 20
175.5593763615482
 30
0.0
 10
183.3394444883749
 20
175.5983954439801
 30
0.0
 10
183.3375687964997
 20
175.621928173199
 30
0.0
 10
183.3368198927348
 20
175.6313240391964
 30
0.0
  0
LINE
  5
228
330
1F
100
AcDbEntity
  8
0
  6
Continuous
 62
     7
370
    25
100
AcDbLine
 10
184.0509636309
 20
175.4645800454
 30
0.0
 11
184.0509636309
 21
175.6384356184
 31
0.0
  0
LINE
  5
229
330
1F
100
AcDbEntity
  8
0
  6
Continuous
 62
     7
370
    25
100
AcDbLine
 10
184.0509636309
 20
170.4645848138
 30
0.0
 11
199.5509633776
 21
170.4645848138
 31
0.0
  0
LINE
  5
22A
330
1F
100
AcDbEntity
  8
0
  6
Continuous
 62
     7
370
    25
100
AcDbLine
 10
199.5509633776
 20
175.4645800454
 30
0.0
 11
184.0509636309
 21
175.4645800454
 31
0.0
  0
LINE
  5
22B
330
1F
100
AcDbEntity
  8
0
  6
Continuous
 62
     7
370
    25
100
AcDbLine
 10
195.0509635713
 20
175.4644757373
 30
0.0
 11
183.6044130828
 21
175.4644757373
 31
0.0
  0
LINE
  5
22C
330
1F
100
AcDbEntity
  8
0
  6
Continuous
 62
     7
370
    25
100
AcDbLine
 10
195.0509635713
 20
175.4644757373
 30
0.0
 11
195.0509635713
 21
170.4644767804
 31
0.0
  0
LINE
  5
22D
330
1F
100
AcDbEntity
  8
0
  6
Continuous
 62
     7
370
    25
100
AcDbLine
 10
199.5509633776
 20
175.4644757373
 30
0.0
 11
195.0509635713
 21
175.4644757373
 31
0.0
  0
ARC
  5
22E
330
1F
100
AcDbEntity
  8
0
  6
Continuous
 62
     7
370
    25
100
AcDbCircle
 10
206.5087140718
 20
158.7182831259
 30
0.0
 40
0.4586923240401151
100
AcDbArc
 50
183.6717114094
 51
266.3913726111
  0
ARC
  5
22F
330
1F
100
AcDbEntity
  8
0
  6
Continuous
 62
     7
370
    25
100
AcDbCircle
 10
206.5089601585
 20
187.1974270221
 30
0.0
 40
0.4589261925874657
100
AcDbArc
 50
93.6375708051
 51
176.3531281214
  0
SPLINE
  5
230
330
1F
100
AcDbEntity
  8
0
  6
Continuous
 62
     7
370
    25
100
AcDbSpline
210
0.0
220
0.0
230
1.0
 70
     8
 71
     3
 72
    12
 73
     8
 74
     0
 42
0.000000001
 43
0.00000001
 40
0.0
 40
0.0
 40
0.0
 40
0.0
 40
0.2155959446917721
 40
0.4312176226745916
 40
0.646213527739429
 40
0.8605536133466969
 40
1.0
 40
1.0
 40
1.0
 40
1.0
 10
183.0509634669726
 20
158.8458774847741
 30
0.0
 10
183.0565027203405
 20
158.8694901507323
 30
0.0
 10
183.0675818882355
 20
158.9167183010302
 30
0.0
 10
183.1541594507067
 20
158.9815208183756
 30
0.0
 10
183.2815270664734
 20
159.0310800378636
 30
0.0
 10
183.4220105279374
 20
159.0574773892701
 30
0.0
 10
183.5145053892795
 20
159.0601550349052
 30
0.0
 10
183.5509626176064
 20
159.0612104398961
 30
0.0
  0
LINE
  5
231
330
1F
100
AcDbEntity
  8
0
  6
Continuous
 62
     7
370
    25
100
AcDbLine
 10
205.0509632313
 20
159.0612104399
 30
0.0
 11
183.5509626176
 21
159.0612104399
 31
0.0
  0
LINE
  5
232
330
1F
100
AcDbEntity
  8
0
  6
Continuous
 62
     7
370
    25
100
AcDbLine
 10
183.050963467
 20
159.9850340051
 30
0.0
 11
183.050963467
 21
158.8458774848
 31
0.0
  0
SPLINE
  5
233
330
1F
100
AcDbEntity
  8
0
  6
Continuous
 62
     7
370
    25
100
AcDbSpline
210
0.0
220
0.0
230
1.0
 70
     8
 71
     3
 72
    12
 73
     8
 74
     0
 42
0.000000001
 43
0.00000001
 40
0.0
 40
0.0
 40
0.0
 40
0.0
 40
0.2139341317365088
 40
0.4278662162450441
 40
0.6419289711893863
 40
0.8564203883605604
 40
1.0
 40
1.0
 40
1.0
 40
1.0
 10
183.5509626176064
 20
186.8520623309369
 30
0.0
 10
183.4948503165957
 20
186.8545050811466
 30
0.0
 10
183.382626251537
 20
186.8593905581902
 30
0.0
 10
183.2330373117405
 20
186.897277336537
 30
0.0
 10
183.1200092066726
 20
186.9521800227395
 30
0.0
 10
183.059661688525
 20
187.0122075265566
 30
0.0
 10
183.0534530227944
 20
187.0510652865722
 30
0.0
 10
183.0509634669726
 20
187.0666465027089
 30
0.0
  0
LINE
  5
234
330
1F
100
AcDbEntity
  8
0
  6
Continuous
 62
     7
370
    25
100
AcDbLine
 10
205.0509632313
 20
186.8520623309
 30
0.0
 11
183.5509626176
 21
186.8520623309
 31
0.0
  0
LINE
  5
235
330
1F
100
AcDbEntity
  8
0
  6
Continuous
 62
     7
370
    25
100
AcDbLine
 10
183.050963467
 20
187.0666465027
 30
0.0
 11
183.050963467
 21
185.9169474108
 31
0.0
  0
ARC
  5
236
330
1F
100
AcDbEntity
  8
0
  6
Continuous
 62
     7
370
    25
100
AcDbCircle
 10
206.7188311618
 20
158.2561055678
 30
0.0
 40
1.381047771485296
100
AcDbArc
 50
176.9297978739
 51
206.6190281673
  0
SPLINE
  5
237
330
1F
100
AcDbEntity
  8
0
  6
Continuous
 62
     7
370
    25
100
AcDbSpline
210
0.0
220
0.0
230
1.0
 70
     8
 71
     3
 72
    11
 73
     7
 74
     0
 42
0.000000001
 43
0.00000001
 40
0.0
 40
0.0
 40
0.0
 40
0.0
 40
0.2610112789327983
 40
0.5228782258184306
 40
0.7887115326892872
 40
1.0
 40
1.0
 40
1.0
 40
1.0
 10
205.3397656632443
 20
158.3300737900491
 30
0.0
 10
205.4436032553152
 20
158.3439929207352
 30
0.0
 10
205.6516188481173
 20
158.3718768129096
 30
0.0
 10
205.8849087199199
 20
158.4448503025984
 30
0.0
 10
206.0273912340244
 20
158.5486320644153
 30
0.0
 10
206.0437284922002
 20
158.6458546370504
 30
0.0
 10
206.0509632788455
 20
158.6889086527581
 30
0.0
  0
SPLINE
  5
238
330
1F
100
AcDbEntity
  8
0
  6
Continuous
 62
     7
370
    25
100
AcDbSpline
210
0.0
220
0.0
230
1.0
 70
     8
 71
     3
 72
    11
 73
     7
 74
     0
 42
0.000000001
 43
0.00000001
 40
0.0
 40
0.0
 40
0.0
 40
0.0
 40
0.2587629387662013
 40
0.51851793197512
 40
0.7829285995185001
 40
1.0
 40
1.0
 40
1.0
 40
1.0
 10
206.0509632788455
 20
187.2266179187054
 30
0.0
 10
206.0401524762714
 20
187.2786351652371
 30
0.0
 10
206.0184894242886
 20
187.3828690838469
 30
0.0
 10
205.8504465040935
 20
187.4842460258939
 30
0.0
 10
205.6187321492572
 20
187.5475604369021
 30
0.0
 10
205.4264528654934
 20
187.5726560213043
 30
0.0
 10
205.3397656632443
 20
187.5839701158757
 30
0.0
  0
ARC
  5
239
330
1F
100
AcDbEntity
  8
0
  6
Continuous
 62
     7
370
    25
100
AcDbCircle
 10
206.7157255742
 20
187.6582864541
 30
0.0
 40
1.377965382277083
100
AcDbArc
 50
153.3485177859
 51
183.0915721623
  0
LINE
  5
23A
330
1F
100
AcDbEntity
  8
0
  6
Continuous
 62
     7
370
    25
100
AcDbLine
 10
205.0509632313
 20
158.3137123151
 30
0.0
 11
205.3397656632
 21
158.33007379
 31
0.0
  0
LINE
  5
23B
330
1F
100
AcDbEntity
  8
0
  6
Continuous
 62
     7
370
    25
100
AcDbLine
 10
205.0509632313
 20
158.3137123151
 30
0.0
 11
205.0509632313
 21
159.0612104399
 31
0.0
  0
LINE
  5
23C
330
1F
100
AcDbEntity
  8
0
  6
Continuous
 62
     7
370
    25
100
AcDbLine
 10
205.0509632313
 20
186.8520623309
 30
0.0
 11
205.0509632313
 21
187.6002719862
 31
0.0
  0
LINE
  5
23D
330
1F
100
AcDbEntity
  8
0
  6
Continuous
 62
     7
370
    25
100
AcDbLine
 10
205.3397656632
 20
187.5839701159
 30
0.0
 11
205.0509632313
 21
187.6002719862
 31
0.0
  0
LINE
  5
23E
330
1F
100
AcDbEntity
  8
0
  6
Continuous
 62
     7
370
    25
100
AcDbLine
 10
205.4841668792
 20
157.6373188061
 30
0.0
 11
205.0509632313
 21
157.6094648106
 31
0.0
  0
LINE
  5
23F
330
1F
100
AcDbEntity
  8
0
  6
Continuous
 62
     7
370
    25
100
AcDbLine
 10
205.0509632313
 20
157.6094648106
 30
0.0
 11
205.0509632313
 21
158.3137123151
 31
0.0
  0
LINE
  5
240
330
1F
100
AcDbEntity
  8
0
  6
Continuous
 62
     7
370
    25
100
AcDbLine
 10
205.0509632313
 20
187.6002719862
 30
0.0
 11
205.0509632313
 21
188.304150687
 31
0.0
  0
LINE
  5
241
330
1F
100
AcDbEntity
  8
0
  6
Continuous
 62
     7
370
    25
100
AcDbLine
 10
205.0509632313
 20
188.304150687
 30
0.0
 11
205.4841668792
 21
188.2763898237
 31
0.0
  0
SPLINE
  5
242
330
1F
100
AcDbEntity
  8
0
  6
Continuous
 62
     7
370
    25
100
AcDbSpline
210
0.0
220
0.0
230
1.0
 70
     8
 71
     3
 72
    12
 73
     8
 74
     0
 42
0.000000001
 43
0.00000001
 40
0.0
 40
0.0
 40
0.0
 40
0.0
 40
0.2138763707242534
 40
0.4276003815273938
 40
0.6415003993731091
 40
0.8560404152765116
 40
1.0
 40
1.0
 40
1.0
 40
1.0
 10
184.0509636308854
 20
157.6094648105855
 30
0.0
 10
183.9389049557249
 20
157.6192160640417
 30
0.0
 10
183.7148674330672
 20
157.6387116244167
 30
0.0
 10
183.4160445794473
 20
157.7907419620014
 30
0.0
 10
183.1898274729286
 20
158.0148188698637
 30
0.0
 10
183.06851566776
 20
158.2649415381227
 30
0.0
 10
183.0559923481435
 20
158.4312573869962
 30
0.0
 10
183.0509634669726
 20
158.4980434043164
 30
0.0
  0
LWPOLYLINE
  5
243
330
1F
100
AcDbEntity
  8
0
  6
Continuous
 62
     7
370
    25
100
AcDbPolyline
 90
        9
 70
   128
 43
0.0
 10
183.050963467
 20
158.4980434043
 10
183.0605709907
 20
158.5468819601
 10
183.0890228953
 20
158.5938504202
 10
183.1352276709
 20
158.6371308429
 10
183.1974102165
 20
158.6750691993
 10
183.2731788959
 20
158.7062051756
 10
183.3596223947
 20
158.7293392284
 10
183.4534177538
 20
158.7435884638
 10
183.5509626176
 20
158.7483978135
  0
SPLINE
  5
244
330
1F
100
AcDbEntity
  8
0
  6
Continuous
 62
     7
370
    25
100
AcDbSpline
210
0.0
220
0.0
230
1.0
 70
     8
 71
     3
 72
    12
 73
     8
 74
     0
 42
0.000000001
 43
0.00000001
 40
0.0
 40
0.0
 40
0.0
 40
0.0
 40
0.1441962788808801
 40
0.3589858457737009
 40
0.5729170741004828
 40
0.7864516725036165
 40
1.0
 40
1.0
 40
1.0
 40
1.0
 10
183.5509626176064
 20
158.7483978135343
 30
0.0
 10
183.5534768106232
 20
158.7157466570516
 30
0.0
 10
183.5597360547144
 20
158.6344595176304
 30
0.0
 10
183.6203481642961
 20
158.5121441130453
 30
0.0
 10
183.7334326677653
 20
158.4024855175214
 30
0.0
 10
183.8828619000361
 20
158.3280404366168
 30
0.0
 10
183.9949285197636
 20
158.318488457931
 30
0.0
 10
184.0509636308854
 20
158.3137123150582
 30
0.0
  0
LINE
  5
245
330
1F
100
AcDbEntity
  8
0
  6
Continuous
 62
     7
370
    25
100
AcDbLine
 10
184.0509636309
 20
157.6094648106
 30
0.0
 11
184.0509636309
 21
158.3137123151
 31
0.0
  0
LINE
  5
246
330
1F
100
AcDbEntity
  8
0
  6
Continuous
 62
     7
370
    25
100
AcDbLine
 10
205.0509632313
 20
157.6094648106
 30
0.0
 11
184.0509636309
 21
157.6094648106
 31
0.0
  0
LINE
  5
247
330
1F
100
AcDbEntity
  8
0
  6
Continuous
 62
     7
370
    25
100
AcDbLine
 10
184.0509636309
 20
158.3137123151
 30
0.0
 11
205.0509632313
 21
158.3137123151
 31
0.0
  0
SPLINE
  5
248
330
1F
100
AcDbEntity
  8
0
  6
Continuous
 62
     7
370
    25
100
AcDbSpline
210
0.0
220
0.0
230
1.0
 70
     8
 71
     3
 72
    12
 73
     8
 74
     0
 42
0.000000001
 43
0.00000001
 40
0.0
 40
0.0
 40
0.0
 40
0.0
 40
0.1382774871479169
 40
0.3528131621325947
 40
0.5682385219535956
 40
0.784131943649551
 40
1.0
 40
1.0
 40
1.0
 40
1.0
 10
184.0509636308854
 20
187.6002719862218
 30
0.0
 10
184.0147976849027
 20
187.5982391286287
 30
0.0
 10
183.9225207566271
 20
187.5930523196233
 30
0.0
 10
183.7820506770323
 20
187.5415400001762
 30
0.0
 10
183.6544277132911
 20
187.4431657783816
 30
0.0
 10
183.5676475053692
 20
187.3124055089903
 30
0.0
 10
183.5565240290314
 20
187.2142485678203
 30
0.0
 10
183.5509626176064
 20
187.1651729805226
 30
0.0
  0
LWPOLYLINE
  5
249
330
1F
100
AcDbEntity
  8
0
  6
Continuous
 62
     7
370
    25
100
AcDbPolyline
 90
        9
 70
   128
 43
0.0
 10
183.5509626176
 20
187.1651729805
 10
183.4534177538
 20
187.1699711544
 10
183.3596223947
 20
187.184171961
 10
183.2731788959
 20
187.2072464092
 10
183.1974102165
 20
187.2382929785
 10
183.1352276709
 20
187.2761195762
 10
183.0890228953
 20
187.3192807896
 10
183.0605709907
 20
187.3661151392
 10
183.050963467
 20
187.414812134
  0
SPLINE
  5
24A
330
1F
100
AcDbEntity
  8
0
  6
Continuous
 62
     7
370
    25
100
AcDbSpline
210
0.0
220
0.0
230
1.0
 70
     8
 71
     3
 72
    12
 73
     8
 74
     0
 42
0.000000001
 43
0.00000001
 40
0.0
 40
0.0
 40
0.0
 40
0.0
 40
0.2155294811845318
 40
0.4312396855655502
 40
0.6467167893076083
 40
0.8615033194340218
 40
1.0
 40
1.0
 40
1.0
 40
1.0
 10
183.0509634669726
 20
187.4148121340032
 30
0.0
 10
183.0620922834462
 20
187.515186615953
 30
0.0
 10
183.0843592479952
 20
187.7160197446597
 30
0.0
 10
183.2580154924185
 20
187.9832921009895
 30
0.0
 10
183.5132808838589
 20
188.1842493412457
 30
0.0
 10
183.7941373845435
 20
188.2894040656162
 30
0.0
 10
183.978635373401
 20
188.2999976946483
 30
0.0
 10
184.0509636308854
 20
188.304150686955
 30
0.0
  0
LINE
  5
24B
330
1F
100
AcDbEntity
  8
0
  6
Continuous
 62
     7
370
    25
100
AcDbLine
 10
184.0509636309
 20
187.6002719862
 30
0.0
 11
184.0509636309
 21
188.304150687
 31
0.0
  0
LINE
  5
24C
330
1F
100
AcDbEntity
  8
0
  6
Continuous
 62
     7
370
    25
100
AcDbLine
 10
205.0509632313
 20
187.6002719862
 30
0.0
 11
184.0509636309
 21
187.6002719862
 31
0.0
  0
LINE
  5
24D
330
1F
100
AcDbEntity
  8
0
  6
Continuous
 62
     7
370
    25
100
AcDbLine
 10
184.0509636309
 20
188.304150687
 30
0.0
 11
205.0509632313
 21
188.304150687
 31
0.0
  0
LINE
  5
24E
330
1F
100
AcDbEntity
  8
0
  6
Continuous
 62
     7
370
    25
100
AcDbLine
 10
183.5509626176
 20
159.0612104399
 30
0.0
 11
183.5509626176
 21
158.7483978135
 31
0.0
  0
LINE
  5
24F
330
1F
100
AcDbEntity
  8
0
  6
Continuous
 62
     7
370
    25
100
AcDbLine
 10
183.5509626176
 20
187.1651729805
 30
0.0
 11
183.5509626176
 21
186.8520623309
 31
0.0
  0
LINE
  5
250
330
1F
100
AcDbEntity
  8
0
  6
Continuous
 62
     7
370
    25
100
AcDbLine
 10
183.050963467
 20
157.0509916408
 30
0.0
 11
183.050963467
 21
158.4980434043
 31
0.0
  0
LINE
  5
251
330
1F
100
AcDbEntity
  8
0
  6
Continuous
 62
     7
370
    25
100
AcDbLine
 10
183.050963467
 20
187.414812134
 30
0.0
 11
183.050963467
 21
188.8509935004
 31
0.0
  0
LINE
  5
252
330
1F
100
AcDbEntity
  8
0
  6
Continuous
 62
     7
370
    25
100
AcDbLine
 10
183.050963467
 20
158.4980434043
 30
0.0
 11
183.050963467
 21
158.8458774848
 31
0.0
  0
LINE
  5
253
330
1F
100
AcDbEntity
  8
0
  6
Continuous
 62
     7
370
    25
100
AcDbLine
 10
183.050963467
 20
187.0666465027
 30
0.0
 11
183.050963467
 21
187.414812134
 31
0.0
  0
LINE
  5
254
330
1F
100
AcDbEntity
  8
0
  6
Continuous
 62
     8
370
    25
100
AcDbLine
 10
257.0810275134
 20
183.0453446371
 30
0.0
 11
257.0810275134
 21
153.2009935243
 31
0.0
  0
LINE
  5
255
330
1F
100
AcDbEntity
  8
0
  6
Continuous
 62
     8
370
    25
100
AcDbLine
 10
257.0810275134
 20
192.7009916169
 30
0.0
 11
257.0810275134
 21
183.0453446371
 31
0.0
  0
LINE
  5
256
330
1F
100
AcDbEntity
  8
0
  6
Continuous
 62
     8
370
    25
100
AcDbLine
 10
260.0138740595
 20
182.7161779864
 30
0.0
 11
260.0138740595
 21
153.8450179858
 31
0.0
  0
LINE
  5
257
330
1F
100
AcDbEntity
  8
0
  6
Continuous
 62
     8
370
    25
100
AcDbLine
 10
260.0138740595
 20
192.0569708807
 30
0.0
 11
260.0138740595
 21
182.7161779864
 31
0.0
  0
LINE
  5
258
330
1F
100
AcDbEntity
  8
0
  6
Continuous
 62
     8
370
    25
100
AcDbLine
 10
292.6982039567
 20
178.8405088944
 30
0.0
 11
292.6982039567
 21
161.4279283447
 31
0.0
  0
LINE
  5
259
330
1F
100
AcDbEntity
  8
0
  6
Continuous
 62
     8
370
    25
100
AcDbLine
 10
292.6982039567
 20
184.4740605218
 30
0.0
 11
292.6982039567
 21
178.8405088944
 31
0.0
  0
LINE
  5
25A
330
1F
100
AcDbEntity
  8
0
  6
Continuous
 62
     8
370
    25
100
AcDbLine
 10
240.6509624775
 20
193.9509904248
 30
0.0
 11
240.6509624775
 21
151.9509947164
 31
0.0
  0
LINE
  5
25B
330
1F
100
AcDbEntity
  8
0
  6
Continuous
 62
     8
370
    25
100
AcDbLine
 10
242.1509617921
 20
193.9507818086
 30
0.0
 11
242.1509617921
 21
193.9509904248
 31
0.0
  0
LINE
  5
25C
330
1F
100
AcDbEntity
  8
0
  6
Continuous
 62
     8
370
    25
100
AcDbLine
 10
242.1509617921
 20
151.9509947164
 30
0.0
 11
242.1509617921
 21
193.9507818086
 31
0.0
  0
SPLINE
  5
25D
330
1F
100
AcDbEntity
  8
0
  6
Continuous
 62
     8
370
    25
100
AcDbSpline
210
0.0
220
0.0
230
1.0
 70
     8
 71
     3
 72
     9
 73
     5
 74
     0
 42
0.000000001
 43
0.00000001
 40
0.0
 40
0.0
 40
0.0
 40
0.0
 40
0.6157563077581599
 40
1.0
 40
1.0
 40
1.0
 40
1.0
 10
231.550963034839
 20
174.2531156403774
 30
0.0
 10
231.7193466263265
 20
174.2580347367794
 30
0.0
 10
231.9928047937315
 20
174.2660234432529
 30
0.0
 10
232.2823480437887
 20
174.266325095718
 30
0.0
 10
232.3936032112544
 20
174.266441003775
 30
0.0
  0
SPLINE
  5
25E
330
1F
100
AcDbEntity
  8
0
  6
Continuous
 62
     8
370
    25
100
AcDbSpline
210
0.0
220
0.0
230
1.0
 70
     8
 71
     3
 72
     9
 73
     5
 74
     0
 42
0.000000001
 43
0.00000001
 40
0.0
 40
0.0
 40
0.0
 40
0.0
 40
0.3842435375302097
 40
1.0
 40
1.0
 40
1.0
 40
1.0
 10
232.3936032112544
 20
174.7781953079456
 30
0.0
 10
232.2823480307478
 20
174.7780743482564
 30
0.0
 10
231.9928046301701
 20
174.7777595487155
 30
0.0
 10
231.7193465901782
 20
174.7693809316442
 30
0.0
 10
231.550963034839
 20
174.7642217440361
 30
0.0
  0
SPLINE
  5
25F
330
1F
100
AcDbEntity
  8
0
  6
Continuous
 62
     8
370
    25
100
AcDbSpline
210
0.0
220
0.0
230
1.0
 70
     8
 71
     3
 72
     9
 73
     5
 74
     0
 42
0.000000001
 43
0.00000001
 40
0.0
 40
0.0
 40
0.0
 40
0.0
 40
0.3194109411293239
 40
1.0
 40
1.0
 40
1.0
 40
1.0
 10
232.3936032112544
 20
173.73353822658
 30
0.0
 10
232.3010016508851
 20
173.7333844066401
 30
0.0
 10
232.0110880992643
 20
173.7329028328425
 30
0.0
 10
231.7373001306966
 20
173.7245295471267
 30
0.0
 10
231.550963034839
 20
173.7188307804817
 30
0.0
  0
LINE
  5
260
330
1F
100
AcDbEntity
  8
0
  6
Continuous
 62
     8
370
    25
100
AcDbLine
 10
232.3936032113
 20
174.7781953079
 30
0.0
 11
232.3936032113
 21
175.2301102741
 31
0.0
  0
SPLINE
  5
261
330
1F
100
AcDbEntity
  8
0
  6
Continuous
 62
     8
370
    25
100
AcDbSpline
210
0.0
220
0.0
230
1.0
 70
     8
 71
     3
 72
     9
 73
     5
 74
     0
 42
0.000000001
 43
0.00000001
 40
0.0
 40
0.0
 40
0.0
 40
0.0
 40
0.4388397135285613
 40
0.9999999999999999
 40
0.9999999999999999
 40
0.9999999999999999
 40
0.9999999999999999
 10
239.6509641762679
 20
175.1898510617966
 30
0.0
 10
239.6500772231909
 20
175.2005532748421
 30
0.0
 10
239.648056090988
 20
175.2249407965626
 30
0.0
 10
239.6257869006878
 20
175.2271878419472
 30
0.0
 10
239.6132903154796
 20
175.2284487945789
 30
0.0
  0
ARC
  5
262
330
1F
100
AcDbEntity
  8
0
  6
Continuous
 62
     8
370
    25
100
AcDbCircle
 10
239.5979988058
 20
175.7121318557
 30
0.0
 40
0.4860934365942163
100
AcDbArc
 50
289.6253961977
 51
359.688376946
  0
LINE
  5
263
330
1F
100
AcDbEntity
  8
0
  6
Continuous
 62
     8
370
    25
100
AcDbLine
 10
231.5509630348
 20
173.6058054728
 30
0.0
 11
237.6509638484
 21
173.6058054728
 31
0.0
  0
LINE
  5
264
330
1F
100
AcDbEntity
  8
0
  6
Continuous
 62
     8
370
    25
100
AcDbLine
 10
237.6509638484
 20
175.2301102741
 30
0.0
 11
237.6509638484
 21
175.5210740728
 31
0.0
  0
LINE
  5
265
330
1F
100
AcDbEntity
  8
0
  6
Continuous
 62
     8
370
    25
100
AcDbLine
 10
237.6509638484
 20
173.1029173596
 30
0.0
 11
231.5509630348
 21
173.1029173596
 31
0.0
  0
LINE
  5
266
330
1F
100
AcDbEntity
  8
0
  6
Continuous
 62
     8
370
    25
100
AcDbLine
 10
231.5509630348
 20
175.5210740728
 30
0.0
 11
237.6509638484
 21
175.5210740728
 31
0.0
  0
LINE
  5
267
330
1F
100
AcDbEntity
  8
0
  6
Continuous
 62
     8
370
    25
100
AcDbLine
 10
231.5509630348
 20
160.1210220022
 30
0.0
 11
237.6509638484
 21
160.1210220022
 31
0.0
  0
LINE
  5
268
330
1F
100
AcDbEntity
  8
0
  6
Continuous
 62
     8
370
    25
100
AcDbLine
 10
237.6509638484
 20
187.3157715661
 30
0.0
 11
231.5509630348
 21
187.3157715661
 31
0.0
  0
SPLINE
  5
269
330
1F
100
AcDbEntity
  8
0
  6
Continuous
 62
     8
370
    25
100
AcDbSpline
210
0.0
220
0.0
230
1.0
 70
     8
 71
     3
 72
     9
 73
     5
 74
     0
 42
0.000000001
 43
0.00000001
 40
0.0
 40
0.0
 40
0.0
 40
0.0
 40
0.6805891112664413
 40
1.0
 40
1.0
 40
1.0
 40
1.0
 10
231.550963034839
 20
158.3244150740857
 30
0.0
 10
231.7373001144173
 20
158.2677910220386
 30
0.0
 10
232.0110880379879
 20
158.184592435535
 30
0.0
 10
232.3010016475638
 20
158.1798218042785
 30
0.0
 10
232.3936032112544
 20
158.1782980127091
 30
0.0
  0
LINE
  5
26A
330
1F
100
AcDbEntity
  8
0
  6
Continuous
 62
     8
370
    25
100
AcDbLine
 10
237.6509638484
 20
159.4472771747
 30
0.0
 11
231.5509630348
 21
159.4472771747
 31
0.0
  0
SPLINE
  5
26B
330
1F
100
AcDbEntity
  8
0
  6
Continuous
 62
     8
370
    25
100
AcDbSpline
210
0.0
220
0.0
230
1.0
 70
     8
 71
     3
 72
     9
 73
     5
 74
     0
 42
0.000000001
 43
0.00000001
 40
0.0
 40
0.0
 40
0.0
 40
0.0
 40
0.3842435175294566
 40
1.0
 40
1.0
 40
1.0
 40
1.0
 10
232.3936032112544
 20
157.486377493834
 30
0.0
 10
232.282348029062
 20
157.4875542052559
 30
0.0
 10
231.9928046090252
 20
157.490616615858
 30
0.0
 10
231.7193465855051
 20
157.5718062210546
 30
0.0
 10
231.550963034839
 20
157.6217992467637
 30
0.0
  0
SPLINE
  5
26C
330
1F
100
AcDbEntity
  8
0
  6
Continuous
 62
     8
370
    25
100
AcDbSpline
210
0.0
220
0.0
230
1.0
 70
     8
 71
     3
 72
     9
 73
     5
 74
     0
 42
0.000000001
 43
0.00000001
 40
0.0
 40
0.0
 40
0.0
 40
0.0
 40
0.6157565571030229
 40
0.9999999999999999
 40
0.9999999999999999
 40
0.9999999999999999
 40
0.9999999999999999
 10
231.550963034839
 20
157.3295129699463
 30
0.0
 10
231.7193465680672
 20
157.2793821403846
 30
0.0
 10
231.9928045301235
 20
157.1979687490314
 30
0.0
 10
232.2823480227711
 20
157.1948984357376
 30
0.0
 10
232.3936032112544
 20
157.1937186879868
 30
0.0
  0
LINE
  5
26D
330
1F
100
AcDbEntity
  8
0
  6
Continuous
 62
     8
370
    25
100
AcDbLine
 10
239.6509641763
 20
157.1083834631
 30
0.0
 11
239.6509641763
 21
157.193718688
 31
0.0
  0
LINE
  5
26E
330
1F
100
AcDbEntity
  8
0
  6
Continuous
 62
     8
370
    25
100
AcDbLine
 10
232.3936032113
 20
157.1083871884
 30
0.0
 11
232.3936032113
 21
157.193718688
 31
0.0
  0
LINE
  5
26F
330
1F
100
AcDbEntity
  8
0
  6
Continuous
 62
     8
370
    25
100
AcDbLine
 10
237.6509638484
 20
156.45099266
 30
0.0
 11
237.6509638484
 21
157.1083834631
 31
0.0
  0
SPLINE
  5
270
330
1F
100
AcDbEntity
  8
0
  6
Continuous
 62
     8
370
    25
100
AcDbSpline
210
0.0
220
0.0
230
1.0
 70
     8
 71
     3
 72
     9
 73
     5
 74
     0
 42
0.000000001
 43
0.00000001
 40
0.0
 40
0.0
 40
0.0
 40
0.0
 40
0.3194101969014234
 40
1.0
 40
1.0
 40
1.0
 40
1.0
 10
232.3936032112544
 20
189.3611049515957
 30
0.0
 10
232.3010016037101
 20
189.3594289481404
 30
0.0
 10
232.0110872288949
 20
189.3541817660793
 30
0.0
 10
231.7372998994659
 20
189.2626037694944
 30
0.0
 10
231.550963034839
 20
189.2002767188306
 30
0.0
  0
SPLINE
  5
271
330
1F
100
AcDbEntity
  8
0
  6
Continuous
 62
     8
370
    25
100
AcDbSpline
210
0.0
220
0.0
230
1.0
 70
     8
 71
     3
 72
     9
 73
     5
 74
     0
 42
0.000000001
 43
0.00000001
 40
0.0
 40
0.0
 40
0.0
 40
0.0
 40
0.6157556639421715
 40
0.9999999999999999
 40
0.9999999999999999
 40
0.9999999999999999
 40
0.9999999999999999
 10
231.550963034839
 20
189.8745989663358
 30
0.0
 10
231.7193467767534
 20
189.9296450261554
 30
0.0
 10
231.9928054743745
 20
190.0190409717278
 30
0.0
 10
232.2823480980571
 20
190.0224174816062
 30
0.0
 10
232.3936032112544
 20
190.0237148864026
 30
0.0
  0
LINE
  5
272
330
1F
100
AcDbEntity
  8
0
  6
Continuous
 62
     8
370
    25
100
AcDbLine
 10
231.5509630348
 20
187.9643967612
 30
0.0
 11
237.6509638484
 21
187.9643967612
 31
0.0
  0
SPLINE
  5
273
330
1F
100
AcDbEntity
  8
0
  6
Continuous
 62
     8
370
    25
100
AcDbSpline
210
0.0
220
0.0
230
1.0
 70
     8
 71
     3
 72
     9
 73
     5
 74
     0
 42
0.000000001
 43
0.00000001
 40
0.0
 40
0.0
 40
0.0
 40
0.0
 40
0.3842436408382858
 40
1.0
 40
1.0
 40
1.0
 40
1.0
 10
232.3936032112544
 20
190.2428141100163
 30
0.0
 10
232.2823480394558
 20
190.241514962636
 30
0.0
 10
231.9928047393876
 20
190.2381339115469
 30
0.0
 10
231.7193466143162
 20
190.1485666677979
 30
0.0
 10
231.550963034839
 20
190.0934150678868
 30
0.0
  0
LINE
  5
274
330
1F
100
AcDbEntity
  8
0
  6
Continuous
 62
     8
370
    25
100
AcDbLine
 10
239.6509641763
 20
190.24281411
 30
0.0
 11
239.6509641763
 21
190.2877634628
 31
0.0
  0
LINE
  5
275
330
1F
100
AcDbEntity
  8
0
  6
Continuous
 62
     8
370
    25
100
AcDbLine
 10
232.3936032113
 20
190.24281411
 30
0.0
 11
232.3936032113
 21
190.2877485616
 31
0.0
  0
LINE
  5
276
330
1F
100
AcDbEntity
  8
0
  6
Continuous
 62
     8
370
    25
100
AcDbLine
 10
232.3936032113
 20
155.9008939428
 30
0.0
 11
239.215537345
 21
155.9008939428
 31
0.0
  0
SPLINE
  5
277
330
1F
100
AcDbEntity
  8
0
  6
Continuous
 62
     8
370
    25
100
AcDbSpline
210
0.0
220
0.0
230
1.0
 70
     8
 71
     3
 72
     9
 73
     5
 74
     0
 42
0.000000001
 43
0.00000001
 40
0.0
 40
0.0
 40
0.0
 40
0.0
 40
0.6805889711435711
 40
1.0
 40
1.0
 40
1.0
 40
1.0
 10
231.550963034839
 20
156.0617184502837
 30
0.0
 10
231.7373001579532
 20
155.9993956321595
 30
0.0
 10
232.0110882018604
 20
155.9078237425659
 30
0.0
 10
232.3010016564459
 20
155.9025715507883
 30
0.0
 10
232.3936032112544
 20
155.9008939428088
 30
0.0
  0
LINE
  5
278
330
1F
100
AcDbEntity
  8
0
  6
Continuous
 62
     8
370
    25
100
AcDbLine
 10
232.3936032113
 20
155.6142216785
 30
0.0
 11
232.3936032113
 21
155.9008939428
 31
0.0
  0
LINE
  5
279
330
1F
100
AcDbEntity
  8
0
  6
Continuous
 62
     8
370
    25
100
AcDbLine
 10
210.9357643854
 20
192.4600770933
 30
0.0
 11
210.9357643854
 21
153.4419005973
 31
0.0
  0
LINE
  5
27A
330
1F
100
AcDbEntity
  8
0
  6
Continuous
 62
     8
370
    25
100
AcDbLine
 10
214.0509629603
 20
170.8552001281
 30
0.0
 11
214.0509629603
 21
151.9509947164
 31
0.0
  0
LINE
  5
27B
330
1F
100
AcDbEntity
  8
0
  6
Continuous
 62
     8
370
    25
100
AcDbLine
 10
214.0509629603
 20
193.9509904248
 30
0.0
 11
214.0509629603
 21
175.0811210139
 31
0.0
  0
LINE
  5
27C
330
1F
100
AcDbEntity
  8
0
  6
Continuous
 62
     8
370
    25
100
AcDbLine
 10
231.0509638842
 20
151.9509984417
 30
0.0
 11
231.0509638842
 21
193.9509904248
 31
0.0
  0
LINE
  5
27D
330
1F
100
AcDbEntity
  8
0
  6
Continuous
 62
     8
370
    25
100
AcDbLine
 10
205.4841668792
 20
189.850995527
 30
0.0
 11
205.4841668792
 21
188.2763898237
 31
0.0
  0
LINE
  5
27E
330
1F
100
AcDbEntity
  8
0
  6
Continuous
 62
     8
370
    25
100
AcDbLine
 10
205.4841668792
 20
157.6373188061
 30
0.0
 11
205.4841668792
 21
156.0509933395
 31
0.0
  0
LWPOLYLINE
  5
27F
330
1F
100
AcDbEntity
  8
0
  6
Continuous
 62
     8
370
    25
100
AcDbPolyline
 90
        5
 70
   128
 43
0.0
 10
205.4841668792
 20
159.1192914409
 10
205.4544065827
 20
159.0715443952
 10
205.425914864
 20
159.0432806177
 10
205.3999066334
 20
159.0356996519
 10
205.3964869333
 20
159.036329226
  0
LINE
  5
280
330
1F
100
AcDbEntity
  8
0
  6
Continuous
 62
     8
370
    25
100
AcDbLine
 10
205.0509632313
 20
159.1573937101
 30
0.0
 11
205.0509632313
 21
159.0654907984
 31
0.0
  0
LINE
  5
281
330
1F
100
AcDbEntity
  8
0
  6
Continuous
 62
     8
370
    25
100
AcDbLine
 10
184.0509636309
 20
159.1573937101
 30
0.0
 11
184.0509636309
 21
159.0655019743
 31
0.0
  0
LWPOLYLINE
  5
282
330
1F
100
AcDbEntity
  8
0
  6
Continuous
 62
     8
370
    25
100
AcDbPolyline
 90
        5
 70
   128
 43
0.0
 10
205.3965323353
 20
186.8811195953
 10
205.3999066334
 20
186.8817603452
 10
205.425914864
 20
186.8743470175
 10
205.4544065827
 20
186.8462359769
 10
205.4841668792
 20
186.7986342175
  0
LINE
  5
283
330
1F
100
AcDbEntity
  8
0
  6
Continuous
 62
     8
370
    25
100
AcDbLine
 10
205.0509632313
 20
186.7606213553
 30
0.0
 11
205.0509632313
 21
186.8520325286
 31
0.0
  0
LINE
  5
284
330
1F
100
AcDbEntity
  8
0
  6
Continuous
 62
     8
370
    25
100
AcDbLine
 10
184.0509636309
 20
186.8520474298
 30
0.0
 11
184.0509636309
 21
186.7606213553
 31
0.0
  0
LINE
  5
285
330
1F
100
AcDbEntity
  8
0
  6
Continuous
 62
     8
370
    25
100
AcDbLine
 10
184.0509636309
 20
157.6094648106
 30
0.0
 11
184.0509636309
 21
156.0509933395
 31
0.0
  0
LINE
  5
286
330
1F
100
AcDbEntity
  8
0
  6
Continuous
 62
     8
370
    25
100
AcDbLine
 10
184.0509636309
 20
189.850995527
 30
0.0
 11
184.0509636309
 21
188.304150687
 31
0.0
  0
DIMENSION
  5
287
330
1F
100
AcDbEntity
  8
FORMAT
100
AcDbDimension
  2
_D
 10
294.6509632761
 20
133.4155800705
 30
0.0
 11
238.8509632761
 21
133.4155800705
 31
0.0
 70
   160
  1
約112mm
 71
     2
 42
-1.0
  3
SLDDIMSTYLE0
100
AcDbAlignedDimension
 13
183.0509632761
 23
157.0509928686
 33
0.0
 14
294.6509632761
 24
163.4273685824
 34
0.0
 50
0.0
100
AcDbRotatedDimension
  0
DIMENSION
  5
298
330
1F
100
AcDbEntity
  8
FORMAT
100
AcDbDimension
  2
_D_1
 10
351.2009632761
 20
133.4155800705
 30
0.0
 11
322.9259632761
 21
133.4155800705
 31
0.0
 70
   160
  1
指定長±5％\P(2m未満は±10cm)
 71
     2
 42
-1.0
  3
SLDDIMSTYLE0
100
AcDbAlignedDimension
 13
294.6509632761
 23
163.4273685824
 33
0.0
 14
351.2009632761
 24
165.7009928686
 34
0.0
100
AcDbRotatedDimension
  0
INSERT
  5
2A8
330
1F
100
AcDbEntity
  8
FORMAT
100
AcDbBlockReference
  2
SW_NOTE_5
 10
208.3301462317
 20
204.9488190914
 30
0.0
  0
LEADER
  5
2B2
330
1F
100
AcDbEntity
  8
FORMAT
100
AcDbLeader
  3
SLDDIMSTYLE1
 76
     2
 10
197.9805654764
 20
172.9437815239
 30
0.0
 10
208.3301462317
 20
204.9488190914
 30
0.0
  0
CIRCLE
  5
2B3
330
1F
100
AcDbEntity
  8
0
  6
Continuous
 62
     7
370
    25
100
AcDbCircle
 10
100.902729261
 20
172.9509928686
 30
0.0
 40
1.055231621787684
  0
CIRCLE
  5
2B4
330
1F
100
AcDbEntity
  8
0
  6
Continuous
 62
     7
370
    25
100
AcDbCircle
 10
100.902729261
 20
172.9509928686
 30
0.0
 40
1.475871936964616
  0
CIRCLE
  5
2B5
330
1F
100
AcDbEntity
  8
0
  6
Continuous
 62
     7
370
    25
100
AcDbCircle
 10
100.902729261
 20
172.9509928686
 30
0.0
 40
1.49999999999999
  0
CIRCLE
  5
2B6
330
1F
100
AcDbEntity
  8
0
  6
Continuous
 62
     7
370
    25
100
AcDbCircle
 10
90.0486272948
 20
176.4777043824
 30
0.0
 40
1.055231621787703
  0
CIRCLE
  5
2B7
330
1F
100
AcDbEntity
  8
0
  6
Continuous
 62
     7
370
    25
100
AcDbCircle
 10
90.0486272948
 20
176.4777043824
 30
0.0
 40
1.475871936964622
  0
CIRCLE
  5
2B8
330
1F
100
AcDbEntity
  8
0
  6
Continuous
 62
     7
370
    25
100
AcDbCircle
 10
90.0486272948
 20
176.4777043824
 30
0.0
 40
1.500000000000011
  0
CIRCLE
  5
2B9
330
1F
100
AcDbEntity
  8
0
  6
Continuous
 62
     7
370
    25
100
AcDbCircle
 10
96.7568312273
 20
167.2446537709
 30
0.0
 40
1.05523162178769
  0
CIRCLE
  5
2BA
330
1F
100
AcDbEntity
  8
0
  6
Continuous
 62
     7
370
    25
100
AcDbCircle
 10
96.7568312273
 20
167.2446537709
 30
0.0
 40
1.475871936964612
  0
CIRCLE
  5
2BB
330
1F
100
AcDbEntity
  8
0
  6
Continuous
 62
     7
370
    25
100
AcDbCircle
 10
96.7568312273
 20
167.2446537709
 30
0.0
 40
1.49999999999999
  0
ARC
  5
2BC
330
1F
100
AcDbEntity
  8
0
  6
Continuous
 62
     7
370
    25
100
AcDbCircle
 10
94.902729261
 20
172.9509928686
 30
0.0
 40
7.249999999999983
100
AcDbArc
 50
63.3153907665
 51
80.6846092335
  0
LWPOLYLINE
  5
2BD
330
1F
100
AcDbEntity
  8
0
  6
Continuous
 62
     7
370
    25
100
AcDbPolyline
 90
        3
 70
   128
 43
0.0
 10
100.208436336
 20
177.8918413682
 10
100.7394871782
 20
177.2515459223
 10
101.2413079958
 20
176.4702147109
  0
ARC
  5
2BE
330
1F
100
AcDbEntity
  8
0
  6
Continuous
 62
     7
370
    25
100
AcDbCircle
 10
94.902729261
 20
172.9509928686
 30
0.0
 40
7.250000000000017
100
AcDbArc
 50
317.0393301347
 51
330.9606698653
  0
ARC
  5
2BF
330
1F
100
AcDbEntity
  8
0
  6
Continuous
 62
     7
370
    25
100
AcDbCircle
 10
94.902729261
 20
172.9509928686
 30
0.0
 40
7.250000000000028
100
AcDbArc
 50
245.0393301347
 51
258.9606698653
  0
ARC
  5
2C0
330
1F
100
AcDbEntity
  8
0
  6
Continuous
 62
     7
370
    25
100
AcDbCircle
 10
94.902729261
 20
172.9509928686
 30
0.0
 40
7.250000000000017
100
AcDbArc
 50
207.3153907665
 51
224.6846092335
  0
ARC
  5
2C1
330
1F
100
AcDbEntity
  8
0
  6
Continuous
 62
     7
370
    25
100
AcDbCircle
 10
94.902729261
 20
172.9509928686
 30
0.0
 40
7.250000000000013
100
AcDbArc
 50
173.0393301347
 51
186.9606698653
  0
ARC
  5
2C2
330
1F
100
AcDbEntity
  8
0
  6
Continuous
 62
     7
370
    25
100
AcDbCircle
 10
94.902729261
 20
172.9509928686
 30
0.0
 40
7.250000000000011
100
AcDbArc
 50
101.0393301347
 51
114.9606698653
  0
LINE
  5
2C3
330
1F
100
AcDbEntity
  8
0
  6
Continuous
 62
     7
370
    25
100
AcDbLine
 10
115.7944153171
 20
175.0811210139
 30
0.0
 11
115.8673620891
 21
174.1692444546
 31
0.0
  0
SPLINE
  5
2C4
330
1F
100
AcDbEntity
  8
0
  6
Continuous
 62
     7
370
    25
100
AcDbSpline
210
0.0
220
0.0
230
1.0
 70
     8
 71
     3
 72
    12
 73
     8
 74
     0
 42
0.000000001
 43
0.00000001
 40
0.0
 40
0.0
 40
0.0
 40
0.0
 40
0.2181461240279355
 40
0.437028870122644
 40
0.6549045805960377
 40
0.8699165594354819
 40
0.9999999999999999
 40
0.9999999999999999
 40
0.9999999999999999
 40
0.9999999999999999
 10
79.29078276414934
 20
169.9381640417335
 30
0.0
 10
79.17679659097115
 20
169.9273875804877
 30
0.0
 10
78.9484393432976
 20
169.9057982687217
 30
0.0
 10
78.64511156122677
 20
169.8778900353571
 30
0.0
 10
78.41933434946547
 20
169.8574242296318
 30
0.0
 10
78.30560316867454
 20
169.8472355032297
 30
0.0
 10
78.29458889947163
 20
169.8462492082634
 30
0.0
 10
78.2904370795614
 20
169.8458774251697
 30
0.0
  0
ARC
  5
2C5
330
1F
100
AcDbEntity
  8
0
  6
Continuous
 62
     7
370
    25
100
AcDbCircle
 10
94.902729261
 20
172.9509928686
 30
0.0
 40
15.9
100
AcDbArc
 50
190.9227937567
 51
234.6337649881
  0
SPLINE
  5
2C6
330
1F
100
AcDbEntity
  8
0
  6
Continuous
 62
     7
370
    25
100
AcDbSpline
210
0.0
220
0.0
230
1.0
 70
     8
 71
     3
 72
    12
 73
     8
 74
     0
 42
0.000000001
 43
0.00000001
 40
0.0
 40
0.0
 40
0.0
 40
0.0
 40
0.2138767998137515
 40
0.4276013064175146
 40
0.641500558054941
 40
0.8560420044486489
 40
1.0
 40
1.0
 40
1.0
 40
1.0
 10
85.16084841598324
 20
159.1413675112483
 30
0.0
 10
85.16675389095643
 20
159.1506420422651
 30
0.0
 10
85.17856063584765
 20
159.169184500272
 30
0.0
 10
85.27065838060663
 20
159.3137287079006
 30
0.0
 10
85.40649126810654
 20
159.5266104348868
 30
0.0
 10
85.55823177627592
 20
159.7640330970958
 30
0.0
 10
85.65923836000961
 20
159.9217155121443
 30
0.0
 10
85.69979827065521
 20
159.985034005141
 30
0.0
  0
ARC
  5
2C7
330
1F
100
AcDbEntity
  8
0
  6
Continuous
 62
     7
370
    25
100
AcDbCircle
 10
94.902729261
 20
172.9509928686
 30
0.0
 40
16.90000000000004
100
AcDbArc
 50
190.5873632272
 51
234.7992754092
  0
ARC
  5
2C8
330
1F
100
AcDbEntity
  8
0
  6
Continuous
 62
     7
370
    25
100
AcDbCircle
 10
78.7819245614
 20
169.9377461418
 30
0.0
 40
0.4999999999999874
100
AcDbArc
 50
90.047077262
 51
190.5873632272
  0
SPLINE
  5
2C9
330
1F
100
AcDbEntity
  8
0
  6
Continuous
 62
     7
370
    25
100
AcDbSpline
210
0.0
220
0.0
230
1.0
 70
     8
 71
     3
 72
    12
 73
     8
 74
     0
 42
0.000000001
 43
0.00000001
 40
0.0
 40
0.0
 40
0.0
 40
0.0
 40
0.1292470804377569
 40
0.3432076947181182
 40
0.560851221009278
 40
0.780459201873119
 40
1.0
 40
1.0
 40
1.0
 40
1.0
 10
78.7815141599304
 20
170.437747822499
 30
0.0
 10
78.78362562690904
 20
170.4377490236529
 30
0.0
 10
78.78923249796381
 20
170.4377522132432
 30
0.0
 10
78.84720737327551
 20
170.4378017556094
 30
0.0
 10
78.96213747097097
 20
170.4378960982966
 30
0.0
 10
79.11638809369346
 20
170.4380200212721
 30
0.0
 10
79.23238331363137
 20
170.4381167153632
 30
0.0
 10
79.29037205089395
 20
170.4381650550125
 30
0.0
  0
LWPOLYLINE
  5
2CA
330
1F
100
AcDbEntity
  8
0
  6
Continuous
 62
     7
370
    25
100
AcDbPolyline
 90
        9
 70
   128
 43
0.0
 10
79.2907827641
 20
169.9381640417
 10
79.2907026704
 20
170.0357107682
 10
79.290626302
 20
170.1295061273
 10
79.2905545901
 20
170.2159477634
 10
79.2904921915
 20
170.2917164428
 10
79.2904419001
 20
170.3538989885
 10
79.2904037159
 20
170.400103764
 10
79.2903804328
 20
170.4285575313
 10
79.2903720509
 20
170.438165055
  0
SPLINE
  5
2CB
330
1F
100
AcDbEntity
  8
0
  6
Continuous
 62
     7
370
    25
100
AcDbSpline
210
0.0
220
0.0
230
1.0
 70
     8
 71
     3
 72
    12
 73
     8
 74
     0
 42
0.000000001
 43
0.00000001
 40
0.0
 40
0.0
 40
0.0
 40
0.0
 40
0.2114048551173527
 40
0.4222107918019277
 40
0.6336958723373026
 40
0.8477253127826126
 40
1.0
 40
1.0
 40
1.0
 40
1.0
 10
78.28535578359435
 20
176.028805063462
 30
0.0
 10
78.29613198178745
 20
176.0278606917367
 30
0.0
 10
78.31765384877195
 20
176.0259746237289
 30
0.0
 10
78.48534724142321
 20
176.0111790871813
 30
0.0
 10
78.73320531448051
 20
175.9890054196156
 30
0.0
 10
79.01558903485518
 20
175.963318503011
 30
0.0
 10
79.20649329748703
 20
175.9455484224209
 30
0.0
 10
79.28585327376197
 20
175.9381612999198
 30
0.0
  0
ARC
  5
2CC
330
1F
100
AcDbEntity
  8
0
  6
Continuous
 62
     7
370
    25
100
AcDbCircle
 10
94.902729261
 20
172.9509928686
 30
0.0
 40
16.90000000000003
100
AcDbArc
 50
65.2948791149
 51
169.5067912968
  0
SPLINE
  5
2CD
330
1F
100
AcDbEntity
  8
0
  6
Continuous
 62
     7
370
    25
100
AcDbSpline
210
0.0
220
0.0
230
1.0
 70
     8
 71
     3
 72
    12
 73
     8
 74
     0
 42
0.000000001
 43
0.00000001
 40
0.0
 40
0.0
 40
0.0
 40
0.0
 40
0.2155294811845318
 40
0.4312396855655502
 40
0.6467167893076083
 40
0.8615033194340218
 40
1.0
 40
1.0
 40
1.0
 40
1.0
 10
101.5063526216575
 20
187.4148121340032
 30
0.0
 10
101.5580925899937
 20
187.515186615953
 30
0.0
 10
101.6616159110442
 20
187.7160197446597
 30
0.0
 10
101.7998011298627
 20
187.9832921009895
 30
0.0
 10
101.903873938005
 20
188.1842493412457
 30
0.0
 10
101.9584062168985
 20
188.2894040656162
 30
0.0
 10
101.9639008105055
 20
188.2999976946483
 30
0.0
 10
101.9660548414715
 20
188.304150686955
 30
0.0
  0
ARC
  5
2CE
330
1F
100
AcDbEntity
  8
0
  6
Continuous
 62
     7
370
    25
100
AcDbCircle
 10
94.902729261
 20
172.9509928686
 30
0.0
 40
15.90000000000001
100
AcDbArc
 50
65.460389536
 51
169.1713607674
  0
SPLINE
  5
2CF
330
1F
100
AcDbEntity
  8
0
  6
Continuous
 62
     7
370
    25
100
AcDbSpline
210
0.0
220
0.0
230
1.0
 70
     8
 71
     3
 72
    12
 73
     8
 74
     0
 42
0.000000001
 43
0.00000001
 40
0.0
 40
0.0
 40
0.0
 40
0.0
 40
0.2155301114339128
 40
0.4312373843723962
 40
0.6467153433298343
 40
0.8615025839148956
 40
1.0
 40
1.0
 40
1.0
 40
1.0
 10
88.29910560656838
 20
158.4871692819353
 30
0.0
 10
88.24736606023885
 20
158.386794418657
 30
0.0
 10
88.14384443869223
 20
158.1859621859407
 30
0.0
 10
88.00565625315848
 20
157.9186966524895
 30
0.0
 10
87.90158416308995
 20
157.7177388270214
 30
0.0
 10
87.84705273274277
 20
157.6125864025077
 30
0.0
 10
87.84155762277231
 20
157.6019889503928
 30
0.0
 10
87.8394033867543
 20
157.5978344542739
 30
0.0
  0
ARC
  5
2D0
330
1F
100
AcDbEntity
  8
0
  6
Continuous
 62
     7
370
    25
100
AcDbCircle
 10
88.0483776128
 20
158.0520713143
 30
0.0
 40
0.5000000000000403
100
AcDbArc
 50
150.047077262
 51
245.2948791149
  0
SPLINE
  5
2D1
330
1F
100
AcDbEntity
  8
0
  6
Continuous
 62
     7
370
    25
100
AcDbSpline
210
0.0
220
0.0
230
1.0
 70
     8
 71
     3
 72
    12
 73
     8
 74
     0
 42
0.000000001
 43
0.00000001
 40
0.0
 40
0.0
 40
0.0
 40
0.0
 40
0.1382774312648868
 40
0.3528128573722389
 40
0.5682380798395852
 40
0.7841280209171931
 40
1.0
 40
1.0
 40
1.0
 40
1.0
 10
87.6151595372384
 20
158.3017168802973
 30
0.0
 10
87.61633146586443
 20
158.3037497423085
 30
0.0
 10
87.61932162473133
 20
158.3089365602023
 30
0.0
 10
87.6490036757985
 20
158.3604487197348
 30
0.0
 10
87.70569387194669
 20
158.4588232173797
 30
0.0
 10
87.7810423813227
 20
158.5895803493979
 30
0.0
 10
87.83760682647835
 20
158.6877387349795
 30
0.0
 10
87.86588787246994
 20
158.7368158859965
 30
0.0
  0
LWPOLYLINE
  5
2D2
330
1F
100
AcDbEntity
  8
0
  6
Continuous
 62
     7
370
    25
100
AcDbPolyline
 90
        9
 70
   128
 43
0.0
 10
88.2991056066
 20
158.4871692819
 10
88.2145890142
 20
158.5358737273
 10
88.1333204094
 20
158.5827043516
 10
88.0584229823
 20
158.625865565
 10
87.9927745197
 20
158.663695888
 10
87.93889844
 20
158.6947424574
 10
87.8988646079
 20
158.7178131802
 10
87.8742120336
 20
158.7320177121
 10
87.8658878725
 20
158.736815886
  0
SPLINE
  5
2D3
330
1F
100
AcDbEntity
  8
0
  6
Continuous
 62
     7
370
    25
100
AcDbSpline
210
0.0
220
0.0
230
1.0
 70
     8
 71
     3
 72
    12
 73
     8
 74
     0
 42
0.000000001
 43
0.00000001
 40
0.0
 40
0.0
 40
0.0
 40
0.0
 40
0.2138763707242534
 40
0.4276003815273938
 40
0.6415003993731091
 40
0.8560404152765116
 40
1.0
 40
1.0
 40
1.0
 40
1.0
 10
101.9912755224531
 20
157.6094648105855
 30
0.0
 10
101.9861963935874
 20
157.6192160640417
 30
0.0
 10
101.9760417540943
 20
157.6387116244167
 30
0.0
 10
101.8969115542615
 20
157.7907419620014
 30
0.0
 10
101.7804653787879
 20
158.0148188698637
 30
0.0
 10
101.6507221340273
 20
158.2649415381227
 30
0.0
 10
101.5646680513868
 20
158.4312573869962
 30
0.0
 10
101.5301120575195
 20
158.4980434043164
 30
0.0
  0
ARC
  5
2D4
330
1F
100
AcDbEntity
  8
0
  6
Continuous
 62
     7
370
    25
100
AcDbCircle
 10
94.902729261
 20
172.9509928686
 30
0.0
 40
16.90000000000001
100
AcDbArc
 50
245.2948791149
 51
294.7992754092
  0
ARC
  5
2D5
330
1F
100
AcDbEntity
  8
0
  6
Continuous
 62
     7
370
    25
100
AcDbCircle
 10
94.902729261
 20
172.9509928686
 30
0.0
 40
15.90000000000001
100
AcDbArc
 50
245.460389536
 51
294.6337649881
  0
SPLINE
  5
2D6
330
1F
100
AcDbEntity
  8
0
  6
Continuous
 62
     7
370
    25
100
AcDbSpline
210
0.0
220
0.0
230
1.0
 70
     8
 71
     3
 72
    12
 73
     8
 74
     0
 42
0.000000001
 43
0.00000001
 40
0.0
 40
0.0
 40
0.0
 40
0.0
 40
0.1382774871479169
 40
0.3528131621325947
 40
0.5682385219535956
 40
0.784131943649551
 40
1.0
 40
1.0
 40
1.0
 40
1.0
 10
102.1902986909875
 20
187.6002719862218
 30
0.0
 10
102.1891269679502
 20
187.5982391286287
 30
0.0
 10
102.1861373322657
 20
187.5930523196233
 30
0.0
 10
102.1564545191683
 20
187.5415400001762
 30
0.0
 10
102.0997634052067
 20
187.4431657783816
 30
0.0
 10
102.0244181728549
 20
187.3124055089903
 30
0.0
 10
101.9678521641734
 20
187.2142485678203
 30
0.0
 10
101.9395708214172
 20
187.1651729805226
 30
0.0
  0
LWPOLYLINE
  5
2D7
330
1F
100
AcDbEntity
  8
0
  6
Continuous
 62
     7
370
    25
100
AcDbPolyline
 90
        9
 70
   128
 43
0.0
 10
101.9395708214
 20
187.1651729805
 10
101.9312466602
 20
187.1699711544
 10
101.906594086
 20
187.184171961
 10
101.8665602538
 20
187.2072464092
 10
101.8126841742
 20
187.2382929785
 10
101.7470357116
 20
187.2761195762
 10
101.6721382845
 20
187.3192807896
 10
101.590869214
 20
187.3661151392
 10
101.5063526217
 20
187.414812134
  0
ARC
  5
2D8
330
1F
100
AcDbEntity
  8
0
  6
Continuous
 62
     7
370
    25
100
AcDbCircle
 10
101.7570809093
 20
187.849914423
 30
0.0
 40
0.5000000000000157
100
AcDbArc
 50
330.047077262
 51
65.2948791149
  0
SPLINE
  5
2D9
330
1F
100
AcDbEntity
  8
0
  6
Continuous
 62
     7
370
    25
100
AcDbSpline
210
0.0
220
0.0
230
1.0
 70
     8
 71
     3
 72
    12
 73
     8
 74
     0
 42
0.000000001
 43
0.00000001
 40
0.0
 40
0.0
 40
0.0
 40
0.0
 40
0.2155309992037727
 40
0.4312383465156325
 40
0.6467163599252407
 40
0.8615028614242404
 40
1.0
 40
1.0
 40
1.0
 40
1.0
 10
104.1269551139002
 20
160.000177310204
 30
0.0
 10
104.1880122706578
 20
159.9051811178874
 30
0.0
 10
104.3101765413212
 20
159.7151110070856
 30
0.0
 10
104.4725449627868
 20
159.4618050720099
 30
0.0
 10
104.5945410402674
 20
159.2711934760173
 30
0.0
 10
104.6583433234692
 20
159.1713961114666
 30
0.0
 10
104.6647709614243
 20
159.1613371186489
 30
0.0
 10
104.6672907765632
 20
159.157393710112
 30
0.0
  0
ARC
  5
2DA
330
1F
100
AcDbEntity
  8
0
  6
Continuous
 62
     7
370
    25
100
AcDbCircle
 10
104.3783979919
 20
159.5654894376
 30
0.0
 40
0.5000000000000391
100
AcDbArc
 50
210.047077262
 51
305.2948791149
  0
SPLINE
  5
2DB
330
1F
100
AcDbEntity
  8
0
  6
Continuous
 62
     7
370
    25
100
AcDbSpline
210
0.0
220
0.0
230
1.0
 70
     8
 71
     3
 72
    12
 73
     8
 74
     0
 42
0.000000001
 43
0.00000001
 40
0.0
 40
0.0
 40
0.0
 40
0.0
 40
0.1382781243982416
 40
0.3528142728742147
 40
0.5682390402085676
 40
0.7841284874504205
 40
1.0
 40
1.0
 40
1.0
 40
1.0
 10
103.9455912183648
 20
159.3151336772198
 30
0.0
 10
103.9444158037484
 20
159.3171655045989
 30
0.0
 10
103.9414167534285
 20
159.3223496774569
 30
0.0
 10
103.9116495011211
 20
159.3738117957701
 30
0.0
 10
103.8547991743895
 20
159.4720924246744
 30
0.0
 10
103.7792348139233
 20
159.6027239055407
 30
0.0
 10
103.7225095479188
 20
159.7007887767992
 30
0.0
 10
103.6941480930572
 20
159.7498191756959
 30
0.0
  0
LWPOLYLINE
  5
2DC
330
1F
100
AcDbEntity
  8
0
  6
Continuous
 62
     7
370
    25
100
AcDbPolyline
 90
        9
 70
   128
 43
0.0
 10
104.1269551139
 20
160.0001773102
 10
104.0425186153
 20
159.9513350291
 10
103.9613268446
 20
159.9043702943
 10
103.8865006637
 20
159.8610861463
 10
103.820914134
 20
159.8231477899
 10
103.7670892771
 20
159.7920118136
 10
103.7270936291
 20
159.7688777609
 10
103.7024638723
 20
159.7546322508
 10
103.6941480931
 20
159.7498191757
  0
SPLINE
  5
2DD
330
1F
100
AcDbEntity
  8
0
  6
Continuous
 62
     7
370
    25
100
AcDbSpline
210
0.0
220
0.0
230
1.0
 70
     8
 71
     3
 72
    10
 73
     6
 74
     0
 42
0.000000001
 43
0.00000001
 40
0.0
 40
0.0
 40
0.0
 40
0.0
 40
0.4190490080092965
 40
0.8377258871479754
 40
1.0
 40
1.0
 40
1.0
 40
1.0
 10
111.5920755188591
 20
170.2909751100296
 30
0.0
 10
111.5810361694048
 20
170.2912109582069
 30
0.0
 10
111.5589672737903
 20
170.2916824451209
 30
0.0
 10
111.4245361590211
 20
170.2945923891406
 30
0.0
 10
111.3188204189057
 20
170.2969335544124
 30
0.0
 10
111.2892913739807
 20
170.2975875003094
 30
0.0
  0
ARC
  5
2DE
330
1F
100
AcDbEntity
  8
0
  6
Continuous
 62
     7
370
    25
100
AcDbCircle
 10
94.902729261
 20
172.9509928686
 30
0.0
 40
16.90000000000003
100
AcDbArc
 50
305.2948791149
 51
350.9441244191
  0
ARC
  5
2DF
330
1F
100
AcDbEntity
  8
0
  6
Continuous
 62
     7
370
    25
100
AcDbCircle
 10
94.902729261
 20
172.9509928686
 30
0.0
 40
15.90000000000002
100
AcDbArc
 50
305.460389536
 51
54.6337649881
  0
SPLINE
  5
2E0
330
1F
100
AcDbEntity
  8
0
  6
Continuous
 62
     7
370
    25
100
AcDbSpline
210
0.0
220
0.0
230
1.0
 70
     8
 71
     3
 72
    12
 73
     8
 74
     0
 42
0.000000001
 43
0.00000001
 40
0.0
 40
0.0
 40
0.0
 40
0.0
 40
0.2138760240556319
 40
0.4275997554536621
 40
0.6414997266394726
 40
0.8560385424993399
 40
1.0
 40
1.0
 40
1.0
 40
1.0
 10
104.6446102779039
 20
186.7606213552708
 30
0.0
 10
104.638704856403
 20
186.7513467420987
 30
0.0
 10
104.6268982184183
 20
186.7328041198397
 30
0.0
 10
104.5347994573902
 20
186.588260806823
 30
0.0
 10
104.3989695438106
 20
186.3753742721123
 30
0.0
 10
104.2472235703024
 20
186.1379546705391
 30
0.0
 10
104.1462200036515
 20
185.9802687052892
 30
0.0
 10
104.1056604232319
 20
185.9169474107975
 30
0.0
  0
ARC
  5
2E1
330
1F
100
AcDbEntity
  8
0
  6
Continuous
 62
     7
370
    25
100
AcDbCircle
 10
94.902729261
 20
172.9509928686
 30
0.0
 40
16.90000000000003
100
AcDbArc
 50
9.150030105
 51
54.7992754092
  0
SPLINE
  5
2E2
330
1F
100
AcDbEntity
  8
0
  6
Continuous
 62
     7
370
    25
100
AcDbSpline
210
0.0
220
0.0
230
1.0
 70
     8
 71
     3
 72
    10
 73
     6
 74
     0
 42
0.000000001
 43
0.00000001
 40
0.0
 40
0.0
 40
0.0
 40
0.0
 40
0.1622722210816279
 40
0.5809508988809119
 40
1.0
 40
1.0
 40
1.0
 40
1.0
 10
111.2849104325898
 20
175.6313240391964
 30
0.0
 10
111.31443745423
 20
175.6320249074638
 30
0.0
 10
111.4201471662736
 20
175.6345340864671
 30
0.0
 10
111.5545774654252
 20
175.6376685370851
 30
0.0
 10
111.5766435954037
 20
175.6381798492491
 30
0.0
 10
111.5876815389521
 20
175.6384356183762
 30
0.0
  0
ARC
  5
2E3
330
1F
100
AcDbEntity
  8
0
  6
Continuous
 62
     7
370
    25
100
AcDbCircle
 10
94.902729261
 20
172.9509928686
 30
0.0
 40
16.60000000000001
100
AcDbArc
 50
350.8021753342
 51
9.2919791899
  0
LWPOLYLINE
  5
2E4
330
1F
100
AcDbEntity
  8
0
  6
Continuous
 62
     7
370
    25
100
AcDbPolyline
 90
        9
 70
   128
 43
0.0
 10
85.6997982707
 20
159.9850340051
 10
85.784314863
 20
159.9363332851
 10
85.8655830022
 20
159.8894989354
 10
85.9404808949
 20
159.8463414473
 10
86.0061288919
 20
159.8085111243
 10
86.0600059028
 20
159.777464555
 10
86.1000388037
 20
159.7543938322
 10
86.1246918436
 20
159.7401893003
 10
86.1330160048
 20
159.7353911264
  0
SPLINE
  5
2E5
330
1F
100
AcDbEntity
  8
0
  6
Continuous
 62
     7
370
    25
100
AcDbSpline
210
0.0
220
0.0
230
1.0
 70
     8
 71
     3
 72
    12
 73
     8
 74
     0
 42
0.000000001
 43
0.00000001
 40
0.0
 40
0.0
 40
0.0
 40
0.0
 40
0.1441975481337724
 40
0.3589857287618921
 40
0.5729151623854354
 40
0.786451912708959
 40
1.0
 40
1.0
 40
1.0
 40
1.0
 10
86.13301600475364
 20
159.7353911263701
 30
0.0
 10
86.11418233621228
 20
159.7027087058459
 30
0.0
 10
86.06729514350975
 20
159.6213444753065
 30
0.0
 10
85.99674547555492
 20
159.4989127987484
 30
0.0
 10
85.9334929530722
 20
159.389154149373
 30
0.0
 10
85.89055224627589
 20
159.3146317490661
 30
0.0
 10
85.88504288762952
 20
159.3050720813898
 30
0.0
 10
85.88228813518337
 20
159.300292120671
 30
0.0
  0
ARC
  5
2E6
330
1F
100
AcDbEntity
  8
0
  6
Continuous
 62
     7
370
    25
100
AcDbCircle
 10
85.4490697987
 20
159.5499360905
 30
0.0
 40
0.5000000000000422
100
AcDbArc
 50
234.7992754092
 51
330.047077262
  0
LWPOLYLINE
  5
2E7
330
1F
100
AcDbEntity
  8
0
  6
Continuous
 62
     7
370
    25
100
AcDbPolyline
 90
        9
 70
   128
 43
0.0
 10
101.5301120575
 20
158.4980434043
 10
101.6145485561
 20
158.5468819601
 10
101.6957403268
 20
158.5938504202
 10
101.7705669734
 20
158.6371308429
 10
101.8361530374
 20
158.6750691993
 10
101.88997836
 20
158.7062051756
 10
101.9299740079
 20
158.7293392284
 10
101.9546032991
 20
158.7435884638
 10
101.962919544
 20
158.7483978135
  0
SPLINE
  5
2E8
330
1F
100
AcDbEntity
  8
0
  6
Continuous
 62
     7
370
    25
100
AcDbSpline
210
0.0
220
0.0
230
1.0
 70
     8
 71
     3
 72
    12
 73
     8
 74
     0
 42
0.000000001
 43
0.00000001
 40
0.0
 40
0.0
 40
0.0
 40
0.0
 40
0.1441962788808801
 40
0.3589858457737009
 40
0.5729170741004828
 40
0.7864516725036165
 40
1.0
 40
1.0
 40
1.0
 40
1.0
 10
101.9629195440238
 20
158.7483978135343
 30
0.0
 10
101.9818067010762
 20
158.7157466570516
 30
0.0
 10
102.0288274848395
 20
158.6344595176304
 30
0.0
 10
102.0995785268891
 20
158.5121441130453
 30
0.0
 10
102.1630102032902
 20
158.4024855175214
 30
0.0
 10
102.2060742042118
 20
158.3280404366168
 30
0.0
 10
102.2115994779785
 20
158.318488457931
 30
0.0
 10
102.2143622036701
 20
158.3137123150582
 30
0.0
  0
ARC
  5
2E9
330
1F
100
AcDbEntity
  8
0
  6
Continuous
 62
     7
370
    25
100
AcDbCircle
 10
101.7815551373
 20
158.0633552265
 30
0.0
 40
0.500000000000019
100
AcDbArc
 50
294.7992754092
 51
30.047077262
  0
SPLINE
  5
2EA
330
1F
100
AcDbEntity
  8
0
  6
Continuous
 62
     7
370
    25
100
AcDbSpline
210
0.0
220
0.0
230
1.0
 70
     8
 71
     3
 72
    12
 73
     8
 74
     0
 42
0.000000001
 43
0.00000001
 40
0.0
 40
0.0
 40
0.0
 40
0.0
 40
0.1441975705101028
 40
0.3589857844686873
 40
0.572914808521356
 40
0.7864518795709297
 40
0.9999999999999999
 40
0.9999999999999999
 40
0.9999999999999999
 40
0.9999999999999999
 10
103.6724426891335
 20
186.1665940148587
 30
0.0
 10
103.6912763402281
 20
186.1992764391798
 30
0.0
 10
103.7381634894962
 20
186.2806406791718
 30
0.0
 10
103.8087135513211
 20
186.4030721635282
 30
0.0
 10
103.871964260702
 20
186.5128312095886
 30
0.0
 10
103.9149068095066
 20
186.5873533241064
 30
0.0
 10
103.9204159281281
 20
186.596913039299
 30
0.0
 10
103.9231705587038
 20
186.6016930205578
 30
0.0
  0
ARC
  5
2EB
330
1F
100
AcDbEntity
  8
0
  6
Continuous
 62
     7
370
    25
100
AcDbCircle
 10
104.3563887234
 20
186.3520496467
 30
0.0
 40
0.5000000000000213
100
AcDbArc
 50
54.7992754092
 51
150.047077262
  0
LWPOLYLINE
  5
2EC
330
1F
100
AcDbEntity
  8
0
  6
Continuous
 62
     7
370
    25
100
AcDbPolyline
 90
        9
 70
   128
 43
0.0
 10
103.6724426891
 20
186.1665940149
 10
103.6807668503
 20
186.161795841
 10
103.7054189589
 20
186.1475950343
 10
103.745452791
 20
186.1245205862
 10
103.7993288707
 20
186.0934740169
 10
103.864977799
 20
186.0556474192
 10
103.9398747604
 20
186.0124862058
 10
104.0211438309
 20
185.9656518562
 10
104.1056604232
 20
185.9169474108
  0
LWPOLYLINE
  5
2ED
330
1F
100
AcDbEntity
  8
0
  6
Continuous
 62
     7
370
    25
100
AcDbPolyline
 90
        9
 70
   128
 43
0.0
 10
79.2858532738
 20
175.9381612999
 10
79.2859333675
 20
175.8406182987
 10
79.2860106673
 20
175.7468192143
 10
79.2860814478
 20
175.6603775782
 10
79.2861438464
 20
175.5846088989
 10
79.2861950691
 20
175.5224263532
 10
79.286232322
 20
175.4762215776
 10
79.2862565364
 20
175.4477715356
 10
79.286263987
 20
175.4381640119
  0
SPLINE
  5
2EE
330
1F
100
AcDbEntity
  8
0
  6
Continuous
 62
     7
370
    25
100
AcDbSpline
210
0.0
220
0.0
230
1.0
 70
     8
 71
     3
 72
    12
 73
     8
 74
     0
 42
0.000000001
 43
0.00000001
 40
0.0
 40
0.0
 40
0.0
 40
0.0
 40
0.1532887369282728
 40
0.3682848078503466
 40
0.5798701081415039
 40
0.7899085315442339
 40
1.0
 40
1.0
 40
1.0
 40
1.0
 10
79.28626398701738
 20
175.4381640119312
 30
0.0
 10
79.2458848783878
 20
175.4381299095401
 30
0.0
 10
79.14887179992677
 20
175.4380479766284
 30
0.0
 10
79.00537656350886
 20
175.4379346436818
 30
0.0
 10
78.87927746297723
 20
175.4378266237086
 30
0.0
 10
78.7938690509707
 20
175.4377557266036
 30
0.0
 10
78.78289358872692
 20
175.4377472786417
 30
0.0
 10
78.77740516473125
 20
175.4377430541275
 30
0.0
  0
ARC
  5
2EF
330
1F
100
AcDbEntity
  8
0
  6
Continuous
 62
     7
370
    25
100
AcDbCircle
 10
78.7769946426
 20
175.9377441165
 30
0.0
 40
0.5000000000000115
100
AcDbArc
 50
169.5067912968
 51
270.047077262
  0
LINE
  5
2F0
330
1F
100
AcDbEntity
  8
0
  6
Continuous
 62
     7
370
    25
100
AcDbLine
 10
86.3134485777
 20
160.048501776
 30
0.0
 11
86.1330160048
 21
159.7353911264
 31
0.0
  0
LINE
  5
2F1
330
1F
100
AcDbEntity
  8
0
  6
Continuous
 62
     7
370
    25
100
AcDbLine
 10
85.6997982707
 20
159.9850340051
 30
0.0
 11
85.9004312303
 21
160.3332033617
 31
0.0
  0
LINE
  5
2F2
330
1F
100
AcDbEntity
  8
0
  6
Continuous
 62
     7
370
    25
100
AcDbLine
 10
101.781972881
 20
159.0612104399
 30
0.0
 11
101.962919544
 21
158.7483978135
 31
0.0
  0
LINE
  5
2F3
330
1F
100
AcDbEntity
  8
0
  6
Continuous
 62
     7
370
    25
100
AcDbLine
 10
101.5301120575
 20
158.4980434043
 30
0.0
 11
101.3289072659
 21
158.8458774848
 31
0.0
  0
LINE
  5
2F4
330
1F
100
AcDbEntity
  8
0
  6
Continuous
 62
     7
370
    25
100
AcDbLine
 10
103.4920101162
 20
185.8534833653
 30
0.0
 11
103.6724426891
 21
186.1665940149
 31
0.0
  0
LINE
  5
2F5
330
1F
100
AcDbEntity
  8
0
  6
Continuous
 62
     7
370
    25
100
AcDbLine
 10
104.1056604232
 20
185.9169474108
 30
0.0
 11
103.9050274636
 21
185.5687817795
 31
0.0
  0
LINE
  5
2F6
330
1F
100
AcDbEntity
  8
0
  6
Continuous
 62
     7
370
    25
100
AcDbLine
 10
88.4997390318
 20
158.8353386385
 30
0.0
 11
88.2991056066
 21
158.4871692819
 31
0.0
  0
LINE
  5
2F7
330
1F
100
AcDbEntity
  8
0
  6
Continuous
 62
     7
370
    25
100
AcDbLine
 10
87.8658878725
 20
158.736815886
 30
0.0
 11
88.0463199798
 21
159.0499265356
 31
0.0
  0
LINE
  5
2F8
330
1F
100
AcDbEntity
  8
0
  6
Continuous
 62
     7
370
    25
100
AcDbLine
 10
101.9395708214
 20
187.1651729805
 30
0.0
 11
101.7591382485
 21
186.8520623309
 31
0.0
  0
LINE
  5
2F9
330
1F
100
AcDbEntity
  8
0
  6
Continuous
 62
     7
370
    25
100
AcDbLine
 10
101.3057196621
 20
187.0666465027
 30
0.0
 11
101.5063526217
 21
187.414812134
 31
0.0
  0
LINE
  5
2FA
330
1F
100
AcDbEntity
  8
0
  6
Continuous
 62
     7
370
    25
100
AcDbLine
 10
103.9257503222
 20
160.3480113907
 30
0.0
 11
104.1269551139
 21
160.0001773102
 31
0.0
  0
LINE
  5
2FB
330
1F
100
AcDbEntity
  8
0
  6
Continuous
 62
     7
370
    25
100
AcDbLine
 10
103.6941480931
 20
159.7498191757
 30
0.0
 11
103.51320143
 21
160.0626355273
 31
0.0
  0
ARC
  5
2FC
330
1F
100
AcDbEntity
  8
0
  6
Continuous
 62
     7
370
    25
100
AcDbCircle
 10
94.902729261
 20
172.9509928686
 30
0.0
 40
15.7
100
AcDbArc
 50
315.286701351
 51
344.8074531731
  0
LINE
  5
2FD
330
1F
100
AcDbEntity
  8
0
  6
Continuous
 62
     7
370
    25
100
AcDbLine
 10
109.4953247454
 20
169.1585464639
 30
0.0
 11
110.0540232952
 21
168.8365919752
 31
0.0
  0
ARC
  5
2FE
330
1F
100
AcDbEntity
  8
0
  6
Continuous
 62
     7
370
    25
100
AcDbCircle
 10
94.902729261
 20
172.9509928686
 30
0.0
 40
15.07735026918963
100
AcDbArc
 50
345.4317739929
 51
14.6623805312
  0
LINE
  5
2FF
330
1F
100
AcDbEntity
  8
0
  6
Continuous
 62
     7
370
    25
100
AcDbLine
 10
109.4890727769
 20
176.7674146456
 30
0.0
 11
110.0472423356
 21
177.0902855558
 31
0.0
  0
ARC
  5
300
330
1F
100
AcDbEntity
  8
0
  6
Continuous
 62
     7
370
    25
100
AcDbCircle
 10
94.902729261
 20
172.9509928686
 30
0.0
 40
15.70000000000002
100
AcDbArc
 50
15.286701351
 51
44.8074531731
  0
LINE
  5
301
330
1F
100
AcDbEntity
  8
0
  6
Continuous
 62
     7
370
    25
100
AcDbLine
 10
105.4833817403
 20
183.6923307044
 30
0.0
 11
106.0415503677
 21
184.0152016146
 31
0.0
  0
ARC
  5
302
330
1F
100
AcDbEntity
  8
0
  6
Continuous
 62
     7
370
    25
100
AcDbCircle
 10
94.902729261
 20
172.9509928686
 30
0.0
 40
15.07735026918966
100
AcDbArc
 50
45.4317739929
 51
74.6623805312
  0
LINE
  5
303
330
1F
100
AcDbEntity
  8
0
  6
Continuous
 62
     7
370
    25
100
AcDbLine
 10
98.8907834623
 20
187.4913444979
 30
0.0
 11
98.8902535397
 21
188.1361698968
 31
0.0
  0
ARC
  5
304
330
1F
100
AcDbEntity
  8
0
  6
Continuous
 62
     7
370
    25
100
AcDbCircle
 10
94.902729261
 20
172.9509928686
 30
0.0
 40
15.7
100
AcDbArc
 50
75.286701351
 51
104.8074531731
  0
LINE
  5
305
330
1F
100
AcDbEntity
  8
0
  6
Continuous
 62
     7
370
    25
100
AcDbLine
 10
90.8907863419
 20
187.4847730858
 30
0.0
 11
90.8902564194
 21
188.1295984847
 31
0.0
  0
ARC
  5
306
330
1F
100
AcDbEntity
  8
0
  6
Continuous
 62
     7
370
    25
100
AcDbCircle
 10
94.902729261
 20
172.9509928686
 30
0.0
 40
15.07735026918965
100
AcDbArc
 50
105.4317739929
 51
134.6623805312
  0
LINE
  5
307
330
1F
100
AcDbEntity
  8
0
  6
Continuous
 62
     7
370
    25
100
AcDbLine
 10
83.7457410168
 20
183.9968806369
 30
0.0
 11
84.3044395666
 21
183.6749261482
 31
0.0
  0
ARC
  5
308
330
1F
100
AcDbEntity
  8
0
  6
Continuous
 62
     7
370
    25
100
AcDbCircle
 10
94.902729261
 20
172.9509928686
 30
0.0
 40
15.70000000000003
100
AcDbArc
 50
135.286701351
 51
164.8074531731
  0
LINE
  5
309
330
1F
100
AcDbEntity
  8
0
  6
Continuous
 62
     7
370
    25
100
AcDbLine
 10
79.7514353987
 20
177.065393166
 30
0.0
 11
80.3101339485
 21
176.7434386773
 31
0.0
  0
ARC
  5
30A
330
1F
100
AcDbEntity
  8
0
  6
Continuous
 62
     7
370
    25
100
AcDbCircle
 10
94.902729261
 20
172.9509928686
 30
0.0
 40
15.07735026918965
100
AcDbArc
 50
165.4317739929
 51
194.6623805312
  0
LINE
  5
30B
330
1F
100
AcDbEntity
  8
0
  6
Continuous
 62
     7
370
    25
100
AcDbLine
 10
79.7582163583
 20
168.8116995854
 30
0.0
 11
80.316385917
 21
169.1345704956
 31
0.0
  0
ARC
  5
30C
330
1F
100
AcDbEntity
  8
0
  6
Continuous
 62
     7
370
    25
100
AcDbCircle
 10
94.902729261
 20
172.9509928686
 30
0.0
 40
15.7
100
AcDbArc
 50
195.286701351
 51
224.8074531731
  0
LINE
  5
30D
330
1F
100
AcDbEntity
  8
0
  6
Continuous
 62
     7
370
    25
100
AcDbLine
 10
83.7639083262
 20
161.8867872519
 30
0.0
 11
84.3220769535
 21
162.2096581621
 31
0.0
  0
ARC
  5
30E
330
1F
100
AcDbEntity
  8
0
  6
Continuous
 62
     7
370
    25
100
AcDbCircle
 10
94.902729261
 20
172.9509928686
 30
0.0
 40
15.07735026918963
100
AcDbArc
 50
225.4317739929
 51
254.6623805312
  0
LINE
  5
30F
330
1F
100
AcDbEntity
  8
0
  6
Continuous
 62
     7
370
    25
100
AcDbLine
 10
90.9152049213
 20
157.7658152444
 30
0.0
 11
90.9146749988
 21
158.410636918
 31
0.0
  0
ARC
  5
310
330
1F
100
AcDbEntity
  8
0
  6
Continuous
 62
     7
370
    25
100
AcDbCircle
 10
94.902729261
 20
172.9509928686
 30
0.0
 40
15.7
100
AcDbArc
 50
255.286701351
 51
284.8074531731
  0
LINE
  5
311
330
1F
100
AcDbEntity
  8
0
  6
Continuous
 62
     7
370
    25
100
AcDbLine
 10
98.9152022745
 20
157.7723866565
 30
0.0
 11
98.914672352
 21
158.4172120554
 31
0.0
  0
ARC
  5
312
330
1F
100
AcDbEntity
  8
0
  6
Continuous
 62
     7
370
    25
100
AcDbCircle
 10
94.902729261
 20
172.9509928686
 30
0.0
 40
15.0773502691896
100
AcDbArc
 50
285.4317739929
 51
314.6623805312
  0
LINE
  5
313
330
1F
100
AcDbEntity
  8
0
  6
Continuous
 62
     7
370
    25
100
AcDbLine
 10
105.5010191273
 20
162.2270589931
 30
0.0
 11
106.0597176771
 21
161.9051045043
 31
0.0
  0
LINE
  5
314
330
1F
100
AcDbEntity
  8
0
  6
Continuous
 62
     7
370
    25
100
AcDbLine
 10
79.6982932012
 20
169.9384993179
 30
0.0
 11
79.2907827641
 21
169.9381640417
 31
0.0
  0
ARC
  5
315
330
1F
100
AcDbEntity
  8
0
  6
Continuous
 62
     7
370
    25
100
AcDbCircle
 10
94.902729261
 20
172.9509928686
 30
0.0
 40
15.50000000000002
100
AcDbArc
 50
168.8871403898
 51
191.2070141342
  0
LINE
  5
316
330
1F
100
AcDbEntity
  8
0
  6
Continuous
 62
     7
370
    25
100
AcDbLine
 10
79.2858532738
 20
175.9381612999
 30
0.0
 11
79.6933627795
 21
175.938496576
 31
0.0
  0
ARC
  5
317
330
1F
100
AcDbEntity
  8
0
  6
Continuous
 62
     7
370
    25
100
AcDbCircle
 10
94.902729261
 20
172.9509928686
 30
0.0
 40
15.50000000000003
100
AcDbArc
 50
54.4936330664
 51
65.6005214577
  0
ARC
  5
318
330
1F
100
AcDbEntity
  8
0
  6
Continuous
 62
     7
370
    25
100
AcDbCircle
 10
94.902729261
 20
172.9509928686
 30
0.0
 40
15.49999999999999
100
AcDbArc
 50
294.4936330664
 51
305.6005214577
  0
ARC
  5
319
330
1F
100
AcDbEntity
  8
0
  6
Continuous
 62
     7
370
    25
100
AcDbCircle
 10
94.902729261
 20
172.9509928686
 30
0.0
 40
15.50000000000004
100
AcDbArc
 50
234.4936330664
 51
245.6005214577
  0
LINE
  5
31A
330
1F
100
AcDbEntity
  8
0
  6
Continuous
 62
     7
370
    25
100
AcDbLine
 10
79.2903720509
 20
170.438165055
 30
0.0
 11
79.6077304627
 21
170.4384258253
 31
0.0
  0
LINE
  5
31B
330
1F
100
AcDbEntity
  8
0
  6
Continuous
 62
     7
370
    25
100
AcDbLine
 10
80.3101339485
 20
176.7434386773
 30
0.0
 11
80.8297467526
 21
176.444011019
 31
0.0
  0
ARC
  5
31C
330
1F
100
AcDbEntity
  8
0
  6
Continuous
 62
     7
370
    25
100
AcDbCircle
 10
94.902729261
 20
172.9509928686
 30
0.0
 40
14.50000000000002
100
AcDbArc
 50
166.060471686
 51
194.0336828381
  0
LINE
  5
31D
330
1F
100
AcDbEntity
  8
0
  6
Continuous
 62
     7
370
    25
100
AcDbLine
 10
80.8355060514
 20
169.4348549707
 30
0.0
 11
80.316385917
 21
169.1345704956
 31
0.0
  0
LINE
  5
31E
330
1F
100
AcDbEntity
  8
0
  6
Continuous
 62
     7
370
    25
100
AcDbLine
 10
84.3220769535
 20
162.2096581621
 30
0.0
 11
84.841197088
 21
162.5099389119
 31
0.0
  0
ARC
  5
31F
330
1F
100
AcDbEntity
  8
0
  6
Continuous
 62
     7
370
    25
100
AcDbCircle
 10
94.902729261
 20
172.9509928686
 30
0.0
 40
14.50000000000001
100
AcDbArc
 50
226.060471686
 51
254.0336828381
  0
LINE
  5
320
330
1F
100
AcDbEntity
  8
0
  6
Continuous
 62
     7
370
    25
100
AcDbLine
 10
90.9141823291
 20
159.0103527767
 30
0.0
 11
90.9146749988
 21
158.410636918
 31
0.0
  0
LINE
  5
321
330
1F
100
AcDbEntity
  8
0
  6
Continuous
 62
     7
370
    25
100
AcDbLine
 10
79.6036214675
 20
175.4384247823
 30
0.0
 11
79.286263987
 21
175.4381640119
 31
0.0
  0
LINE
  5
322
330
1F
100
AcDbEntity
  8
0
  6
Continuous
 62
     7
370
    25
100
AcDbLine
 10
90.8907863419
 20
187.4847730858
 30
0.0
 11
90.8912790116
 21
186.8850609524
 31
0.0
  0
ARC
  5
323
330
1F
100
AcDbEntity
  8
0
  6
Continuous
 62
     7
370
    25
100
AcDbCircle
 10
94.902729261
 20
172.9509928686
 30
0.0
 40
14.50000000000005
100
AcDbArc
 50
106.060471686
 51
134.0336828381
  0
LINE
  5
324
330
1F
100
AcDbEntity
  8
0
  6
Continuous
 62
     7
370
    25
100
AcDbLine
 10
84.8240523707
 20
183.3754947645
 30
0.0
 11
84.3044395666
 21
183.6749261482
 31
0.0
  0
LINE
  5
325
330
1F
100
AcDbEntity
  8
0
  6
Continuous
 62
     7
370
    25
100
AcDbLine
 10
98.914672352
 20
158.4172120554
 30
0.0
 11
98.9141796823
 21
159.0169241888
 31
0.0
  0
ARC
  5
326
330
1F
100
AcDbEntity
  8
0
  6
Continuous
 62
     7
370
    25
100
AcDbCircle
 10
94.902729261
 20
172.9509928686
 30
0.0
 40
14.50000000000001
100
AcDbArc
 50
286.060471686
 51
314.0336828381
  0
LINE
  5
327
330
1F
100
AcDbEntity
  8
0
  6
Continuous
 62
     7
370
    25
100
AcDbLine
 10
104.9814053919
 20
162.5264903767
 30
0.0
 11
105.5010191273
 21
162.2270589931
 31
0.0
  0
LINE
  5
328
330
1F
100
AcDbEntity
  8
0
  6
Continuous
 62
     7
370
    25
100
AcDbLine
 10
105.4833817403
 20
183.6923307044
 30
0.0
 11
104.9642616059
 21
183.392042504
 31
0.0
  0
ARC
  5
329
330
1F
100
AcDbEntity
  8
0
  6
Continuous
 62
     7
370
    25
100
AcDbCircle
 10
94.902729261
 20
172.9509928686
 30
0.0
 40
14.5
100
AcDbArc
 50
46.060471686
 51
74.0336828381
  0
LINE
  5
32A
330
1F
100
AcDbEntity
  8
0
  6
Continuous
 62
     7
370
    25
100
AcDbLine
 10
98.8912761319
 20
186.8916323645
 30
0.0
 11
98.8907834623
 21
187.4913444979
 31
0.0
  0
LINE
  5
32B
330
1F
100
AcDbEntity
  8
0
  6
Continuous
 62
     7
370
    25
100
AcDbLine
 10
109.4953247454
 20
169.1585464639
 30
0.0
 11
108.9757119413
 21
169.4579778476
 31
0.0
  0
ARC
  5
32C
330
1F
100
AcDbEntity
  8
0
  6
Continuous
 62
     7
370
    25
100
AcDbCircle
 10
94.902729261
 20
172.9509928686
 30
0.0
 40
14.5
100
AcDbArc
 50
346.060471686
 51
14.0336828381
  0
LINE
  5
32D
330
1F
100
AcDbEntity
  8
0
  6
Continuous
 62
     7
370
    25
100
AcDbLine
 10
108.9699526425
 20
176.4671301706
 30
0.0
 11
109.4890727769
 21
176.7674146456
 31
0.0
  0
SPLINE
  5
32E
330
1F
100
AcDbEntity
  8
0
  6
Continuous
 62
     7
370
    25
100
AcDbSpline
210
0.0
220
0.0
230
1.0
 70
     8
 71
     3
 72
     9
 73
     5
 74
     0
 42
0.000000001
 43
0.00000001
 40
0.0
 40
0.0
 40
0.0
 40
0.0
 40
0.6027481602987997
 40
1.0
 40
1.0
 40
1.0
 40
1.0
 10
111.4397148709423
 20
175.4645800454373
 30
0.0
 10
111.431390897954
 20
175.4645741063052
 30
0.0
 10
111.4175808632885
 20
175.4645642528832
 30
0.0
 10
111.3415435890458
 20
175.4645009031192
 30
0.0
 10
111.311337641967
 20
175.4644757373089
 30
0.0
  0
ARC
  5
32F
330
1F
100
AcDbEntity
  8
0
  6
Continuous
 62
     7
370
    25
100
AcDbCircle
 10
111.4395910098
 20
175.614581332
 30
0.0
 40
0.149999999999995
100
AcDbArc
 50
270.047077262
 51
9.150030105
  0
SPLINE
  5
330
330
1F
100
AcDbEntity
  8
0
  6
Continuous
 62
     7
370
    25
100
AcDbSpline
210
0.0
220
0.0
230
1.0
 70
     8
 71
     3
 72
     9
 73
     5
 74
     0
 42
0.000000001
 43
0.00000001
 40
0.0
 40
0.0
 40
0.0
 40
0.0
 40
0.3972531428666952
 40
1.0
 40
1.0
 40
1.0
 40
1.0
 10
111.315444774521
 20
170.4644767803902
 30
0.0
 10
111.3456515465226
 20
170.4645017836428
 30
0.0
 10
111.4216906478965
 20
170.4645647239946
 30
0.0
 10
111.4354990390977
 20
170.4645772586092
 30
0.0
 10
111.4438220034963
 20
170.4645848138088
 30
0.0
  0
ARC
  5
331
330
1F
100
AcDbEntity
  8
0
  6
Continuous
 62
     7
370
    25
100
AcDbCircle
 10
111.4439457714
 20
170.3145831211
 30
0.0
 40
0.1500000000000234
100
AcDbArc
 50
350.9441244191
 51
90.047077262
  0
LINE
  5
332
330
1F
100
AcDbEntity
  8
0
  6
Continuous
 62
     7
370
    25
100
AcDbLine
 10
81.7489463012
 20
170.1437702639
 30
0.0
 11
80.7220709618
 21
169.9246188862
 31
0.0
  0
LINE
  5
333
330
1F
100
AcDbEntity
  8
0
  6
Continuous
 62
     7
370
    25
100
AcDbLine
 10
80.6261465992
 20
170.4154072566
 30
0.0
 11
81.6536803838
 21
170.6347001953
 31
0.0
  0
SPLINE
  5
334
330
1F
100
AcDbEntity
  8
0
  6
Continuous
 62
     7
370
    25
100
AcDbSpline
210
0.0
220
0.0
230
1.0
 70
     8
 71
     3
 72
    12
 73
     8
 74
     0
 42
0.000000001
 43
0.00000001
 40
0.0
 40
0.0
 40
0.0
 40
0.0
 40
0.2146524733095984
 40
0.429308575388157
 40
0.6438879555575292
 40
0.8585017974689422
 40
1.0
 40
1.0
 40
1.0
 40
1.0
 10
81.65368038375442
 20
170.6347001952884
 30
0.0
 10
81.66356845039219
 20
170.5793669209332
 30
0.0
 10
81.68334475082865
 20
170.4686994367958
 30
0.0
 10
81.71204644171965
 20
170.3216305375542
 30
0.0
 10
81.73470386024724
 20
170.2108274594611
 30
0.0
 10
81.74715729184517
 20
170.1521470302964
 30
0.0
 10
81.74843758660398
 20
170.1461522433516
 30
0.0
 10
81.74894630123441
 20
170.1437702638862
 30
0.0
  0
LINE
  5
335
330
1F
100
AcDbEntity
  8
0
  6
Continuous
 62
     7
370
    25
100
AcDbLine
 10
81.5516409572
 20
174.5791679485
 30
0.0
 11
80.509363405
 21
174.7062711282
 31
0.0
  0
LINE
  5
336
330
1F
100
AcDbEntity
  8
0
  6
Continuous
 62
     7
370
    25
100
AcDbLine
 10
80.5784498449
 20
175.2015521986
 30
0.0
 11
81.621397018
 21
175.0743633373
 31
0.0
  0
SPLINE
  5
337
330
1F
100
AcDbEntity
  8
0
  6
Continuous
 62
     7
370
    25
100
AcDbSpline
210
0.0
220
0.0
230
1.0
 70
     8
 71
     3
 72
    12
 73
     8
 74
     0
 42
0.000000001
 43
0.00000001
 40
0.0
 40
0.0
 40
0.0
 40
0.0
 40
0.2146531609346981
 40
0.4293104649060449
 40
0.6438880252573363
 40
0.8585020929693125
 40
1.0
 40
1.0
 40
1.0
 40
1.0
 10
81.62139701802799
 20
175.0743633372543
 30
0.0
 10
81.61273159912352
 20
175.0188253914839
 30
0.0
 10
81.59540059406267
 20
174.9077484280012
 30
0.0
 10
81.57465525979549
 20
174.7593469257146
 30
0.0
 10
81.56000722233748
 20
174.6472066454885
 30
0.0
 10
81.55267597771773
 20
174.5876669229215
 30
0.0
 10
81.55193527055378
 20
174.5815846751818
 30
0.0
 10
81.55164095718929
 20
174.5791679484603
 30
0.0
  0
LINE
  5
338
330
1F
100
AcDbEntity
  8
0
  6
Continuous
 62
     7
370
    25
100
AcDbLine
 10
81.6249034475
 20
170.8057990534
 30
0.0
 11
80.5821676846
 21
170.6768965585
 31
0.0
  0
LINE
  5
339
330
1F
100
AcDbEntity
  8
0
  6
Continuous
 62
     7
370
    25
100
AcDbLine
 10
80.5122672688
 20
171.172062145
 30
0.0
 11
81.5543352734
 21
171.3008826835
 31
0.0
  0
SPLINE
  5
33A
330
1F
100
AcDbEntity
  8
0
  6
Continuous
 62
     7
370
    25
100
AcDbSpline
210
0.0
220
0.0
230
1.0
 70
     8
 71
     3
 72
    12
 73
     8
 74
     0
 42
0.000000001
 43
0.00000001
 40
0.0
 40
0.0
 40
0.0
 40
0.0
 40
0.2146605905799397
 40
0.4293247919847796
 40
0.643972583412176
 40
0.8585707872364645
 40
1.0
 40
1.0
 40
1.0
 40
1.0
 10
81.55433527339761
 20
171.3008826834914
 30
0.0
 10
81.55500782635828
 20
171.2953961625036
 30
0.0
 10
81.55635294359266
 20
171.2844230282386
 30
0.0
 10
81.56718579907498
 20
171.1989046050572
 30
0.0
 10
81.584216706054
 20
171.0731929794611
 30
0.0
 10
81.60450800607232
 20
170.9340422164007
 30
0.0
 10
81.6191049295041
 20
170.8422591757858
 30
0.0
 10
81.62490344752138
 20
170.8057990534064
 30
0.0
  0
LINE
  5
33B
330
1F
100
AcDbEntity
  8
0
  6
Continuous
 62
     7
370
    25
100
AcDbLine
 10
81.6498917635
 20
175.2455106241
 30
0.0
 11
80.6219994198
 21
175.4631122811
 31
0.0
  0
LINE
  5
33C
330
1F
100
AcDbEntity
  8
0
  6
Continuous
 62
     7
370
    25
100
AcDbLine
 10
80.7171163257
 20
175.9540571136
 30
0.0
 11
81.7443511557
 21
175.7365932925
 31
0.0
  0
SPLINE
  5
33D
330
1F
100
AcDbEntity
  8
0
  6
Continuous
 62
     7
370
    25
100
AcDbSpline
210
0.0
220
0.0
230
1.0
 70
     8
 71
     3
 72
    12
 73
     8
 74
     0
 42
0.000000001
 43
0.00000001
 40
0.0
 40
0.0
 40
0.0
 40
0.0
 40
0.214660192131366
 40
0.4293239161982262
 40
0.6439729381720058
 40
0.8585721953586445
 40
1.0
 40
1.0
 40
1.0
 40
1.0
 10
81.74435115565132
 20
175.7365932924506
 30
0.0
 10
81.74320095853193
 20
175.7311876923986
 30
0.0
 10
81.74090054536828
 20
175.7203764033528
 30
0.0
 10
81.72330164111774
 20
175.6359908997465
 30
0.0
 10
81.69847573095491
 20
175.5115824809917
 30
0.0
 10
81.67236077755899
 20
175.3734061918661
 30
0.0
 10
81.65627976681942
 20
175.2818716904161
 30
0.0
 10
81.64989176352093
 20
175.2455106241462
 30
0.0
  0
ARC
  5
33E
330
1F
100
AcDbEntity
  8
0
  6
Continuous
 62
     7
370
    25
100
AcDbCircle
 10
94.902729261
 20
172.9509928686
 30
0.0
 40
13.45000000000002
100
AcDbArc
 50
189.1775227814
 51
189.9166317426
  0
ARC
  5
33F
330
1F
100
AcDbEntity
  8
0
  6
Continuous
 62
     7
370
    25
100
AcDbCircle
 10
94.902729261
 20
172.9509928686
 30
0.0
 40
13.45000000000001
100
AcDbArc
 50
170.1775227814
 51
170.9166317426
  0
LINE
  5
340
330
1F
100
AcDbEntity
  8
0
  6
Continuous
 62
     7
370
    25
100
AcDbLine
 10
79.8354695659
 20
177.363211499
 30
0.0
 11
80.9079433899
 21
176.745193289
 31
0.0
  0
SPLINE
  5
341
330
1F
100
AcDbEntity
  8
0
  6
Continuous
 62
     7
370
    25
100
AcDbSpline
210
0.0
220
0.0
230
1.0
 70
     8
 71
     3
 72
    12
 73
     8
 74
     0
 42
0.000000001
 43
0.00000001
 40
0.0
 40
0.0
 40
0.0
 40
0.0
 40
0.2245281314259032
 40
0.4491522241058332
 40
0.6705508573741426
 40
0.884216597426627
 40
1.0
 40
1.0
 40
1.0
 40
1.0
 10
80.9079433899052
 20
176.7451932890174
 30
0.0
 10
80.89862228291678
 20
176.7105083140039
 30
0.0
 10
80.87997608518468
 20
176.6411235399383
 30
0.0
 10
80.85608570036509
 20
176.5487548698089
 30
0.0
 10
80.83883432697648
 20
176.4805691602458
 30
0.0
 10
80.83073305672409
 20
176.4479857921511
 30
0.0
 10
80.8300032424719
 20
176.4450446647973
 30
0.0
 10
80.82974675257276
 20
176.4440110189674
 30
0.0
  0
LINE
  5
342
330
1F
100
AcDbEntity
  8
0
  6
Continuous
 62
     7
370
    25
100
AcDbLine
 10
83.5480044704
 20
162.108471827
 30
0.0
 11
84.6194612901
 21
162.7282520993
 31
0.0
  0
SPLINE
  5
343
330
1F
100
AcDbEntity
  8
0
  6
Continuous
 62
     7
370
    25
100
AcDbSpline
210
0.0
220
0.0
230
1.0
 70
     8
 71
     3
 72
    12
 73
     8
 74
     0
 42
0.000000001
 43
0.00000001
 40
0.0
 40
0.0
 40
0.0
 40
0.0
 40
0.2245291704372957
 40
0.4491547902707713
 40
0.6705509658507555
 40
0.8842165379108131
 40
1.0
 40
1.0
 40
1.0
 40
1.0
 10
84.61946129013356
 20
162.7282520992514
 30
0.0
 10
84.64483933584067
 20
162.7028375164846
 30
0.0
 10
84.69560632872118
 20
162.6519974337895
 30
0.0
 10
84.76365554558528
 20
162.5851226679799
 30
0.0
 10
84.81407970340264
 20
162.536090616675
 30
0.0
 10
84.83824648265693
 20
162.5127828826658
 30
0.0
 10
84.8404297780681
 20
162.5106784912907
 30
0.0
 10
84.84119708795603
 20
162.5099389118907
 30
0.0
  0
LINE
  5
344
330
1F
100
AcDbEntity
  8
0
  6
Continuous
 62
     7
370
    25
100
AcDbLine
 10
91.1901939768
 20
188.2057359679
 30
0.0
 11
91.1912109811
 21
186.9679337604
 31
0.0
  0
SPLINE
  5
345
330
1F
100
AcDbEntity
  8
0
  6
Continuous
 62
     7
370
    25
100
AcDbSpline
210
0.0
220
0.0
230
1.0
 70
     8
 71
     3
 72
    12
 73
     8
 74
     0
 42
0.000000001
 43
0.00000001
 40
0.0
 40
0.0
 40
0.0
 40
0.0
 40
0.2245305679298747
 40
0.4491543205630437
 40
0.6705531545593655
 40
0.8842167609250908
 40
0.9999999999999999
 40
0.9999999999999999
 40
0.9999999999999999
 40
0.9999999999999999
 10
91.19121098105393
 20
186.9679337603804
 30
0.0
 10
91.15651240056103
 20
186.9586611981704
 30
0.0
 10
91.08710083896615
 20
186.9401122254505
 30
0.0
 10
90.99515855285989
 20
186.9146289604885
 30
0.0
 10
90.92748395944331
 20
186.8954632403774
 30
0.0
 10
90.89521589577237
 20
186.8861982800332
 30
0.0
 10
90.89230280851784
 20
186.8853567174035
 30
0.0
 10
90.8912790115603
 20
186.8850609524008
 30
0.0
  0
LINE
  5
346
330
1F
100
AcDbEntity
  8
0
  6
Continuous
 62
     7
370
    25
100
AcDbLine
 10
98.6152647171
 20
157.6962528987
 30
0.0
 11
98.61424748
 21
158.9340513808
 31
0.0
  0
SPLINE
  5
347
330
1F
100
AcDbEntity
  8
0
  6
Continuous
 62
     7
370
    25
100
AcDbSpline
210
0.0
220
0.0
230
1.0
 70
     8
 71
     3
 72
    12
 73
     8
 74
     0
 42
0.000000001
 43
0.00000001
 40
0.0
 40
0.0
 40
0.0
 40
0.0
 40
0.2245288918350698
 40
0.4491561277830307
 40
0.6705520324648468
 40
0.8842170423987568
 40
1.0
 40
1.0
 40
1.0
 40
1.0
 10
98.61424748000256
 20
158.9340513808484
 30
0.0
 10
98.64894639846067
 20
158.9433212720613
 30
0.0
 10
98.71835943357398
 20
158.9618651147183
 30
0.0
 10
98.81029846096547
 20
158.9873661409126
 30
0.0
 10
98.87797563579824
 20
159.0065113297369
 30
0.0
 10
98.91024265486413
 20
159.0157941795817
 30
0.0
 10
98.91315585253862
 20
159.0166303282598
 30
0.0
 10
98.91417968232683
 20
159.016924188828
 30
0.0
  0
LINE
  5
348
330
1F
100
AcDbEntity
  8
0
  6
Continuous
 62
     7
370
    25
100
AcDbLine
 10
106.2574532922
 20
183.7935095889
 30
0.0
 11
105.1859974038
 21
183.173733042
 31
0.0
  0
SPLINE
  5
349
330
1F
100
AcDbEntity
  8
0
  6
Continuous
 62
     7
370
    25
100
AcDbSpline
210
0.0
220
0.0
230
1.0
 70
     8
 71
     3
 72
    12
 73
     8
 74
     0
 42
0.000000001
 43
0.00000001
 40
0.0
 40
0.0
 40
0.0
 40
0.0
 40
0.2245343520332679
 40
0.4491549372500664
 40
0.6705553635637301
 40
0.8842168016476939
 40
1.0
 40
1.0
 40
1.0
 40
1.0
 10
105.1859974037536
 20
183.1737330419774
 30
0.0
 10
105.1606196661364
 20
183.1991494814748
 30
0.0
 10
105.1098544444955
 20
183.2499921217397
 30
0.0
 10
105.0418015741073
 20
183.3168605117238
 30
0.0
 10
104.991379123397
 20
183.3659018018373
 30
0.0
 10
104.9672106321317
 20
183.3891972582348
 30
0.0
 10
104.9650285114542
 20
183.3913025870108
 30
0.0
 10
104.9642616059311
 20
183.3920425040478
 30
0.0
  0
LINE
  5
34A
330
1F
100
AcDbEntity
  8
0
  6
Continuous
 62
     7
370
    25
100
AcDbLine
 10
109.969989128
 20
168.5387736423
 30
0.0
 11
108.897515304
 21
169.1567918522
 31
0.0
  0
SPLINE
  5
34B
330
1F
100
AcDbEntity
  8
0
  6
Continuous
 62
     7
370
    25
100
AcDbSpline
210
0.0
220
0.0
230
1.0
 70
     8
 71
     3
 72
    12
 73
     8
 74
     0
 42
0.000000001
 43
0.00000001
 40
0.0
 40
0.0
 40
0.0
 40
0.0
 40
0.2245276314156869
 40
0.449157822237975
 40
0.6705509904481195
 40
0.8842160847954688
 40
0.9999999999999999
 40
0.9999999999999999
 40
0.9999999999999999
 40
0.9999999999999999
 10
108.8975153039819
 20
169.1567918522114
 30
0.0
 10
108.9068365085575
 20
169.1914766354828
 30
0.0
 10
108.9254831754351
 20
169.2608620452905
 30
0.0
 10
108.9493721025958
 20
169.353233638626
 30
0.0
 10
108.9666252015677
 20
169.4214161223638
 30
0.0
 10
108.9747240444168
 20
169.4539975355617
 30
0.0
 10
108.9754550363007
 20
169.4569427576464
 30
0.0
 10
108.9757119413144
 20
169.4579778475518
 30
0.0
  0
LINE
  5
34C
330
1F
100
AcDbEntity
  8
0
  6
Continuous
 62
     7
370
    25
100
AcDbLine
 10
80.914197221
 20
169.1337993605
 30
0.0
 11
79.8427404012
 21
168.5140190882
 31
0.0
  0
SPLINE
  5
34D
330
1F
100
AcDbEntity
  8
0
  6
Continuous
 62
     7
370
    25
100
AcDbSpline
210
0.0
220
0.0
230
1.0
 70
     8
 71
     3
 72
    12
 73
     8
 74
     0
 42
0.000000001
 43
0.00000001
 40
0.0
 40
0.0
 40
0.0
 40
0.0
 40
0.2048404774603839
 40
0.4095553396786193
 40
0.6178839333378472
 40
0.8338082641580968
 40
1.0
 40
1.0
 40
1.0
 40
1.0
 10
80.83550605137411
 20
169.4348549706695
 30
0.0
 10
80.83629722962638
 20
169.4316831111527
 30
0.0
 10
80.8378791009531
 20
169.4253413372127
 30
0.0
 10
80.8502547244284
 20
169.376171259365
 30
0.0
 10
80.86893424873692
 20
169.3034090767733
 30
0.0
 10
80.89129655786823
 20
169.2182648651777
 30
0.0
 10
80.90725604499843
 20
169.1594007996425
 30
0.0
 10
80.91419722099367
 20
169.1337993604896
 30
0.0
  0
LINE
  5
34E
330
1F
100
AcDbEntity
  8
0
  6
Continuous
 62
     7
370
    25
100
AcDbLine
 10
84.6026760634
 20
183.156820224
 30
0.0
 11
83.5302022393
 21
183.774838434
 31
0.0
  0
SPLINE
  5
34F
330
1F
100
AcDbEntity
  8
0
  6
Continuous
 62
     7
370
    25
100
AcDbSpline
210
0.0
220
0.0
230
1.0
 70
     8
 71
     3
 72
    12
 73
     8
 74
     0
 42
0.000000001
 43
0.00000001
 40
0.0
 40
0.0
 40
0.0
 40
0.0
 40
0.2048385946287088
 40
0.4095516030084559
 40
0.6178821121930642
 40
0.8338131265150147
 40
1.0
 40
1.0
 40
1.0
 40
1.0
 10
84.82405237068016
 20
183.3754947645423
 30
0.0
 10
84.82170089205975
 20
183.37322570884
 30
0.0
 10
84.8169993765071
 20
183.3686889885901
 30
0.0
 10
84.78060693671668
 20
183.3333848715239
 30
0.0
 10
84.7269300735023
 20
183.2808263505771
 30
0.0
 10
84.66437552439237
 20
183.218884481147
 30
0.0
 10
84.62137668617586
 20
183.1756314136653
 30
0.0
 10
84.60267606337148
 20
183.1568202240226
 30
0.0
  0
LINE
  5
350
330
1F
100
AcDbEntity
  8
0
  6
Continuous
 62
     7
370
    25
100
AcDbLine
 10
91.2142500389
 20
158.9279717071
 30
0.0
 11
91.2152670432
 21
157.6901732249
 31
0.0
  0
SPLINE
  5
351
330
1F
100
AcDbEntity
  8
0
  6
Continuous
 62
     7
370
    25
100
AcDbSpline
210
0.0
220
0.0
230
1.0
 70
     8
 71
     3
 72
    12
 73
     8
 74
     0
 42
0.000000001
 43
0.00000001
 40
0.0
 40
0.0
 40
0.0
 40
0.0
 40
0.2048404855747171
 40
0.4095539415971943
 40
0.6178850356334428
 40
0.8338122262413769
 40
1.0
 40
1.0
 40
1.0
 40
1.0
 10
90.91418232914559
 20
159.0103527767416
 30
0.0
 10
90.91732506579463
 20
159.0094516344135
 30
0.0
 10
90.92360859015946
 20
159.0076499085907
 30
0.0
 10
90.97237657503045
 20
158.9937811574481
 30
0.0
 10
91.04473374048783
 20
158.9735809597431
 30
0.0
 10
91.12965041194231
 20
158.9503688351714
 30
0.0
 10
91.18860832186012
 20
158.9347601627958
 30
0.0
 10
91.21425003890447
 20
158.9279717070814
 30
0.0
  0
LINE
  5
352
330
1F
100
AcDbEntity
  8
0
  6
Continuous
 62
     7
370
    25
100
AcDbLine
 10
98.5912084222
 20
186.9740134341
 30
0.0
 11
98.5901914179
 21
188.2118156416
 31
0.0
  0
SPLINE
  5
353
330
1F
100
AcDbEntity
  8
0
  6
Continuous
 62
     7
370
    25
100
AcDbSpline
210
0.0
220
0.0
230
1.0
 70
     8
 71
     3
 72
    12
 73
     8
 74
     0
 42
0.000000001
 43
0.00000001
 40
0.0
 40
0.0
 40
0.0
 40
0.0
 40
0.2048404281699323
 40
0.4095543605302817
 40
0.617886331231376
 40
0.8338102205268014
 40
1.0
 40
1.0
 40
1.0
 40
1.0
 10
98.8912761319109
 20
186.8916323644872
 30
0.0
 10
98.88813356864974
 20
186.8925336799069
 30
0.0
 10
98.88185038276524
 20
186.8943357541538
 30
0.0
 10
98.83308102088017
 20
186.9082019431708
 30
0.0
 10
98.76072649091671
 20
186.9284120439602
 30
0.0
 10
98.67580645158121
 20
186.9516094889499
 30
0.0
 10
98.61684993124665
 20
186.9672228390424
 30
0.0
 10
98.59120842215202
 20
186.9740134341474
 30
0.0
  0
LINE
  5
354
330
1F
100
AcDbEntity
  8
0
  6
Continuous
 62
     7
370
    25
100
AcDbLine
 10
105.2027826305
 20
162.7451649172
 30
0.0
 11
106.2752555232
 21
162.1271467073
 31
0.0
  0
SPLINE
  5
355
330
1F
100
AcDbEntity
  8
0
  6
Continuous
 62
     7
370
    25
100
AcDbSpline
210
0.0
220
0.0
230
1.0
 70
     8
 71
     3
 72
    12
 73
     8
 74
     0
 42
0.000000001
 43
0.00000001
 40
0.0
 40
0.0
 40
0.0
 40
0.0
 40
0.2048405240420318
 40
0.4095543063631162
 40
0.6178856031654446
 40
0.8338111334400715
 40
1.0
 40
1.0
 40
1.0
 40
1.0
 10
104.9814053918844
 20
162.5264903766865
 30
0.0
 10
104.9837572371657
 20
162.5287609997661
 30
0.0
 10
104.9884594725627
 20
162.5333008410145
 30
0.0
 10
105.0248517814222
 20
162.5686035813621
 30
0.0
 10
105.0785277468714
 20
162.6211626190619
 30
0.0
 10
105.1410831676338
 20
162.683101201802
 30
0.0
 10
105.1840817317827
 20
162.7263536147645
 30
0.0
 10
105.2027826305157
 20
162.7451649172062
 30
0.0
  0
LINE
  5
356
330
1F
100
AcDbEntity
  8
0
  6
Continuous
 62
     7
370
    25
100
AcDbLine
 10
108.8912614729
 20
176.7681857807
 30
0.0
 11
109.9627182927
 21
177.387966053
 31
0.0
  0
SPLINE
  5
357
330
1F
100
AcDbEntity
  8
0
  6
Continuous
 62
     7
370
    25
100
AcDbSpline
210
0.0
220
0.0
230
1.0
 70
     8
 71
     3
 72
    12
 73
     8
 74
     0
 42
0.000000001
 43
0.00000001
 40
0.0
 40
0.0
 40
0.0
 40
0.0
 40
0.2048406212614511
 40
0.4095556271925699
 40
0.6178847268723253
 40
0.8338161190016173
 40
1.0
 40
1.0
 40
1.0
 40
1.0
 10
108.969952642513
 20
176.4671301705594
 30
0.0
 10
108.9691614314337
 20
176.47030202114
 30
0.0
 10
108.967579494473
 20
176.4766437772131
 30
0.0
 10
108.9552043587101
 20
176.5258140184175
 30
0.0
 10
108.9365226772667
 20
176.598576534759
 30
0.0
 10
108.9141620766484
 20
176.6837220229332
 30
0.0
 10
108.8982024123069
 20
176.7425856772733
 30
0.0
 10
108.8912614728935
 20
176.7681857807393
 30
0.0
  0
ARC
  5
358
330
1F
100
AcDbEntity
  8
0
  6
Continuous
 62
     7
370
    25
100
AcDbCircle
 10
94.902729261
 20
172.9509928686
 30
0.0
 40
14.5
100
AcDbArc
 50
195.2632755473
 51
224.8308789768
  0
ARC
  5
359
330
1F
100
AcDbEntity
  8
0
  6
Continuous
 62
     7
370
    25
100
AcDbCircle
 10
94.902729261
 20
172.9509928686
 30
0.0
 40
14.50000000000002
100
AcDbArc
 50
135.2632755473
 51
164.8308789768
  0
ARC
  5
35A
330
1F
100
AcDbEntity
  8
0
  6
Continuous
 62
     7
370
    25
100
AcDbCircle
 10
94.902729261
 20
172.9509928686
 30
0.0
 40
14.5
100
AcDbArc
 50
255.2632755473
 51
284.8308789768
  0
ARC
  5
35B
330
1F
100
AcDbEntity
  8
0
  6
Continuous
 62
     7
370
    25
100
AcDbCircle
 10
94.902729261
 20
172.9509928686
 30
0.0
 40
14.50000000000002
100
AcDbArc
 50
75.2632755473
 51
104.8308789768
  0
ARC
  5
35C
330
1F
100
AcDbEntity
  8
0
  6
Continuous
 62
     7
370
    25
100
AcDbCircle
 10
94.902729261
 20
172.9509928686
 30
0.0
 40
14.50000000000002
100
AcDbArc
 50
315.2632755473
 51
344.8308789768
  0
ARC
  5
35D
330
1F
100
AcDbEntity
  8
0
  6
Continuous
 62
     7
370
    25
100
AcDbCircle
 10
94.902729261
 20
172.9509928686
 30
0.0
 40
14.50000000000002
100
AcDbArc
 50
15.2632755473
 51
44.8308789768
  0
SPLINE
  5
35E
330
1F
100
AcDbEntity
  8
0
  6
Continuous
 62
     7
370
    25
100
AcDbSpline
210
0.0
220
0.0
230
1.0
 70
     8
 71
     3
 72
    12
 73
     8
 74
     0
 42
0.000000001
 43
0.00000001
 40
0.0
 40
0.0
 40
0.0
 40
0.0
 40
0.2128459959793861
 40
0.4256766063108224
 40
0.6401665396840963
 40
0.8557783578059387
 40
1.0
 40
1.0
 40
1.0
 40
1.0
 10
111.6527232449181
 20
172.9647537929768
 30
0.0
 10
111.6478001820136
 20
173.2438815884728
 30
0.0
 10
111.63795441207
 20
173.8021170026136
 30
0.0
 10
111.5716109527369
 20
174.547222672418
 30
0.0
 10
111.4978240059298
 20
175.1140804703332
 30
0.0
 10
111.4473303283289
 20
175.420247785987
 30
0.0
 10
111.4418938267051
 20
175.4518955765602
 30
0.0
 10
111.4397148709423
 20
175.4645800454373
 30
0.0
  0
LWPOLYLINE
  5
35F
330
1F
100
AcDbEntity
  8
0
  6
Continuous
 62
     7
370
    25
100
AcDbPolyline
 90
        9
 70
   128
 43
0.0
 10
111.6527232449
 20
172.964753793
 10
111.6819872629
 20
172.96477987
 10
111.7101262431
 20
172.9648022218
 10
111.7360598515
 20
172.9648245735
 10
111.7587897103
 20
172.9648431999
 10
111.7774441015
 20
172.9648581011
 10
111.7913059067
 20
172.964869277
 10
111.7998405467
 20
172.9648767276
 10
111.8027239214
 20
172.9648804528
  0
SPLINE
  5
360
330
1F
100
AcDbEntity
  8
0
  6
Continuous
 62
     7
370
    25
100
AcDbSpline
210
0.0
220
0.0
230
1.0
 70
     8
 71
     3
 72
    12
 73
     8
 74
     0
 42
0.000000001
 43
0.00000001
 40
0.0
 40
0.0
 40
0.0
 40
0.0
 40
0.1436170083514863
 40
0.3585537504526087
 40
0.5729090816474506
 40
0.7862315979243917
 40
1.0
 40
1.0
 40
1.0
 40
1.0
 10
111.5876815389521
 20
175.6384356183762
 30
0.0
 10
111.5898824559357
 20
175.6248609596307
 30
0.0
 10
111.5953772580343
 20
175.5909705112767
 30
0.0
 10
111.6464185876238
 20
175.2629660889484
 30
0.0
 10
111.7209212275272
 20
174.6562411594146
 30
0.0
 10
111.7878174313554
 20
173.8595089797531
 30
0.0
 10
111.7977516342807
 20
173.2632974447699
 30
0.0
 10
111.8027239214308
 20
172.9648804528469
 30
0.0
  0
SPLINE
  5
361
330
1F
100
AcDbEntity
  8
0
  6
Continuous
 62
     7
370
    25
100
AcDbSpline
210
0.0
220
0.0
230
1.0
 70
     8
 71
     3
 72
    12
 73
     8
 74
     0
 42
0.000000001
 43
0.00000001
 40
0.0
 40
0.0
 40
0.0
 40
0.0
 40
0.2128268848866068
 40
0.4256377466640153
 40
0.6401518550194155
 40
0.8557543736775877
 40
1.0
 40
1.0
 40
1.0
 40
1.0
 10
111.4438220034963
 20
170.4645848138088
 30
0.0
 10
111.4485591387077
 20
170.4918769410593
 30
0.0
 10
111.4580330524854
 20
170.5464591408163
 30
0.0
 10
111.5239500048192
 20
170.9715140055444
 30
0.0
 10
111.5966360863598
 20
171.5997438507592
 30
0.0
 10
111.6457871383951
 20
172.3056438422837
 30
0.0
 10
111.6507384891313
 20
172.7761505348819
 30
0.0
 10
111.6527232449181
 20
172.9647537929768
 30
0.0
  0
SPLINE
  5
362
330
1F
100
AcDbEntity
  8
0
  6
Continuous
 62
     7
370
    25
100
AcDbSpline
210
0.0
220
0.0
230
1.0
 70
     8
 71
     3
 72
    12
 73
     8
 74
     0
 42
0.000000001
 43
0.00000001
 40
0.0
 40
0.0
 40
0.0
 40
0.0
 40
0.1448949333052917
 40
0.3611725337314498
 40
0.5757503198852699
 40
0.788039379128074
 40
1.0
 40
1.0
 40
1.0
 40
1.0
 10
111.8027239214308
 20
172.9648804528469
 30
0.0
 10
111.800732307282
 20
172.7632068449578
 30
0.0
 10
111.7957679078244
 20
172.2605048781845
 30
0.0
 10
111.7463017764402
 20
171.5061499894966
 30
0.0
 10
111.6730021830949
 20
170.8339271207626
 30
0.0
 10
111.6064370175803
 20
170.3786969561668
 30
0.0
 10
111.596860213764
 20
170.3202006301798
 30
0.0
 10
111.5920755188591
 20
170.2909751100296
 30
0.0
  0
LINE
  5
363
330
1F
100
AcDbEntity
  8
0
  6
Continuous
 62
     7
370
    25
100
AcDbLine
 10
111.5027244311
 20
172.9646308584
 30
0.0
 11
111.6527232449
 21
172.964753793
 31
0.0
  0
SPLINE
  5
364
330
1F
100
AcDbEntity
  8
0
  6
Continuous
 62
     7
370
    25
100
AcDbSpline
210
0.0
220
0.0
230
1.0
 70
     8
 71
     3
 72
     9
 73
     5
 74
     0
 42
0.000000001
 43
0.00000001
 40
0.0
 40
0.0
 40
0.0
 40
0.0
 40
0.4805538393476988
 40
0.9999999999999999
 40
0.9999999999999999
 40
0.9999999999999999
 40
0.9999999999999999
 10
78.66554773558443
 20
171.0259301824329
 30
0.0
 10
78.69614873529859
 20
170.8628403719922
 30
0.0
 10
78.75982734362208
 20
170.5234615197454
 30
0.0
 10
78.77410018649728
 20
170.4670503750362
 30
0.0
 10
78.7815141599304
 20
170.437747822499
 30
0.0
  0
SPLINE
  5
365
330
1F
100
AcDbEntity
  8
0
  6
Continuous
 62
     7
370
    25
100
AcDbSpline
210
0.0
220
0.0
230
1.0
 70
     8
 71
     3
 72
    10
 73
     6
 74
     0
 42
0.000000001
 43
0.00000001
 40
0.0
 40
0.0
 40
0.0
 40
0.0
 40
0.3763866688923195
 40
0.7531806789381563
 40
1.0
 40
1.0
 40
1.0
 40
1.0
 10
78.42647723068066
 20
172.93745486567
 30
0.0
 10
78.4373333509403
 20
172.6630185387337
 30
0.0
 10
78.45905734040001
 20
172.1138488785663
 30
0.0
 10
78.58439379460096
 20
171.4618447323286
 30
0.0
 10
78.64253577645685
 20
171.149537830857
 30
0.0
 10
78.66554773558443
 20
171.0259301824329
 30
0.0
  0
LINE
  5
366
330
1F
100
AcDbEntity
  8
0
  6
Continuous
 62
     7
370
    25
100
AcDbLine
 10
78.4264772307
 20
172.9374548657
 30
0.0
 11
79.4027342569
 21
172.9382558031
 31
0.0
  0
SPLINE
  5
367
330
1F
100
AcDbEntity
  8
0
  6
Continuous
 62
     7
370
    25
100
AcDbSpline
210
0.0
220
0.0
230
1.0
 70
     8
 71
     3
 72
    10
 73
     6
 74
     0
 42
0.000000001
 43
0.00000001
 40
0.0
 40
0.0
 40
0.0
 40
0.0
 40
0.3892852084613814
 40
0.7782383889411412
 40
1.0
 40
1.0
 40
1.0
 40
1.0
 10
78.66240545321772
 20
174.8493669790981
 30
0.0
 10
78.62331830087469
 20
174.6467520198861
 30
0.0
 10
78.54517733428627
 20
174.2416949152103
 30
0.0
 10
78.43938701071156
 20
173.5425726931277
 30
0.0
 10
78.42991623941309
 20
173.0986509114423
 30
0.0
 10
78.42647723068066
 20
172.93745486567
 30
0.0
  0
SPLINE
  5
368
330
1F
100
AcDbEntity
  8
0
  6
Continuous
 62
     7
370
    25
100
AcDbSpline
210
0.0
220
0.0
230
1.0
 70
     8
 71
     3
 72
     9
 73
     5
 74
     0
 42
0.000000001
 43
0.00000001
 40
0.0
 40
0.0
 40
0.0
 40
0.0
 40
0.4763239002000654
 40
1.0
 40
1.0
 40
1.0
 40
1.0
 10
78.77740516473125
 20
175.4377430541275
 30
0.0
 10
78.77123004325847
 20
175.4132113831075
 30
0.0
 10
78.7582659205886
 20
175.3617093043547
 30
0.0
 10
78.6953519801629
 20
175.0254552111627
 30
0.0
 10
78.66240545321772
 20
174.8493669790981
 30
0.0
  0
ARC
  5
369
330
1F
100
AcDbEntity
  8
0
  6
Continuous
 62
     7
370
    25
100
AcDbCircle
 10
78.6375350219
 20
170.5598798478
 30
0.0
 40
0.4668914505030289
100
AcDbArc
 50
86.5602823081
 51
178.3602071928
  0
SPLINE
  5
36A
330
1F
100
AcDbEntity
  8
0
  6
Continuous
 62
     7
370
    25
100
AcDbSpline
210
0.0
220
0.0
230
1.0
 70
     8
 71
     3
 72
     9
 73
     5
 74
     0
 42
0.000000001
 43
0.00000001
 40
0.0
 40
0.0
 40
0.0
 40
0.0
 40
0.5179857264262913
 40
1.0
 40
1.0
 40
1.0
 40
1.0
 10
78.29043707956139
 20
169.8458774251697
 30
0.0
 10
78.28273338270672
 20
169.8824882911752
 30
0.0
 10
78.26786097124509
 20
169.9531675862557
 30
0.0
 10
78.20239183164834
 20
170.3715662351388
 30
0.0
 10
78.17083477188413
 20
170.5732403559444
 30
0.0
  0
ARC
  5
36B
330
1F
100
AcDbEntity
  8
0
  6
Continuous
 62
     7
370
    25
100
AcDbCircle
 10
78.6336342477
 20
175.3153786002
 30
0.0
 40
0.4668989325674978
100
AcDbArc
 50
181.734715902
 51
273.532913868
  0
SPLINE
  5
36C
330
1F
100
AcDbEntity
  8
0
  6
Continuous
 62
     7
370
    25
100
AcDbSpline
210
0.0
220
0.0
230
1.0
 70
     8
 71
     3
 72
     9
 73
     5
 74
     0
 42
0.000000001
 43
0.00000001
 40
0.0
 40
0.0
 40
0.0
 40
0.0
 40
0.5250791984783446
 40
1.0
 40
1.0
 40
1.0
 40
1.0
 10
78.16694929410289
 20
175.3012446923015
 30
0.0
 10
78.20086666249613
 20
175.5189789010588
 30
0.0
 10
78.26546142932656
 20
175.9336481726434
 30
0.0
 10
78.27894985138101
 20
175.9981647831085
 30
0.0
 10
78.28535578359435
 20
176.028805063462
 30
0.0
  0
LINE
  5
36D
330
1F
100
AcDbEntity
  8
0
  6
Continuous
 62
     7
370
    25
100
AcDbLine
 10
87.1637614552
 20
159.521235363
 30
0.0
 11
86.676327243
 21
158.6753709478
 31
0.0
  0
SPLINE
  5
36E
330
1F
100
AcDbEntity
  8
0
  6
Continuous
 62
     7
370
    25
100
AcDbSpline
210
0.0
220
0.0
230
1.0
 70
     8
 71
     3
 72
    11
 73
     7
 74
     0
 42
0.000000001
 43
0.00000001
 40
0.0
 40
0.0
 40
0.0
 40
0.0
 40
0.2587628252862048
 40
0.5185174053311771
 40
0.7829285477450437
 40
1.0
 40
1.0
 40
1.0
 40
1.0
 10
86.67632724304251
 20
158.6753709478137
 30
0.0
 10
86.7745832690599
 20
158.6233536064065
 30
0.0
 10
86.97147190486895
 20
158.5191195578375
 30
0.0
 10
87.25237048296907
 20
158.4177439843195
 30
0.0
 10
87.46969723831887
 20
158.3544237593759
 30
0.0
 10
87.54253391238403
 20
158.329328819617
 30
0.0
 10
87.57537157420568
 20
158.3180150253531
 30
0.0
  0
SPLINE
  5
36F
330
1F
100
AcDbEntity
  8
0
  6
Continuous
 62
     7
370
    25
100
AcDbSpline
210
0.0
220
0.0
230
1.0
 70
     8
 71
     3
 72
    11
 73
     7
 74
     0
 42
0.000000001
 43
0.00000001
 40
0.0
 40
0.0
 40
0.0
 40
0.0
 40
0.2587640497472798
 40
0.5185178494750011
 40
0.7829281015320807
 40
1.0
 40
1.0
 40
1.0
 40
1.0
 10
103.1525793593054
 20
158.6889086527581
 30
0.0
 10
103.2467562785114
 20
158.7479923928177
 30
0.0
 10
103.4354703354469
 20
158.8663858631028
 30
0.0
 10
103.6637137687233
 20
159.0589632920026
 30
0.0
 10
103.8272098667398
 20
159.2155151370289
 30
0.0
 10
103.8853638923396
 20
159.2660448226788
 30
0.0
 10
103.9115821119075
 20
159.2888256771321
 30
0.0
  0
LINE
  5
370
330
1F
100
AcDbEntity
  8
0
  6
Continuous
 62
     7
370
    25
100
AcDbLine
 10
103.1525793593
 20
158.6889086528
 30
0.0
 11
102.6637560796
 21
159.5339721305
 31
0.0
  0
LINE
  5
371
330
1F
100
AcDbEntity
  8
0
  6
Continuous
 62
     7
370
    25
100
AcDbLine
 10
102.6416977044
 20
186.3807535035
 30
0.0
 11
103.1291314508
 21
187.2266179187
 31
0.0
  0
SPLINE
  5
372
330
1F
100
AcDbEntity
  8
0
  6
Continuous
 62
     7
370
    25
100
AcDbSpline
210
0.0
220
0.0
230
1.0
 70
     8
 71
     3
 72
    11
 73
     7
 74
     0
 42
0.000000001
 43
0.00000001
 40
0.0
 40
0.0
 40
0.0
 40
0.0
 40
0.2587629387662013
 40
0.51851793197512
 40
0.7829285995185001
 40
1.0
 40
1.0
 40
1.0
 40
1.0
 10
103.1291314508446
 20
187.2266179187054
 30
0.0
 10
103.0308754260924
 20
187.2786351652371
 30
0.0
 10
102.8339866791893
 20
187.3828690838469
 30
0.0
 10
102.5530881959774
 20
187.4842460258939
 30
0.0
 10
102.3357606640856
 20
187.5475604369021
 30
0.0
 10
102.2629245549127
 20
187.5726560213043
 30
0.0
 10
102.2300871196815
 20
187.5839701158757
 30
0.0
  0
SPLINE
  5
373
330
1F
100
AcDbEntity
  8
0
  6
Continuous
 62
     7
370
    25
100
AcDbSpline
210
0.0
220
0.0
230
1.0
 70
     8
 71
     3
 72
    11
 73
     7
 74
     0
 42
0.000000001
 43
0.00000001
 40
0.0
 40
0.0
 40
0.0
 40
0.0
 40
0.2610109952776639
 40
0.5228792946328112
 40
0.7887110134094288
 40
1.0
 40
1.0
 40
1.0
 40
1.0
 10
85.91633915115646
 20
159.2740399999377
 30
0.0
 10
85.94907410414265
 20
159.2451798605293
 30
0.0
 10
86.0146515297566
 20
159.187364789096
 30
0.0
 10
86.19957913018459
 20
159.0130034525078
 30
0.0
 10
86.42499011237756
 20
158.8301499824596
 30
0.0
 10
86.59918601703833
 20
158.7228762426371
 30
0.0
 10
86.67632724304251
 20
158.6753709478137
 30
0.0
  0
SPLINE
  5
374
330
1F
100
AcDbEntity
  8
0
  6
Continuous
 62
     7
370
    25
100
AcDbSpline
210
0.0
220
0.0
230
1.0
 70
     8
 71
     3
 72
    11
 73
     7
 74
     0
 42
0.000000001
 43
0.00000001
 40
0.0
 40
0.0
 40
0.0
 40
0.0
 40
0.2610112789327983
 40
0.5228782258184306
 40
0.7887115326892872
 40
1.0
 40
1.0
 40
1.0
 40
1.0
 10
102.2541236240094
 20
158.3300737900491
 30
0.0
 10
102.2954851070082
 20
158.3439929207352
 30
0.0
 10
102.3783436675121
 20
158.3718768129096
 30
0.0
 10
102.6218055619513
 20
158.4448503025984
 30
0.0
 10
102.8928691933278
 20
158.5486320644153
 30
0.0
 10
103.0728685130585
 20
158.6458546370504
 30
0.0
 10
103.1525793593054
 20
158.6889086527581
 30
0.0
  0
SPLINE
  5
375
330
1F
100
AcDbEntity
  8
0
  6
Continuous
 62
     7
370
    25
100
AcDbSpline
210
0.0
220
0.0
230
1.0
 70
     8
 71
     3
 72
    11
 73
     7
 74
     0
 42
0.000000001
 43
0.00000001
 40
0.0
 40
0.0
 40
0.0
 40
0.0
 40
0.2610109833946697
 40
0.5228760626492757
 40
0.7887110230287393
 40
1.0
 40
1.0
 40
1.0
 40
1.0
 10
103.8891186114081
 20
186.6279488665814
 30
0.0
 10
103.8563839266808
 20
186.6568097429824
 30
0.0
 10
103.7908074408192
 20
186.7146259360823
 30
0.0
 10
103.6058762964246
 20
186.8889755910847
 30
0.0
 10
103.3804705708519
 20
187.0718398772092
 30
0.0
 10
103.2062729228222
 20
187.1791131532297
 30
0.0
 10
103.1291314508446
 20
187.2266179187054
 30
0.0
  0
SPLINE
  5
376
330
1F
100
AcDbEntity
  8
0
  6
Continuous
 62
     7
370
    25
100
AcDbSpline
210
0.0
220
0.0
230
1.0
 70
     8
 71
     3
 72
    10
 73
     6
 74
     0
 42
0.000000001
 43
0.00000001
 40
0.0
 40
0.0
 40
0.0
 40
0.0
 40
0.2263007121857886
 40
0.618318737425351
 40
1.0
 40
1.0
 40
1.0
 40
1.0
 10
77.9315612386591
 20
172.9370488090274
 30
0.0
 10
77.93489802210962
 20
173.1360089704991
 30
0.0
 10
77.94401507574263
 20
173.6796254472256
 30
0.0
 10
78.04646121512819
 20
174.5360565891782
 30
0.0
 10
78.12714592187822
 20
175.0484639429554
 30
0.0
 10
78.16694929410289
 20
175.3012446923015
 30
0.0
  0
LWPOLYLINE
  5
377
330
1F
100
AcDbEntity
  8
0
  6
Continuous
 62
     7
370
    25
100
AcDbPolyline
 90
        9
 70
   128
 43
0.0
 10
77.9315612387
 20
172.937048809
 10
77.9520540606
 20
172.9370637102
 10
77.9876231324
 20
172.9370935125
 10
78.0371415537
 20
172.9371344907
 10
78.099031664
 20
172.9371866448
 10
78.1713302355
 20
172.9372462494
 10
78.2517350387
 20
172.9373133046
 10
78.3376961123
 20
172.9373803599
 10
78.4264772307
 20
172.9374548657
  0
SPLINE
  5
378
330
1F
100
AcDbEntity
  8
0
  6
Continuous
 62
     7
370
    25
100
AcDbSpline
210
0.0
220
0.0
230
1.0
 70
     8
 71
     3
 72
    10
 73
     6
 74
     0
 42
0.000000001
 43
0.00000001
 40
0.0
 40
0.0
 40
0.0
 40
0.0
 40
0.2406131268226744
 40
0.6166745965529022
 40
1.0
 40
1.0
 40
1.0
 40
1.0
 10
78.17083477188413
 20
170.5732403559444
 30
0.0
 10
78.14724768815759
 20
170.7269083845177
 30
0.0
 10
78.08679564411078
 20
171.1207487820675
 30
0.0
 10
77.96306661880325
 20
171.9294777279739
 30
0.0
 10
77.94212978929215
 20
172.5990568236018
 30
0.0
 10
77.9315612386591
 20
172.9370488090274
 30
0.0
  0
ARC
  5
379
330
1F
100
AcDbEntity
  8
0
  6
Continuous
 62
     7
370
    25
100
AcDbCircle
 10
85.4867063131
 20
159.5130832049
 30
0.0
 40
0.4916564139852324
100
AcDbArc
 50
236.4466123322
 51
330.9088960391
  0
ARC
  5
37A
330
1F
100
AcDbEntity
  8
0
  6
Continuous
 62
     7
370
    25
100
AcDbCircle
 10
87.9976224065
 20
158.0661573247
 30
0.0
 40
0.4916584858649545
100
AcDbArc
 50
149.1854168657
 51
243.6475951745
  0
ARC
  5
37B
330
1F
100
AcDbEntity
  8
0
  6
Continuous
 62
     7
370
    25
100
AcDbCircle
 10
101.8322885342
 20
158.0775239384
 30
0.0
 40
0.4916566592129743
100
AcDbArc
 50
296.4464887676
 51
30.908675476
  0
ARC
  5
37C
330
1F
100
AcDbEntity
  8
0
  6
Continuous
 62
     7
370
    25
100
AcDbCircle
 10
104.3408204445
 20
159.5285736552
 30
0.0
 40
0.4916550000983139
100
AcDbArc
 50
209.1852274056
 51
303.6479157615
  0
ARC
  5
37D
330
1F
100
AcDbEntity
  8
0
  6
Continuous
 62
     7
370
    25
100
AcDbCircle
 10
101.8078377205
 20
187.8358258685
 30
0.0
 40
0.4916562572064585
100
AcDbArc
 50
329.1855262881
 51
63.6476528867
  0
ARC
  5
37E
330
1F
100
AcDbEntity
  8
0
  6
Continuous
 62
     7
370
    25
100
AcDbCircle
 10
104.3187508122
 20
186.3889008204
 30
0.0
 40
0.4916582108973087
100
AcDbArc
 50
56.4465318681
 51
150.9083669349
  0
SPLINE
  5
37F
330
1F
100
AcDbEntity
  8
0
  6
Continuous
 62
     7
370
    25
100
AcDbSpline
210
0.0
220
0.0
230
1.0
 70
     8
 71
     3
 72
    11
 73
     7
 74
     0
 42
0.000000001
 43
0.00000001
 40
0.0
 40
0.0
 40
0.0
 40
0.0
 40
0.2194554671128892
 40
0.4903783727204752
 40
0.749091540348679
 40
1.0
 40
1.0
 40
1.0
 40
1.0
 10
86.42922128696492
 20
158.246556506848
 30
0.0
 10
86.30959712726914
 20
158.3184149491696
 30
0.0
 10
86.04229414529559
 20
158.4789843187801
 30
0.0
 10
85.68260127337558
 20
158.7367955301516
 30
0.0
 10
85.37720431557446
 20
158.9792978932291
 30
0.0
 10
85.2684871488835
 20
159.0624242657036
 30
0.0
 10
85.21496105153612
 20
159.1033509237525
 30
0.0
  0
LWPOLYLINE
  5
380
330
1F
100
AcDbEntity
  8
0
  6
Continuous
 62
     7
370
    25
100
AcDbPolyline
 90
        9
 70
   128
 43
0.0
 10
86.429221287
 20
158.2465565068
 10
86.4394527968
 20
158.2643149657
 10
86.4572131183
 20
158.2951342923
 10
86.4819360073
 20
158.3380347354
 10
86.5128382217
 20
158.3916602893
 10
86.5489353534
 20
158.4543010456
 10
86.5890809443
 20
158.5239676995
 10
86.6320000138
 20
158.5984474284
 10
86.676327243
 20
158.6753709478
  0
SPLINE
  5
381
330
1F
100
AcDbEntity
  8
0
  6
Continuous
 62
     7
370
    25
100
AcDbSpline
210
0.0
220
0.0
230
1.0
 70
     8
 71
     3
 72
    11
 73
     7
 74
     0
 42
0.000000001
 43
0.00000001
 40
0.0
 40
0.0
 40
0.0
 40
0.0
 40
0.2194554692747349
 40
0.4903780816617332
 40
0.7490911464352967
 40
1.0
 40
1.0
 40
1.0
 40
1.0
 10
103.4003893952494
 20
158.260500268435
 30
0.0
 10
103.278346268075
 20
158.1928317065129
 30
0.0
 10
103.0056382112579
 20
158.0416248138624
 30
0.0
 10
102.6025193799343
 20
157.8590313241222
 30
0.0
 10
102.23980930553
 20
157.7157996573606
 30
0.0
 10
102.1134605634935
 20
157.663210645284
 30
0.0
 10
102.0512536275809
 20
157.6373188061471
 30
0.0
  0
LWPOLYLINE
  5
382
330
1F
100
AcDbEntity
  8
0
  6
Continuous
 62
     7
370
    25
100
AcDbPolyline
 90
        9
 70
   128
 43
0.0
 10
103.4003893952
 20
158.2605002684
 10
103.3901290144
 20
158.2782401008
 10
103.3723184015
 20
158.3090296252
 10
103.3475247319
 20
158.3518928153
 10
103.3165349733
 20
158.4054662151
 10
103.2803344648
 20
158.4680510921
 10
103.2400743212
 20
158.5376506908
 10
103.1970332484
 20
158.6120596392
 10
103.1525793593
 20
158.6889086528
  0
LWPOLYLINE
  5
383
330
1F
100
AcDbEntity
  8
0
  6
Continuous
 62
     7
370
    25
100
AcDbPolyline
 90
        9
 70
   128
 43
0.0
 10
103.1291314508
 20
187.2266179187
 10
103.1734586801
 20
187.3035377128
 10
103.2163777496
 20
187.3780137164
 10
103.2565233405
 20
187.4476840956
 10
103.2926204722
 20
187.5103211267
 10
103.3235217552
 20
187.5639504058
 10
103.3482455756
 20
187.6068508489
 10
103.3660058971
 20
187.6376739008
 10
103.3762374069
 20
187.6554286344
  0
SPLINE
  5
384
330
1F
100
AcDbEntity
  8
0
  6
Continuous
 62
     7
370
    25
100
AcDbSpline
210
0.0
220
0.0
230
1.0
 70
     8
 71
     3
 72
    11
 73
     7
 74
     0
 42
0.000000001
 43
0.00000001
 40
0.0
 40
0.0
 40
0.0
 40
0.0
 40
0.2194565082782057
 40
0.4903780338299393
 40
0.7490915164720902
 40
0.9999999999999999
 40
0.9999999999999999
 40
0.9999999999999999
 40
0.9999999999999999
 10
103.3762374069222
 20
187.6554286343808
 30
0.0
 10
103.4958613819469
 20
187.5835685492909
 30
0.0
 10
103.7631624983812
 20
187.4229963816496
 30
0.0
 10
104.1228575119405
 20
187.1651900380234
 30
0.0
 10
104.4282543645993
 20
186.9226871391242
 30
0.0
 10
104.5369715609174
 20
186.8395608239787
 30
0.0
 10
104.590497642351
 20
186.7986342174763
 30
0.0
  0
SPLINE
  5
385
330
1F
100
AcDbEntity
  8
0
  6
Continuous
 62
     7
370
    25
100
AcDbSpline
210
0.0
220
0.0
230
1.0
 70
     8
 71
     3
 72
    11
 73
     7
 74
     0
 42
0.000000001
 43
0.00000001
 40
0.0
 40
0.0
 40
0.0
 40
0.0
 40
0.2082508199704303
 40
0.4681597008224118
 40
0.7315485661333555
 40
1.0
 40
1.0
 40
1.0
 40
1.0
 10
87.77937964682033
 20
157.6255915922877
 30
0.0
 10
87.73002038620164
 20
157.6463582406029
 30
0.0
 10
87.61905795787916
 20
157.6930428484412
 30
0.0
 10
87.29465980249499
 20
157.8189310207786
 30
0.0
 10
86.876512191405
 20
158.0018715156743
 30
0.0
 10
86.57926142819653
 20
158.1644788918808
 30
0.0
 10
86.42922128696492
 20
158.246556506848
 30
0.0
  0
SPLINE
  5
386
330
1F
100
AcDbEntity
  8
0
  6
Continuous
 62
     7
370
    25
100
AcDbSpline
210
0.0
220
0.0
230
1.0
 70
     8
 71
     3
 72
    11
 73
     7
 74
     0
 42
0.000000001
 43
0.00000001
 40
0.0
 40
0.0
 40
0.0
 40
0.0
 40
0.2082509223020173
 40
0.4681592439737119
 40
0.7315483459733879
 40
1.0
 40
1.0
 40
1.0
 40
1.0
 10
104.6132405396228
 20
159.1192914409394
 30
0.0
 10
104.5705760604368
 20
159.0869282134327
 30
0.0
 10
104.4746640226917
 20
159.014173942025
 30
0.0
 10
104.2034460150791
 20
158.7961783409606
 30
0.0
 10
103.8359364494736
 20
158.5255270516556
 30
0.0
 10
103.5464901524778
 20
158.3494013718607
 30
0.0
 10
103.4003893952494
 20
158.260500268435
 30
0.0
  0
SPLINE
  5
387
330
1F
100
AcDbEntity
  8
0
  6
Continuous
 62
     7
370
    25
100
AcDbSpline
210
0.0
220
0.0
230
1.0
 70
     8
 71
     3
 72
    11
 73
     7
 74
     0
 42
0.000000001
 43
0.00000001
 40
0.0
 40
0.0
 40
0.0
 40
0.0
 40
0.2082505381242126
 40
0.4681588105396473
 40
0.7315493957061157
 40
1.0
 40
1.0
 40
1.0
 40
1.0
 10
102.0260790470668
 20
188.2763898236508
 30
0.0
 10
102.0754382517416
 20
188.2556242887383
 30
0.0
 10
102.1864004934619
 20
188.2089422094869
 30
0.0
 10
102.5108005018135
 20
188.0830607052498
 30
0.0
 10
102.9289439678792
 20
187.9001074018681
 30
0.0
 10
103.2261968905194
 20
187.7375039018051
 30
0.0
 10
103.3762374069222
 20
187.6554286343808
 30
0.0
  0
CIRCLE
  5
388
330
1F
100
AcDbEntity
  8
0
  6
Continuous
 62
     7
370
    25
100
AcDbCircle
 10
94.902729261
 20
172.9509928686
 30
0.0
 40
19.50909090909094
  0
ARC
  5
389
330
1F
100
AcDbEntity
  8
0
  6
Continuous
 62
     7
370
    25
100
AcDbCircle
 10
94.902729261
 20
172.9509928686
 30
0.0
 40
13.75000000000001
100
AcDbArc
 50
192.047077262
 51
225.047077262
  0
LINE
  5
38A
330
1F
100
AcDbEntity
  8
0
  6
Continuous
 62
     7
370
    25
100
AcDbLine
 10
85.1880029883
 20
163.2202884419
 30
0.0
 11
84.658108383
 21
162.6895239813
 31
0.0
  0
LINE
  5
38B
330
1F
100
AcDbEntity
  8
0
  6
Continuous
 62
     7
370
    25
100
AcDbLine
 10
85.3999608304
 20
163.4325964613
 30
0.0
 11
85.1880029883
 21
163.2202884419
 31
0.0
  0
ARC
  5
38C
330
1F
100
AcDbEntity
  8
0
  6
Continuous
 62
     7
370
    25
100
AcDbCircle
 10
94.902729261
 20
172.9509928686
 30
0.0
 40
13.45
100
AcDbArc
 50
192.047077262
 51
225.047077262
  0
LINE
  5
38D
330
1F
100
AcDbEntity
  8
0
  6
Continuous
 62
     7
370
    25
100
AcDbLine
 10
84.6412598263
 20
183.1956153972
 30
0.0
 11
85.1720252182
 21
182.6657226546
 31
0.0
  0
ARC
  5
38E
330
1F
100
AcDbEntity
  8
0
  6
Continuous
 62
     7
370
    25
100
AcDbCircle
 10
94.902729261
 20
172.9509928686
 30
0.0
 40
13.75000000000002
100
AcDbArc
 50
135.047077262
 51
168.047077262
  0
LINE
  5
38F
330
1F
100
AcDbEntity
  8
0
  6
Continuous
 62
     7
370
    25
100
AcDbLine
 10
85.1720252182
 20
182.6657226546
 30
0.0
 11
85.3843323063
 21
182.4537610872
 31
0.0
  0
ARC
  5
390
330
1F
100
AcDbEntity
  8
0
  6
Continuous
 62
     7
370
    25
100
AcDbCircle
 10
94.902729261
 20
172.9509928686
 30
0.0
 40
13.45000000000001
100
AcDbArc
 50
135.047077262
 51
168.047077262
  0
ARC
  5
391
330
1F
100
AcDbEntity
  8
0
  6
Continuous
 62
     7
370
    25
100
AcDbCircle
 10
94.902729261
 20
172.9509928686
 30
0.0
 40
13.74999999999999
100
AcDbArc
 50
255.047077262
 51
285.047077262
  0
LINE
  5
392
330
1F
100
AcDbEntity
  8
0
  6
Continuous
 62
     7
370
    25
100
AcDbLine
 10
98.4724026281
 20
159.6724411709
 30
0.0
 11
98.6671121433
 21
158.9481553299
 31
0.0
  0
LINE
  5
393
330
1F
100
AcDbEntity
  8
0
  6
Continuous
 62
     7
370
    25
100
AcDbLine
 10
91.1613623254
 20
158.9419899745
 30
0.0
 11
91.3548813775
 21
159.6665924651
 31
0.0
  0
ARC
  5
394
330
1F
100
AcDbEntity
  8
0
  6
Continuous
 62
     7
370
    25
100
AcDbCircle
 10
94.902729261
 20
172.9509928686
 30
0.0
 40
13.44999999999999
100
AcDbArc
 50
255.047077262
 51
285.047077262
  0
LINE
  5
395
330
1F
100
AcDbEntity
  8
0
  6
Continuous
 62
     7
370
    25
100
AcDbLine
 10
98.3945189152
 20
159.9621569974
 30
0.0
 11
98.4724026281
 21
159.6724411709
 31
0.0
  0
LINE
  5
396
330
1F
100
AcDbEntity
  8
0
  6
Continuous
 62
     7
370
    25
100
AcDbLine
 10
91.3548813775
 20
159.6665924651
 30
0.0
 11
91.4322889518
 21
159.9564349515
 31
0.0
  0
LINE
  5
397
330
1F
100
AcDbEntity
  8
0
  6
Continuous
 62
     7
370
    25
100
AcDbLine
 10
98.6440961357
 20
186.959998892
 30
0.0
 11
98.4505770836
 21
186.2353926761
 31
0.0
  0
ARC
  5
398
330
1F
100
AcDbEntity
  8
0
  6
Continuous
 62
     7
370
    25
100
AcDbCircle
 10
94.902729261
 20
172.9509928686
 30
0.0
 40
13.75000000000007
100
AcDbArc
 50
75.047077262
 51
105.047077262
  0
LINE
  5
399
330
1F
100
AcDbEntity
  8
0
  6
Continuous
 62
     7
370
    25
100
AcDbLine
 10
91.333055833
 20
186.2295439703
 30
0.0
 11
91.1383463178
 21
186.9538298113
 31
0.0
  0
ARC
  5
39A
330
1F
100
AcDbEntity
  8
0
  6
Continuous
 62
     7
370
    25
100
AcDbCircle
 10
94.902729261
 20
172.9509928686
 30
0.0
 40
13.45000000000004
100
AcDbArc
 50
75.047077262
 51
105.047077262
  0
LINE
  5
39B
330
1F
100
AcDbEntity
  8
0
  6
Continuous
 62
     7
370
    25
100
AcDbLine
 10
98.4505770836
 20
186.2353926761
 30
0.0
 11
98.3731695093
 21
185.9455501897
 31
0.0
  0
LINE
  5
39C
330
1F
100
AcDbEntity
  8
0
  6
Continuous
 62
     7
370
    25
100
AcDbLine
 10
91.4109395459
 20
185.9398281438
 30
0.0
 11
91.333055833
 21
186.2295439703
 31
0.0
  0
ARC
  5
39D
330
1F
100
AcDbEntity
  8
0
  6
Continuous
 62
     7
370
    25
100
AcDbCircle
 10
94.902729261
 20
172.9509928686
 30
0.0
 40
13.45000000000001
100
AcDbArc
 50
315.047077262
 51
345.047077262
  0
LINE
  5
39E
330
1F
100
AcDbEntity
  8
0
  6
Continuous
 62
     7
370
    25
100
AcDbLine
 10
107.8972878974
 20
169.4805531068
 30
0.0
 11
108.1871285211
 21
169.4031452996
 31
0.0
  0
ARC
  5
39F
330
1F
100
AcDbEntity
  8
0
  6
Continuous
 62
     7
370
    25
100
AcDbCircle
 10
94.902729261
 20
172.9509928686
 30
0.0
 40
13.75000000000001
100
AcDbArc
 50
315.047077262
 51
345.047077262
  0
LINE
  5
3A0
330
1F
100
AcDbEntity
  8
0
  6
Continuous
 62
     7
370
    25
100
AcDbLine
 10
104.6334325444
 20
163.236266212
 30
0.0
 11
104.4211263876
 21
163.4482240541
 31
0.0
  0
LINE
  5
3A1
330
1F
100
AcDbEntity
  8
0
  6
Continuous
 62
     7
370
    25
100
AcDbLine
 10
108.1871285211
 20
169.4031452996
 30
0.0
 11
108.9117328744
 21
169.2096276445
 31
0.0
  0
LINE
  5
3A2
330
1F
100
AcDbEntity
  8
0
  6
Continuous
 62
     7
370
    25
100
AcDbLine
 10
105.1641988676
 20
162.7063734693
 30
0.0
 11
104.6334325444
 21
163.236266212
 31
0.0
  0
LINE
  5
3A3
330
1F
100
AcDbEntity
  8
0
  6
Continuous
 62
     7
370
    25
100
AcDbLine
 10
108.9055656563
 20
176.7153760655
 30
0.0
 11
108.1812807467
 21
176.5206663174
 31
0.0
  0
ARC
  5
3A4
330
1F
100
AcDbEntity
  8
0
  6
Continuous
 62
     7
370
    25
100
AcDbCircle
 10
94.902729261
 20
172.9509928686
 30
0.0
 40
13.75000000000005
100
AcDbArc
 50
15.047077262
 51
45.047077262
  0
LINE
  5
3A5
330
1F
100
AcDbEntity
  8
0
  6
Continuous
 62
     7
370
    25
100
AcDbLine
 10
104.6174557056
 20
182.6816966994
 30
0.0
 11
105.1473493796
 21
183.2124611599
 31
0.0
  0
ARC
  5
3A6
330
1F
100
AcDbEntity
  8
0
  6
Continuous
 62
     7
370
    25
100
AcDbCircle
 10
94.902729261
 20
172.9509928686
 30
0.0
 40
13.45000000000001
100
AcDbArc
 50
15.047077262
 51
45.047077262
  0
LINE
  5
3A7
330
1F
100
AcDbEntity
  8
0
  6
Continuous
 62
     7
370
    25
100
AcDbLine
 10
104.4054978635
 20
182.4693924052
 30
0.0
 11
104.6174557056
 21
182.6816966994
 31
0.0
  0
LINE
  5
3A8
330
1F
100
AcDbEntity
  8
0
  6
Continuous
 62
     7
370
    25
100
AcDbLine
 10
108.1812807467
 20
176.5206663174
 30
0.0
 11
107.8915667828
 21
176.4427816732
 31
0.0
  0
ARC
  5
3A9
330
1F
100
AcDbEntity
  8
0
  6
Continuous
 62
     7
370
    25
100
AcDbCircle
 10
94.902729261
 20
172.9509928686
 30
0.0
 40
14.05000000000002
100
AcDbArc
 50
242.8523397806
 51
255.047077262
  0
LWPOLYLINE
  5
3AA
330
1F
100
AcDbEntity
  8
0
  6
Continuous
 62
     7
370
    25
100
AcDbPolyline
 90
        3
 70
   128
 43
0.0
 10
85.8160412978
 20
163.0346125228
 10
85.6098651062
 20
163.2275602085
 10
85.3999608304
 20
163.4325964613
  0
LWPOLYLINE
  5
3AB
330
1F
100
AcDbEntity
  8
0
  6
Continuous
 62
     7
370
    25
100
AcDbPolyline
 90
        3
 70
   128
 43
0.0
 10
80.958867177
 20
171.2272709472
 10
80.9185241457
 20
171.5928709371
 10
80.9121175777
 20
171.6605371101
  0
ARC
  5
3AC
330
1F
100
AcDbEntity
  8
0
  6
Continuous
 62
     7
370
    25
100
AcDbCircle
 10
94.902729261
 20
172.9509928686
 30
0.0
 40
13.45
100
AcDbArc
 50
173.047077262
 51
175.047077262
  0
LINE
  5
3AD
330
1F
100
AcDbEntity
  8
0
  6
Continuous
 62
     7
370
    25
100
AcDbLine
 10
89.069432776
 20
185.4337474568
 30
0.0
 11
88.9544819589
 21
185.6797358258
 31
0.0
  0
LWPOLYLINE
  5
3AE
330
1F
100
AcDbEntity
  8
0
  6
Continuous
 62
     7
370
    25
100
AcDbPolyline
 90
        3
 70
   128
 43
0.0
 10
84.9597190614
 20
182.8776767714
 10
85.4021783095
 20
183.3019351823
 10
85.4106868725
 20
183.3097359402
  0
LINE
  5
3AF
330
1F
100
AcDbEntity
  8
0
  6
Continuous
 62
     7
370
    25
100
AcDbLine
 10
88.5068929862
 20
185.4608228667
 30
0.0
 11
88.9544819589
 21
185.6797358258
 31
0.0
  0
ARC
  5
3B0
330
1F
100
AcDbEntity
  8
0
  6
Continuous
 62
     7
370
    25
100
AcDbCircle
 10
94.902729261
 20
172.9509928686
 30
0.0
 40
13.45000000000006
100
AcDbArc
 50
105.047077262
 51
111.3441796911
  0
LINE
  5
3B1
330
1F
100
AcDbEntity
  8
0
  6
Continuous
 62
     7
370
    25
100
AcDbLine
 10
100.7360259179
 20
160.4682376845
 30
0.0
 11
100.8509762693
 21
160.2222530408
 31
0.0
  0
LWPOLYLINE
  5
3B2
330
1F
100
AcDbEntity
  8
0
  6
Continuous
 62
     7
370
    25
100
AcDbPolyline
 90
        3
 70
   128
 43
0.0
 10
104.8457396324
 20
163.0243083699
 10
104.4032794531
 20
162.6000499589
 10
104.3947718214
 20
162.5922454757
  0
LINE
  5
3B3
330
1F
100
AcDbEntity
  8
0
  6
Continuous
 62
     7
370
    25
100
AcDbLine
 10
101.298565242
 20
160.4411659999
 30
0.0
 11
100.8509762693
 21
160.2222530408
 31
0.0
  0
ARC
  5
3B4
330
1F
100
AcDbEntity
  8
0
  6
Continuous
 62
     7
370
    25
100
AcDbCircle
 10
94.902729261
 20
172.9509928686
 30
0.0
 40
13.45
100
AcDbArc
 50
285.047077262
 51
291.3441796911
  0
ARC
  5
3B5
330
1F
100
AcDbEntity
  8
0
  6
Continuous
 62
     7
370
    25
100
AcDbCircle
 10
94.902729261
 20
172.9509928686
 30
0.0
 40
14.05
100
AcDbArc
 50
62.8523397806
 51
75.047077262
  0
LWPOLYLINE
  5
3B6
330
1F
100
AcDbEntity
  8
0
  6
Continuous
 62
     7
370
    25
100
AcDbPolyline
 90
        3
 70
   128
 43
0.0
 10
103.9894173961
 20
182.8673726184
 10
104.1955935876
 20
182.6744249327
 10
104.4054978635
 20
182.4693924052
  0
LWPOLYLINE
  5
3B7
330
1F
100
AcDbEntity
  8
0
  6
Continuous
 62
     7
370
    25
100
AcDbPolyline
 90
        3
 70
   128
 43
0.0
 10
108.4709947105
 20
176.5985509617
 10
108.6171853464
 20
176.0032383961
 10
108.6708993759
 20
175.7509915395
  0
ARC
  5
3B8
330
1F
100
AcDbEntity
  8
0
  6
Continuous
 62
     7
370
    25
100
AcDbCircle
 10
94.902729261
 20
172.9509928686
 30
0.0
 40
13.45000000000001
100
AcDbArc
 50
345.047077262
 51
347.9843745782
  0
SPLINE
  5
3B9
330
1F
100
AcDbEntity
  8
0
  6
Continuous
 62
     7
370
    25
100
AcDbSpline
210
0.0
220
0.0
230
1.0
 70
     8
 71
     3
 72
    19
 73
    15
 74
     0
 42
0.000000001
 43
0.00000001
 40
0.0
 40
0.0
 40
0.0
 40
0.0
 40
0.1023053007413057
 40
0.1984129871836673
 40
0.2831482158426207
 40
0.3933265804233594
 40
0.4770446391055889
 40
0.4949261505400565
 40
0.582782859166477
 40
0.6183110849994825
 40
0.7255452919372829
 40
0.8226958282204961
 40
0.9308049136261681
 40
1.0
 40
1.0
 40
1.0
 40
1.0
 10
115.7978872876293
 20
170.855200128054
 30
0.0
 10
115.7859610933799
 20
170.8727266816271
 30
0.0
 10
115.76283118897
 20
170.9067180371508
 30
0.0
 10
115.6011724759125
 20
171.1668809295683
 30
0.0
 10
115.3901395519152
 20
171.5781242176974
 30
0.0
 10
115.1875222415198
 20
172.1348621418295
 30
0.0
 10
115.11145637718
 20
172.6409605482558
 30
0.0
 10
115.0965441224081
 20
173.099994259784
 30
0.0
 10
115.1280417070276
 20
173.4478377445363
 30
0.0
 10
115.242164951415
 20
173.9622931453318
 30
0.0
 10
115.4190383670227
 20
174.4301232939705
 30
0.0
 10
115.6416499416627
 20
174.8447329099402
 30
0.0
 10
115.7747978209175
 20
175.0516887411693
 30
0.0
 10
115.7889084674727
 20
175.072859047203
 30
0.0
 10
115.7944153170712
 20
175.0811210138553
 30
0.0
  0
ARC
  5
3BA
330
1F
100
AcDbEntity
  8
0
  6
Continuous
 62
     7
370
    25
100
AcDbCircle
 10
94.902729261
 20
172.9509928686
 30
0.0
 40
21.0
100
AcDbArc
 50
5.821789458
 51
354.272365066
  0
ARC
  5
3BB
330
1F
100
AcDbEntity
  8
0
  6
Continuous
 62
     7
370
    25
100
AcDbCircle
 10
114.3021522664
 20
174.9289683642
 30
0.0
 40
1.50000000000004
100
AcDbArc
 50
336.9427212675
 51
5.821789458
  0
SPLINE
  5
3BC
330
1F
100
AcDbEntity
  8
0
  6
Continuous
 62
     7
370
    25
100
AcDbSpline
210
0.0
220
0.0
230
1.0
 70
     8
 71
     3
 72
    18
 73
    14
 74
     0
 42
0.000000001
 43
0.00000001
 40
0.0
 40
0.0
 40
0.0
 40
0.0
 40
0.0687228418597933
 40
0.1753277974241803
 40
0.2705335166316312
 40
0.37750303544221
 40
0.4743551511644727
 40
0.5054058747752544
 40
0.6106115473916448
 40
0.7208911379070372
 40
0.8039702634168129
 40
0.8984794884064529
 40
1.0
 40
1.0
 40
1.0
 40
1.0
 10
115.6823231946356
 20
174.3414907021278
 30
0.0
 10
115.6800904749324
 20
174.3362745039902
 30
0.0
 10
115.6743942927426
 20
174.3229667811773
 30
0.0
 10
115.620522455716
 20
174.1926102175347
 30
0.0
 10
115.5290448746608
 20
173.9225150722117
 30
0.0
 10
115.4398930015148
 20
173.540634954774
 30
0.0
 10
115.4048978520637
 20
173.1861118524382
 30
0.0
 10
115.4004019568789
 20
172.8303476413019
 30
0.0
 10
115.4303329696604
 20
172.4520958603245
 30
0.0
 10
115.5178131533183
 20
172.0605800467868
 30
0.0
 10
115.6046647293423
 20
171.7922633014284
 30
0.0
 10
115.670454381928
 20
171.6268189416955
 30
0.0
 10
115.6797609862988
 20
171.6056218127187
 30
0.0
 10
115.6845807205564
 20
171.5946441752666
 30
0.0
  0
ARC
  5
3BD
330
1F
100
AcDbEntity
  8
0
  6
Continuous
 62
     7
370
    25
100
AcDbCircle
 10
114.3053764911
 20
171.0048992265
 30
0.0
 40
1.499999999999999
100
AcDbArc
 50
354.272365066
 51
23.1514332565
  0
SPLINE
  5
3BE
330
1F
100
AcDbEntity
  8
0
  6
Continuous
 62
     7
370
    25
100
AcDbSpline
210
0.0
220
0.0
230
1.0
 70
     8
 71
     3
 72
    17
 73
    13
 74
     0
 42
0.000000001
 43
0.00000001
 40
0.0
 40
0.0
 40
0.0
 40
0.0
 40
0.0409522111647164
 40
0.1540201721784569
 40
0.2569179073997609
 40
0.3518319457577015
 40
0.443370830782527
 40
0.5378321227698032
 40
0.6416986401691175
 40
0.7575736875057887
 40
0.8788920398437322
 40
1.0
 40
1.0
 40
1.0
 40
1.0
 10
115.6845807205564
 20
171.5946441752666
 30
0.0
 10
115.6847884911625
 20
171.5967278108817
 30
0.0
 10
115.6855699108614
 20
171.604564308767
 30
0.0
 10
115.6961624960579
 20
171.7102834348544
 30
0.0
 10
115.7177931459012
 20
171.9656069593879
 30
0.0
 10
115.7389325979497
 20
172.3070686342495
 30
0.0
 10
115.7526511930068
 20
172.7092015323939
 30
0.0
 10
115.7538462014104
 20
173.1564677314121
 30
0.0
 10
115.7391570352367
 20
173.617474738798
 30
0.0
 10
115.7130955876235
 20
174.0157206161385
 30
0.0
 10
115.6877903668032
 20
174.2895673663434
 30
0.0
 10
115.6841445306659
 20
174.3241929402538
 30
0.0
 10
115.6823231946356
 20
174.3414907021278
 30
0.0
  0
SPLINE
  5
3BF
330
1F
100
AcDbEntity
  8
0
  6
Continuous
 62
     7
370
    25
100
AcDbSpline
210
0.0
220
0.0
230
1.0
 70
     8
 71
     3
 72
    17
 73
    13
 74
     0
 42
0.000000001
 43
0.00000001
 40
0.0
 40
0.0
 40
0.0
 40
0.0
 40
0.1171692016957017
 40
0.2364610841000621
 40
0.3534352576559754
 40
0.4606625911235583
 40
0.558861964068321
 40
0.6531618026599435
 40
0.7490509613937589
 40
0.8506998882012871
 40
0.9604546050225196
 40
0.9999999999999999
 40
0.9999999999999999
 40
0.9999999999999999
 40
0.9999999999999999
 10
115.7944153170712
 20
175.0811210138553
 30
0.0
 10
115.797254720316
 20
175.0541621014753
 30
0.0
 10
115.8029849664879
 20
174.9997558790612
 30
0.0
 10
115.8423671180973
 20
174.572601897545
 30
0.0
 10
115.8822181111565
 20
173.9591510388887
 30
0.0
 10
115.9044406522549
 20
173.2553777240453
 30
0.0
 10
115.9026423106066
 20
172.5730388064664
 30
0.0
 10
115.881778130757
 20
171.9570279696071
 30
0.0
 10
115.8493837241361
 20
171.4312161744996
 30
0.0
 10
115.8159601789588
 20
171.0357009085925
 30
0.0
 10
115.7994131830242
 20
170.8704980603197
 30
0.0
 10
115.7982068193837
 20
170.8584036078938
 30
0.0
 10
115.7978872876293
 20
170.855200128054
 30
0.0
  0
CIRCLE
  5
3C0
330
1F
100
AcDbEntity
  8
0
  6
Continuous
 62
     7
370
    25
100
AcDbCircle
 10
94.902729261
 20
172.9509928686
 30
0.0
 40
12.38185753156131
  0
CIRCLE
  5
3C1
330
1F
100
AcDbEntity
  8
0
  6
Continuous
 62
     7
370
    25
100
AcDbCircle
 10
94.902729261
 20
172.9509928686
 30
0.0
 40
12.67997692640895
  0
CIRCLE
  5
3C2
330
1F
100
AcDbEntity
  8
0
  6
Continuous
 62
     7
370
    25
100
AcDbCircle
 10
94.902729261
 20
172.9509928686
 30
0.0
 40
11.90000000000001
  0
CIRCLE
  5
3C3
330
1F
100
AcDbEntity
  8
0
  6
Continuous
 62
     7
370
    25
100
AcDbCircle
 10
94.902729261
 20
172.9509928686
 30
0.0
 40
11.40000000000001
  0
SPLINE
  5
3C4
330
1F
100
AcDbEntity
  8
0
  6
Continuous
 62
     7
370
    25
100
AcDbSpline
210
0.0
220
0.0
230
1.0
 70
     8
 71
     3
 72
    13
 73
     9
 74
     0
 42
0.000000001
 43
0.00000001
 40
0.0
 40
0.0
 40
0.0
 40
0.0
 40
0.3899441564745958
 40
0.5348924783768588
 40
0.6354044047086305
 40
0.7364040276847079
 40
0.8528587829870361
 40
0.9999999999999999
 40
0.9999999999999999
 40
0.9999999999999999
 40
0.9999999999999999
 10
99.18907676969224
 20
160.5720913274045
 30
0.0
 10
99.13712373621648
 20
160.5540444829983
 30
0.0
 10
99.06585895028849
 20
160.5292893451893
 30
0.0
 10
98.99037654760976
 20
160.4997761973391
 30
0.0
 10
98.95865202693604
 20
160.4853273139054
 30
0.0
 10
98.94299937552165
 20
160.4753763344086
 30
0.0
 10
98.94254763528946
 20
160.4691457302136
 30
0.0
 10
98.95356939453717
 20
160.4685629799575
 30
0.0
 10
98.95972182188683
 20
160.468237684464
 30
0.0
  0
LINE
  5
3C5
330
1F
100
AcDbEntity
  8
0
  6
Continuous
 62
     7
370
    25
100
AcDbLine
 10
98.8764909204
 20
160.4682376845
 30
0.0
 11
98.9597218219
 21
160.4682376845
 31
0.0
  0
ARC
  5
3C6
330
1F
100
AcDbEntity
  8
0
  6
Continuous
 62
     7
370
    25
100
AcDbCircle
 10
94.902729261
 20
172.9509928686
 30
0.0
 40
13.1
100
AcDbArc
 50
252.3416432379
 51
287.6583567621
  0
LINE
  5
3C7
330
1F
100
AcDbEntity
  8
0
  6
Continuous
 62
     7
370
    25
100
AcDbLine
 10
90.9289677735
 20
160.4682376845
 30
0.0
 11
90.845736872
 21
160.4682376845
 31
0.0
  0
SPLINE
  5
3C8
330
1F
100
AcDbEntity
  8
0
  6
Continuous
 62
     7
370
    25
100
AcDbSpline
210
0.0
220
0.0
230
1.0
 70
     8
 71
     3
 72
    13
 73
     9
 74
     0
 42
0.000000001
 43
0.00000001
 40
0.0
 40
0.0
 40
0.0
 40
0.0
 40
0.3899449079879739
 40
0.5348931223711081
 40
0.635404974145585
 40
0.7364045222026062
 40
0.852859163323542
 40
1.0
 40
1.0
 40
1.0
 40
1.0
 10
90.61638145853334
 20
160.5720913274046
 30
0.0
 10
90.66833465383841
 20
160.5540445013878
 30
0.0
 10
90.73959961020692
 20
160.5292894067084
 30
0.0
 10
90.8150821610751
 20
160.4997761960189
 30
0.0
 10
90.84680662828848
 20
160.4853273141281
 30
0.0
 10
90.8624594740013
 20
160.4753763355192
 30
0.0
 10
90.86291029411997
 20
160.4691457339294
 30
0.0
 10
90.85188902268719
 20
160.4685629811407
 30
0.0
 10
90.84573687200003
 20
160.4682376844641
 30
0.0
  0
ARC
  5
3C9
330
1F
100
AcDbEntity
  8
0
  6
Continuous
 62
     7
370
    25
100
AcDbCircle
 10
94.902729261
 20
172.9509928686
 30
0.0
 40
13.10000000000001
100
AcDbArc
 50
232.259744449
 51
250.9009572068
  0
SPLINE
  5
3CA
330
1F
100
AcDbEntity
  8
0
  6
Continuous
 62
     7
370
    25
100
AcDbSpline
210
0.0
220
0.0
230
1.0
 70
     8
 71
     3
 72
    13
 73
     9
 74
     0
 42
0.000000001
 43
0.00000001
 40
0.0
 40
0.0
 40
0.0
 40
0.0
 40
0.574798093048045
 40
0.7081579317280967
 40
0.8422548042706883
 40
0.9171533812373871
 40
0.9809567273015487
 40
0.9999999999999999
 40
0.9999999999999999
 40
0.9999999999999999
 40
0.9999999999999999
 10
86.40071070898827
 20
162.8186797959563
 30
0.0
 10
86.43317982017618
 20
162.8291527960058
 30
0.0
 10
86.47318214256028
 20
162.8420556537983
 30
0.0
 10
86.62644476521287
 20
162.7653613333919
 30
0.0
 10
86.70890910437103
 20
162.7163796958129
 30
0.0
 10
86.79288749484627
 20
162.6597332844598
 30
0.0
 10
86.8484508593209
 20
162.6192672800422
 30
0.0
 10
86.87771711640052
 20
162.5967688132491
 30
0.0
 10
86.88444431085642
 20
162.5915972752329
 30
0.0
  0
LINE
  5
3CB
330
1F
100
AcDbEntity
  8
0
  6
Continuous
 62
     7
370
    25
100
AcDbLine
 10
86.400710709
 20
162.818679796
 30
0.0
 11
86.4822116788
 21
162.9158092899
 31
0.0
  0
ARC
  5
3CC
330
1F
100
AcDbEntity
  8
0
  6
Continuous
 62
     7
370
    25
100
AcDbCircle
 10
94.902729261
 20
172.9509928686
 30
0.0
 40
13.10000000000002
100
AcDbArc
 50
183.3907167772
 51
230.0
  0
ARC
  5
3CD
330
1F
100
AcDbEntity
  8
0
  6
Continuous
 62
     7
370
    25
100
AcDbCircle
 10
94.902729261
 20
172.9509928686
 30
0.0
 40
13.10000000001711
100
AcDbArc
 50
176.6092832228
 51
183.3907167772
  0
ARC
  5
3CE
330
1F
100
AcDbEntity
  8
0
  6
Continuous
 62
     7
370
    25
100
AcDbCircle
 10
94.902729261
 20
172.9509928686
 30
0.0
 40
13.10000000001711
100
AcDbArc
 50
130.0
 51
176.6092832228
  0
LINE
  5
3CF
330
1F
100
AcDbEntity
  8
0
  6
Continuous
 62
     7
370
    25
100
AcDbLine
 10
86.400710709
 20
183.0833053453
 30
0.0
 11
86.4822116788
 21
182.986172126
 31
0.0
  0
SPLINE
  5
3D0
330
1F
100
AcDbEntity
  8
0
  6
Continuous
 62
     7
370
    25
100
AcDbSpline
210
0.0
220
0.0
230
1.0
 70
     8
 71
     3
 72
    13
 73
     9
 74
     0
 42
0.000000001
 43
0.00000001
 40
0.0
 40
0.0
 40
0.0
 40
0.0
 40
0.5747973194033693
 40
0.7081575595735078
 40
0.8422533243709681
 40
0.9171518005285549
 40
0.9809550607171377
 40
0.9999999999999999
 40
0.9999999999999999
 40
0.9999999999999999
 40
0.9999999999999999
 10
86.40071070898848
 20
183.0833053452727
 30
0.0
 10
86.43318031982876
 20
183.0728288342654
 30
0.0
 10
86.4731832906095
 20
183.0599216403428
 30
0.0
 10
86.62644396307235
 20
183.13662987483
 30
0.0
 10
86.70890995820214
 20
183.1856042526996
 30
0.0
 10
86.79288666820403
 20
183.2422530469038
 30
0.0
 10
86.84845326749128
 20
183.2827159242561
 30
0.0
 10
86.87771719219096
 20
183.3052187071781
 30
0.0
 10
86.88444431085665
 20
183.3103915912863
 30
0.0
  0
ARC
  5
3D1
330
1F
100
AcDbEntity
  8
0
  6
Continuous
 62
     7
370
    25
100
AcDbCircle
 10
94.902729261
 20
172.9509928686
 30
0.0
 40
13.10000000000002
100
AcDbArc
 50
109.0990427931
 51
127.740255551
  0
SPLINE
  5
3D2
330
1F
100
AcDbEntity
  8
0
  6
Continuous
 62
     7
370
    25
100
AcDbSpline
210
0.0
220
0.0
230
1.0
 70
     8
 71
     3
 72
    13
 73
     9
 74
     0
 42
0.000000001
 43
0.00000001
 40
0.0
 40
0.0
 40
0.0
 40
0.0
 40
0.3899449387793718
 40
0.5348902445666955
 40
0.6354021042779358
 40
0.7364056200332417
 40
0.8528591517047928
 40
0.9999999999999999
 40
0.9999999999999999
 40
0.9999999999999999
 40
0.9999999999999999
 10
90.61638145853361
 20
185.3298938138243
 30
0.0
 10
90.66833423744146
 20
185.3479417305611
 30
0.0
 10
90.7395982335916
 20
185.3726981862482
 30
0.0
 10
90.8150826012819
 20
185.4022057242486
 30
0.0
 10
90.84680708541399
 20
185.4166516585908
 30
0.0
 10
90.86245913425942
 20
185.4266164326354
 30
0.0
 10
90.86291037085442
 20
185.4328367562607
 30
0.0
 10
90.85188906693202
 20
185.4334212095001
 30
0.0
 10
90.8457368720003
 20
185.4337474567648
 30
0.0
  0
LINE
  5
3D3
330
1F
100
AcDbEntity
  8
0
  6
Continuous
 62
     7
370
    25
100
AcDbLine
 10
90.9289677735
 20
185.4337474568
 30
0.0
 11
90.845736872
 21
185.4337474568
 31
0.0
  0
ARC
  5
3D4
330
1F
100
AcDbEntity
  8
0
  6
Continuous
 62
     7
370
    25
100
AcDbCircle
 10
94.902729261
 20
172.9509928686
 30
0.0
 40
13.10000000000003
100
AcDbArc
 50
72.3416432379
 51
107.6583567621
  0
LINE
  5
3D5
330
1F
100
AcDbEntity
  8
0
  6
Continuous
 62
     7
370
    25
100
AcDbLine
 10
98.8764909204
 20
185.4337474568
 30
0.0
 11
98.9597218219
 21
185.4337474568
 31
0.0
  0
SPLINE
  5
3D6
330
1F
100
AcDbEntity
  8
0
  6
Continuous
 62
     7
370
    25
100
AcDbSpline
210
0.0
220
0.0
230
1.0
 70
     8
 71
     3
 72
    13
 73
     9
 74
     0
 42
0.000000001
 43
0.00000001
 40
0.0
 40
0.0
 40
0.0
 40
0.0
 40
0.3899441872658531
 40
0.534889600570118
 40
0.6354015348386379
 40
0.7364051255159222
 40
0.8528587713682877
 40
1.0
 40
1.0
 40
1.0
 40
1.0
 10
99.1890767696925
 20
185.3298938138242
 30
0.0
 10
99.13712415261256
 20
185.347941748947
 30
0.0
 10
99.0658603269012
 20
185.3726982477594
 30
0.0
 10
98.99037610740328
 20
185.402205722928
 30
0.0
 10
98.95865156980992
 20
185.4166516588136
 30
0.0
 10
98.94299971527217
 20
185.4266164337459
 30
0.0
 10
98.94254755855535
 20
185.4328367599711
 30
0.0
 10
98.95356935029207
 20
185.4334212106809
 30
0.0
 10
98.9597218218871
 20
185.4337474567647
 30
0.0
  0
ARC
  5
3D7
330
1F
100
AcDbEntity
  8
0
  6
Continuous
 62
     7
370
    25
100
AcDbCircle
 10
94.902729261
 20
172.9509928686
 30
0.0
 40
13.1
100
AcDbArc
 50
52.259744449
 51
70.9009572068
  0
SPLINE
  5
3D8
330
1F
100
AcDbEntity
  8
0
  6
Continuous
 62
     7
370
    25
100
AcDbSpline
210
0.0
220
0.0
230
1.0
 70
     8
 71
     3
 72
    13
 73
     9
 74
     0
 42
0.000000001
 43
0.00000001
 40
0.0
 40
0.0
 40
0.0
 40
0.0
 40
0.5747970571304665
 40
0.7081575241026574
 40
0.842252843899779
 40
0.9171512858821181
 40
0.9809545169580629
 40
1.0
 40
1.0
 40
1.0
 40
1.0
 10
103.4047479848989
 20
183.0833053452725
 30
0.0
 10
103.3722791052559
 20
183.0728289639426
 30
0.0
 10
103.3322770190706
 20
183.0599219245413
 30
0.0
 10
103.1790134325687
 20
183.1366296753721
 30
0.0
 10
103.0965488682269
 20
183.1856044732023
 30
0.0
 10
103.0125718419059
 20
183.2422528389973
 30
0.0
 10
102.9570055824887
 20
183.2827165226258
 30
0.0
 10
102.9277408958172
 20
183.3052187250627
 30
0.0
 10
102.9210134517081
 20
183.3103915912862
 30
0.0
  0
LINE
  5
3D9
330
1F
100
AcDbEntity
  8
0
  6
Continuous
 62
     7
370
    25
100
AcDbLine
 10
103.4047479849
 20
183.0833053453
 30
0.0
 11
103.3232470151
 21
182.986172126
 31
0.0
  0
ARC
  5
3DA
330
1F
100
AcDbEntity
  8
0
  6
Continuous
 62
     7
370
    25
100
AcDbCircle
 10
94.902729261
 20
172.9509928686
 30
0.0
 40
13.10000000001708
100
AcDbArc
 50
3.3907167772
 51
50.0
  0
ARC
  5
3DB
330
1F
100
AcDbEntity
  8
0
  6
Continuous
 62
     7
370
    25
100
AcDbCircle
 10
94.902729261
 20
172.9509928686
 30
0.0
 40
13.10000000001708
100
AcDbArc
 50
356.6092832228
 51
3.3907167772
  0
ARC
  5
3DC
330
1F
100
AcDbEntity
  8
0
  6
Continuous
 62
     7
370
    25
100
AcDbCircle
 10
94.902729261
 20
172.9509928686
 30
0.0
 40
13.09999999999999
100
AcDbArc
 50
310.0
 51
356.6092832228
  0
LINE
  5
3DD
330
1F
100
AcDbEntity
  8
0
  6
Continuous
 62
     7
370
    25
100
AcDbLine
 10
103.4047479849
 20
162.818679796
 30
0.0
 11
103.3232470151
 21
162.9158092899
 31
0.0
  0
SPLINE
  5
3DE
330
1F
100
AcDbEntity
  8
0
  6
Continuous
 62
     7
370
    25
100
AcDbSpline
210
0.0
220
0.0
230
1.0
 70
     8
 71
     3
 72
    13
 73
     9
 74
     0
 42
0.000000001
 43
0.00000001
 40
0.0
 40
0.0
 40
0.0
 40
0.0
 40
0.5747978307439736
 40
0.7081578962207516
 40
0.8422543237574475
 40
0.9171528665448371
 40
0.9809561834929008
 40
1.0
 40
1.0
 40
1.0
 40
1.0
 10
103.4047479848986
 20
162.8186797959561
 30
0.0
 10
103.3722796049054
 20
162.8291526663303
 30
0.0
 10
103.3322781671131
 20
162.8420553696023
 30
0.0
 10
103.1790126304318
 20
162.7653615328495
 30
0.0
 10
103.0965497220388
 20
162.7163794753099
 30
0.0
 10
103.0125710152985
 20
162.6597334923682
 30
0.0
 10
102.9570079905656
 20
162.6192666816495
 30
0.0
 10
102.9277409716056
 20
162.5967687953615
 30
0.0
 10
102.9210134517079
 20
162.5915972752328
 30
0.0
  0
ARC
  5
3DF
330
1F
100
AcDbEntity
  8
0
  6
Continuous
 62
     7
370
    25
100
AcDbCircle
 10
94.902729261
 20
172.9509928686
 30
0.0
 40
13.1
100
AcDbArc
 50
289.0990427931
 51
307.740255551
  0
LWPOLYLINE
  5
3E0
330
1F
100
AcDbEntity
  8
0
  6
Continuous
 62
     7
370
    25
100
AcDbPolyline
 90
        3
 70
   128
 43
0.0
 10
86.8844443109
 20
162.5915972752
 10
86.533415794
 20
162.174316333
 10
86.4632546078
 20
162.090903358
  0
ARC
  5
3E1
330
1F
100
AcDbEntity
  8
0
  6
Continuous
 62
     7
370
    25
100
AcDbCircle
 10
86.7237995412
 20
162.4794673703
 30
0.0
 40
0.4678307962834475
100
AcDbArc
 50
145.6681251784
 51
236.1568489023
  0
LINE
  5
3E2
330
1F
100
AcDbEntity
  8
0
  6
Continuous
 62
     7
370
    25
100
AcDbLine
 10
86.3374720435
 20
162.7433171732
 30
0.0
 11
86.400710709
 21
162.818679796
 31
0.0
  0
LINE
  5
3E3
330
1F
100
AcDbEntity
  8
0
  6
Continuous
 62
     7
370
    25
100
AcDbLine
 10
86.3374720435
 20
183.158667968
 30
0.0
 11
86.400710709
 21
183.0833053453
 31
0.0
  0
ARC
  5
3E4
330
1F
100
AcDbEntity
  8
0
  6
Continuous
 62
     7
370
    25
100
AcDbCircle
 10
86.7238074099
 20
183.4225184726
 30
0.0
 40
0.4678376899201367
100
AcDbArc
 50
123.8437452686
 51
214.331402279
  0
LWPOLYLINE
  5
3E5
330
1F
100
AcDbEntity
  8
0
  6
Continuous
 62
     7
370
    25
100
AcDbPolyline
 90
        3
 70
   128
 43
0.0
 10
86.8844443109
 20
183.3103915913
 10
86.533415794
 20
183.7276688082
 10
86.4632546078
 20
183.8110855086
  0
LINE
  5
3E6
330
1F
100
AcDbEntity
  8
0
  6
Continuous
 62
     7
370
    25
100
AcDbLine
 10
103.4679866504
 20
162.7433171732
 30
0.0
 11
103.4047479849
 21
162.818679796
 31
0.0
  0
ARC
  5
3E7
330
1F
100
AcDbEntity
  8
0
  6
Continuous
 62
     7
370
    25
100
AcDbCircle
 10
103.0816581272
 20
162.479467568
 30
0.0
 40
0.4678315316355711
100
AcDbArc
 50
303.8432419284
 51
34.3317839909
  0
LWPOLYLINE
  5
3E8
330
1F
100
AcDbEntity
  8
0
  6
Continuous
 62
     7
370
    25
100
AcDbPolyline
 90
        3
 70
   128
 43
0.0
 10
102.9210134517
 20
162.5915972752
 10
103.2720428999
 20
162.174316333
 10
103.3422040861
 20
162.090903358
  0
LWPOLYLINE
  5
3E9
330
1F
100
AcDbEntity
  8
0
  6
Continuous
 62
     7
370
    25
100
AcDbPolyline
 90
        3
 70
   128
 43
0.0
 10
102.9210134517
 20
183.3103915913
 10
103.2720428999
 20
183.7276688082
 10
103.3422040861
 20
183.8110855086
  0
ARC
  5
3EA
330
1F
100
AcDbEntity
  8
0
  6
Continuous
 62
     7
370
    25
100
AcDbCircle
 10
103.0816502584
 20
183.4225182749
 30
0.0
 40
0.4678384252891332
100
AcDbArc
 50
325.6686885507
 51
56.1561639017
  0
LINE
  5
3EB
330
1F
100
AcDbEntity
  8
0
  6
Continuous
 62
     7
370
    25
100
AcDbLine
 10
103.4679866504
 20
183.158667968
 30
0.0
 11
103.4047479849
 21
183.0833053453
 31
0.0
  0
LWPOLYLINE
  5
3EC
330
1F
100
AcDbEntity
  8
0
  6
Continuous
 62
     7
370
    25
100
AcDbPolyline
 90
        3
 70
   128
 43
0.0
 10
108.6347314637
 20
172.1774136884
 10
108.0890695672
 20
172.17640786
 10
107.9797965582
 20
172.1761992438
  0
ARC
  5
3ED
330
1F
100
AcDbEntity
  8
0
  6
Continuous
 62
     7
370
    25
100
AcDbCircle
 10
108.1745793642
 20
172.1596078862
 30
0.0
 40
0.4604964725330858
100
AcDbArc
 50
275.182300638
 51
2.2159815886
  0
LINE
  5
3EE
330
1F
100
AcDbEntity
  8
0
  6
Continuous
 62
     7
370
    25
100
AcDbLine
 10
107.9429552998
 20
171.7009937627
 30
0.0
 11
108.2161736782
 21
171.7009937627
 31
0.0
  0
LINE
  5
3EF
330
1F
100
AcDbEntity
  8
0
  6
Continuous
 62
     7
370
    25
100
AcDbLine
 10
81.8256621357
 20
173.7257858975
 30
0.0
 11
81.1707272302
 21
173.7245714528
 31
0.0
  0
ARC
  5
3F0
330
1F
100
AcDbEntity
  8
0
  6
Continuous
 62
     7
370
    25
100
AcDbCircle
 10
81.6308782166
 20
173.7423782329
 30
0.0
 40
0.4604953981424885
100
AcDbArc
 50
95.1821737076
 51
182.216108519
  0
LINE
  5
3F1
330
1F
100
AcDbEntity
  8
0
  6
Continuous
 62
     7
370
    25
100
AcDbLine
 10
81.5892850157
 20
174.2009913785
 30
0.0
 11
81.8625033941
 21
174.2009913785
 31
0.0
  0
LINE
  5
3F2
330
1F
100
AcDbEntity
  8
0
  6
Continuous
 62
     7
370
    25
100
AcDbLine
 10
81.8625033941
 20
171.7009937627
 30
0.0
 11
81.5892850157
 21
171.7009937627
 31
0.0
  0
ARC
  5
3F3
330
1F
100
AcDbEntity
  8
0
  6
Continuous
 62
     7
370
    25
100
AcDbCircle
 10
81.6308782166
 20
172.1596069083
 30
0.0
 40
0.4604953981425016
100
AcDbArc
 50
177.783891481
 51
264.8178262924
  0
LWPOLYLINE
  5
3F4
330
1F
100
AcDbEntity
  8
0
  6
Continuous
 62
     7
370
    25
100
AcDbPolyline
 90
        3
 70
   128
 43
0.0
 10
81.1707272302
 20
172.1774136884
 10
81.7163881953
 20
172.17640786
 10
81.8256621357
 20
172.1761992438
  0
LINE
  5
3F5
330
1F
100
AcDbEntity
  8
0
  6
Continuous
 62
     7
370
    25
100
AcDbLine
 10
108.2161736782
 20
174.2009913785
 30
0.0
 11
107.9429552998
 21
174.2009913785
 31
0.0
  0
ARC
  5
3F6
330
1F
100
AcDbEntity
  8
0
  6
Continuous
 62
     7
370
    25
100
AcDbCircle
 10
108.1745793642
 20
173.742377255
 30
0.0
 40
0.4604964725330716
100
AcDbArc
 50
357.7840184114
 51
84.817699362
  0
LINE
  5
3F7
330
1F
100
AcDbEntity
  8
0
  6
Continuous
 62
     7
370
    25
100
AcDbLine
 10
107.9797965582
 20
173.7257858975
 30
0.0
 11
108.6347314637
 21
173.7245714528
 31
0.0
  0
LINE
  5
3F8
330
1F
100
AcDbEntity
  8
0
  6
Continuous
 62
     7
370
    25
100
AcDbLine
 10
90.845736872
 20
160.4682376845
 30
0.0
 11
89.0526154186
 21
160.4682376845
 31
0.0
  0
ARC
  5
3F9
330
1F
100
AcDbEntity
  8
0
  6
Continuous
 62
     7
370
    25
100
AcDbCircle
 10
89.0731962846
 20
160.6977822519
 30
0.0
 40
0.2304653563242475
100
AcDbArc
 50
207.4590667753
 51
264.8765848131
  0
SPLINE
  5
3FA
330
1F
100
AcDbEntity
  8
0
  6
Continuous
 62
     7
370
    25
100
AcDbSpline
210
0.0
220
0.0
230
1.0
 70
     8
 71
     3
 72
     9
 73
     5
 74
     0
 42
0.000000001
 43
0.00000001
 40
0.0
 40
0.0
 40
0.0
 40
0.0
 40
0.495842224203043
 40
1.0
 40
1.0
 40
1.0
 40
1.0
 10
88.86869504262262
 20
160.5915112657305
 30
0.0
 10
89.14960636220371
 20
160.5881567131688
 30
0.0
 10
89.71614004140497
 20
160.5813913503217
 30
0.0
 10
90.31464202810739
 20
160.5752084730553
 30
0.0
 10
90.61638145853334
 20
160.5720913274046
 30
0.0
  0
LINE
  5
3FB
330
1F
100
AcDbEntity
  8
0
  6
Continuous
 62
     7
370
    25
100
AcDbLine
 10
98.9597218219
 20
185.4337474568
 30
0.0
 11
100.7528432753
 21
185.4337474568
 31
0.0
  0
ARC
  5
3FC
330
1F
100
AcDbEntity
  8
0
  6
Continuous
 62
     7
370
    25
100
AcDbCircle
 10
100.732282558
 20
185.204236161
 30
0.0
 40
0.2304304189576828
100
AcDbArc
 50
27.4532141257
 51
84.8808359222
  0
SPLINE
  5
3FD
330
1F
100
AcDbEntity
  8
0
  6
Continuous
 62
     7
370
    25
100
AcDbSpline
210
0.0
220
0.0
230
1.0
 70
     8
 71
     3
 72
     9
 73
     5
 74
     0
 42
0.000000001
 43
0.00000001
 40
0.0
 40
0.0
 40
0.0
 40
0.0
 40
0.4958423323741944
 40
1.0
 40
1.0
 40
1.0
 40
1.0
 10
100.9367636512645
 20
185.310470150208
 30
0.0
 10
100.6558521701028
 20
185.3138262520689
 30
0.0
 10
100.0893182886234
 20
185.3205947380204
 30
0.0
 10
99.49081619119909
 20
185.3267769860679
 30
0.0
 10
99.1890767696925
 20
185.3298938138242
 30
0.0
  0
SPLINE
  5
3FE
330
1F
100
AcDbEntity
  8
0
  6
Continuous
 62
     7
370
    25
100
AcDbSpline
210
0.0
220
0.0
230
1.0
 70
     8
 71
     3
 72
     9
 73
     5
 74
     0
 42
0.000000001
 43
0.00000001
 40
0.0
 40
0.0
 40
0.0
 40
0.0
 40
0.4958422334360758
 40
1.0
 40
1.0
 40
1.0
 40
1.0
 10
88.86869504262289
 20
185.3104701502081
 30
0.0
 10
89.14960635946215
 20
185.313826252365
 30
0.0
 10
89.71614002258444
 20
185.3205947402641
 30
0.0
 10
90.31464202547318
 20
185.3267769864133
 30
0.0
 10
90.61638145853361
 20
185.3298938138243
 30
0.0
  0
ARC
  5
3FF
330
1F
100
AcDbEntity
  8
0
  6
Continuous
 62
     7
370
    25
100
AcDbCircle
 10
89.0731757751
 20
185.2042366993
 30
0.0
 40
0.2304298506151215
100
AcDbArc
 50
95.1190866647
 51
152.5468632873
  0
LINE
  5
400
330
1F
100
AcDbEntity
  8
0
  6
Continuous
 62
     7
370
    25
100
AcDbLine
 10
90.845736872
 20
185.4337474568
 30
0.0
 11
89.0526154186
 21
185.4337474568
 31
0.0
  0
SPLINE
  5
401
330
1F
100
AcDbEntity
  8
0
  6
Continuous
 62
     7
370
    25
100
AcDbSpline
210
0.0
220
0.0
230
1.0
 70
     8
 71
     3
 72
     9
 73
     5
 74
     0
 42
0.000000001
 43
0.00000001
 40
0.0
 40
0.0
 40
0.0
 40
0.0
 40
0.4958423231411689
 40
1.0
 40
1.0
 40
1.0
 40
1.0
 10
100.9367636512642
 20
160.5915112657304
 30
0.0
 10
100.6558521673607
 20
160.5881567134648
 30
0.0
 10
100.0893182698023
 20
160.5813913525646
 30
0.0
 10
99.49081618856435
 20
160.5752084734003
 30
0.0
 10
99.18907676969224
 20
160.5720913274045
 30
0.0
  0
ARC
  5
402
330
1F
100
AcDbEntity
  8
0
  6
Continuous
 62
     7
370
    25
100
AcDbCircle
 10
100.7322620484
 20
160.6977827903
 30
0.0
 40
0.230465924864016
100
AcDbArc
 50
275.1234925984
 51
332.5408558132
  0
LINE
  5
403
330
1F
100
AcDbEntity
  8
0
  6
Continuous
 62
     7
370
    25
100
AcDbLine
 10
98.9597218219
 20
160.4682376845
 30
0.0
 11
100.7528432753
 21
160.4682376845
 31
0.0
  0
ARC
  5
404
330
1F
100
AcDbEntity
  8
0
  6
Continuous
 62
     7
370
    25
100
AcDbCircle
 10
94.902729261
 20
172.9509928686
 30
0.0
 40
13.75377446520254
100
AcDbArc
 50
176.7757055794
 51
183.2242944206
  0
ARC
  5
405
330
1F
100
AcDbEntity
  8
0
  6
Continuous
 62
     7
370
    25
100
AcDbCircle
 10
94.902729261
 20
172.9509928686
 30
0.0
 40
13.75377446520255
100
AcDbArc
 50
232.1488990194
 51
243.9778602091
  0
ARC
  5
406
330
1F
100
AcDbEntity
  8
0
  6
Continuous
 62
     7
370
    25
100
AcDbCircle
 10
94.902729261
 20
172.9509928686
 30
0.0
 40
13.75377446520257
100
AcDbArc
 50
116.0221397909
 51
127.8511009806
  0
ARC
  5
407
330
1F
100
AcDbEntity
  8
0
  6
Continuous
 62
     7
370
    25
100
AcDbCircle
 10
94.902729261
 20
172.9509928686
 30
0.0
 40
13.75377446520256
100
AcDbArc
 50
296.0221397909
 51
307.8511009806
  0
ARC
  5
408
330
1F
100
AcDbEntity
  8
0
  6
Continuous
 62
     7
370
    25
100
AcDbCircle
 10
94.902729261
 20
172.9509928686
 30
0.0
 40
13.75377446520256
100
AcDbArc
 50
52.1488990194
 51
63.9778602091
  0
ARC
  5
409
330
1F
100
AcDbEntity
  8
0
  6
Continuous
 62
     7
370
    25
100
AcDbCircle
 10
94.902729261
 20
172.9509928686
 30
0.0
 40
13.75377446520254
100
AcDbArc
 50
356.7757055794
 51
3.2242944206
  0
SPLINE
  5
40A
330
1F
100
AcDbEntity
  8
0
  6
Continuous
 62
     7
370
    25
100
AcDbSpline
210
0.0
220
0.0
230
1.0
 70
     8
 71
     3
 72
     9
 73
     5
 74
     0
 42
0.000000001
 43
0.00000001
 40
0.0
 40
0.0
 40
0.0
 40
0.0
 40
0.4155674674013806
 40
1.0
 40
1.0
 40
1.0
 40
1.0
 10
86.46325460780938
 20
183.8110855085608
 30
0.0
 10
86.36182178254919
 20
183.9328477375889
 30
0.0
 10
86.11773909269266
 20
184.2258500502808
 30
0.0
 10
86.07459339751904
 20
184.2776007353446
 30
0.0
 10
86.04937764961798
 20
184.3078455192801
 30
0.0
  0
ARC
  5
40B
330
1F
100
AcDbEntity
  8
0
  6
Continuous
 62
     7
370
    25
100
AcDbCircle
 10
86.3567860432
 20
183.9135133141
 30
0.0
 40
0.5000000000000256
100
AcDbArc
 50
127.9385560135
 51
220.0
  0
SPLINE
  5
40C
330
1F
100
AcDbEntity
  8
0
  6
Continuous
 62
     7
370
    25
100
AcDbSpline
210
0.0
220
0.0
230
1.0
 70
     8
 71
     3
 72
     9
 73
     5
 74
     0
 42
0.000000001
 43
0.00000001
 40
0.0
 40
0.0
 40
0.0
 40
0.0
 40
0.5844271859795579
 40
1.0
 40
1.0
 40
1.0
 40
1.0
 10
85.97376356978495
 20
183.5921203953978
 30
0.0
 10
85.99591555061764
 20
183.5657227328267
 30
0.0
 10
86.03381929870487
 20
183.520554295758
 30
0.0
 10
86.24832804160708
 20
183.2649077305208
 30
0.0
 10
86.33747204352694
 20
183.1586679680106
 30
0.0
  0
SPLINE
  5
40D
330
1F
100
AcDbEntity
  8
0
  6
Continuous
 62
     7
370
    25
100
AcDbSpline
210
0.0
220
0.0
230
1.0
 70
     8
 71
     3
 72
     9
 73
     5
 74
     0
 42
0.000000001
 43
0.00000001
 40
0.0
 40
0.0
 40
0.0
 40
0.0
 40
0.4155672935466977
 40
1.0
 40
1.0
 40
1.0
 40
1.0
 10
86.46325460780915
 20
162.0909033579585
 30
0.0
 10
86.36182178230165
 20
161.9691414955699
 30
0.0
 10
86.11773898973681
 20
161.6761399425617
 30
0.0
 10
86.0745933642769
 20
161.6243838499431
 30
0.0
 10
86.04937764961774
 20
161.5941358966586
 30
0.0
  0
ARC
  5
40E
330
1F
100
AcDbEntity
  8
0
  6
Continuous
 62
     7
370
    25
100
AcDbCircle
 10
86.3567860432
 20
161.9884724232
 30
0.0
 40
0.5000000000000266
100
AcDbArc
 50
140.0
 51
232.0614439865
  0
SPLINE
  5
40F
330
1F
100
AcDbEntity
  8
0
  6
Continuous
 62
     7
370
    25
100
AcDbSpline
210
0.0
220
0.0
230
1.0
 70
     8
 71
     3
 72
     9
 73
     5
 74
     0
 42
0.000000001
 43
0.00000001
 40
0.0
 40
0.0
 40
0.0
 40
0.0
 40
0.5844276512576049
 40
1.0
 40
1.0
 40
1.0
 40
1.0
 10
85.97376356978472
 20
162.3098647458312
 30
0.0
 10
85.99591547243394
 20
162.3362644301466
 30
0.0
 10
86.03381905656713
 20
162.3814362906131
 30
0.0
 10
86.24832804102799
 20
162.6370790932765
 30
0.0
 10
86.33747204352673
 20
162.7433171732184
 30
0.0
  0
SPLINE
  5
410
330
1F
100
AcDbEntity
  8
0
  6
Continuous
 62
     7
370
    25
100
AcDbSpline
210
0.0
220
0.0
230
1.0
 70
     8
 71
     3
 72
     9
 73
     5
 74
     0
 42
0.000000001
 43
0.00000001
 40
0.0
 40
0.0
 40
0.0
 40
0.0
 40
0.4155672266200275
 40
1.0
 40
1.0
 40
1.0
 40
1.0
 10
103.3422040860778
 20
162.0909033579583
 30
0.0
 10
103.4436365367351
 20
161.9691414954565
 30
0.0
 10
103.6877184665886
 20
161.6761398949883
 30
0.0
 10
103.7308642835059
 20
161.6243838345813
 30
0.0
 10
103.7560801129466
 20
161.5941358966584
 30
0.0
  0
ARC
  5
411
330
1F
100
AcDbEntity
  8
0
  6
Continuous
 62
     7
370
    25
100
AcDbCircle
 10
103.4486724789
 20
161.9884724232
 30
0.0
 40
0.5000000000000042
100
AcDbArc
 50
307.9385560135
 51
40.0
  0
SPLINE
  5
412
330
1F
100
AcDbEntity
  8
0
  6
Continuous
 62
     7
370
    25
100
AcDbSpline
210
0.0
220
0.0
230
1.0
 70
     8
 71
     3
 72
     9
 73
     5
 74
     0
 42
0.000000001
 43
0.00000001
 40
0.0
 40
0.0
 40
0.0
 40
0.0
 40
0.5844276512576049
 40
1.0
 40
1.0
 40
1.0
 40
1.0
 10
103.8316951241022
 20
162.309864745831
 30
0.0
 10
103.809543221453
 20
162.3362644301464
 30
0.0
 10
103.7716396373198
 20
162.381436290613
 30
0.0
 10
103.5571306528589
 20
162.6370790932764
 30
0.0
 10
103.4679866503602
 20
162.7433171732182
 30
0.0
  0
SPLINE
  5
413
330
1F
100
AcDbEntity
  8
0
  6
Continuous
 62
     7
370
    25
100
AcDbSpline
210
0.0
220
0.0
230
1.0
 70
     8
 71
     3
 72
     9
 73
     5
 74
     0
 42
0.000000001
 43
0.00000001
 40
0.0
 40
0.0
 40
0.0
 40
0.0
 40
0.4155674004747024
 40
1.0
 40
1.0
 40
1.0
 40
1.0
 10
103.342204086078
 20
183.8110855085607
 30
0.0
 10
103.443636536488
 20
183.9328477377018
 30
0.0
 10
103.6877183636335
 20
184.2258500978535
 30
0.0
 10
103.7308642502643
 20
184.2776007507061
 30
0.0
 10
103.7560801129468
 20
184.3078455192799
 30
0.0
  0
ARC
  5
414
330
1F
100
AcDbEntity
  8
0
  6
Continuous
 62
     7
370
    25
100
AcDbCircle
 10
103.4486724789
 20
183.9135133141
 30
0.0
 40
0.5000000000000042
100
AcDbArc
 50
320.0
 51
52.0614439865
  0
SPLINE
  5
415
330
1F
100
AcDbEntity
  8
0
  6
Continuous
 62
     7
370
    25
100
AcDbSpline
210
0.0
220
0.0
230
1.0
 70
     8
 71
     3
 72
     9
 73
     5
 74
     0
 42
0.000000001
 43
0.00000001
 40
0.0
 40
0.0
 40
0.0
 40
0.0
 40
0.5844271859795579
 40
1.0
 40
1.0
 40
1.0
 40
1.0
 10
103.8316951241024
 20
183.5921203953976
 30
0.0
 10
103.8095431432697
 20
183.5657227328265
 30
0.0
 10
103.7716393951825
 20
183.5205542957578
 30
0.0
 10
103.5571306522803
 20
183.2649077305207
 30
0.0
 10
103.4679866503604
 20
183.1586679680104
 30
0.0
  0
SPLINE
  5
416
330
1F
100
AcDbEntity
  8
0
  6
Continuous
 62
     7
370
    25
100
AcDbSpline
210
0.0
220
0.0
230
1.0
 70
     8
 71
     3
 72
     9
 73
     5
 74
     0
 42
0.000000001
 43
0.00000001
 40
0.0
 40
0.0
 40
0.0
 40
0.0
 40
0.5840303843286472
 40
1.0
 40
1.0
 40
1.0
 40
1.0
 10
80.5237057726509
 20
172.174016223645
 30
0.0
 10
80.56306709347392
 20
172.1742049782682
 30
0.0
 10
80.63046310895398
 20
172.1745281714245
 30
0.0
 10
81.01201375472378
 20
172.1765660096243
 30
0.0
 10
81.17072723020381
 20
172.1774136883971
 30
0.0
  0
ARC
  5
417
330
1F
100
AcDbEntity
  8
0
  6
Continuous
 62
     7
370
    25
100
AcDbCircle
 10
81.0229778223
 20
172.2009928686
 30
0.0
 40
0.5000000000000062
100
AcDbArc
 50
183.0930009306
 51
270.0
  0
SPLINE
  5
418
330
1F
100
AcDbEntity
  8
0
  6
Continuous
 62
     7
370
    25
100
AcDbSpline
210
0.0
220
0.0
230
1.0
 70
    24
 71
     3
 72
     9
 73
     5
 74
     0
 42
0.000000001
 43
0.00000001
 40
0.0
 40
0.0
 40
0.0
 40
0.0
 40
0.4159810789538941
 40
1.0
 40
1.0
 40
1.0
 40
1.0
 10
81.58928501565522
 20
171.7009937627074
 30
0.0
 10
81.45036930960929
 20
171.7009937627074
 30
0.0
 10
81.11642213490781
 20
171.7009937627075
 30
0.0
 10
81.0574300526086
 20
171.7009937627074
 30
0.0
 10
81.02297756035394
 20
171.7009937627074
 30
0.0
  0
SPLINE
  5
419
330
1F
100
AcDbEntity
  8
0
  6
Continuous
 62
     7
370
    25
100
AcDbSpline
210
0.0
220
0.0
230
1.0
 70
     8
 71
     3
 72
     9
 73
     5
 74
     0
 42
0.000000001
 43
0.00000001
 40
0.0
 40
0.0
 40
0.0
 40
0.0
 40
0.5840158454473795
 40
1.0
 40
1.0
 40
1.0
 40
1.0
 10
81.17072723020382
 20
173.724571452832
 30
0.0
 10
80.95690427337357
 20
173.7257065439322
 30
0.0
 10
80.59077900725781
 20
173.7276501403417
 30
0.0
 10
80.54341037365323
 20
173.7278778989163
 30
0.0
 10
80.52370577265091
 20
173.7279726428745
 30
0.0
  0
ARC
  5
41A
330
1F
100
AcDbEntity
  8
0
  6
Continuous
 62
     7
370
    25
100
AcDbCircle
 10
81.0229778223
 20
173.7009928686
 30
0.0
 40
0.5000000000000078
100
AcDbArc
 50
90.0
 51
176.9069990694
  0
SPLINE
  5
41B
330
1F
100
AcDbEntity
  8
0
  6
Continuous
 62
     7
370
    25
100
AcDbSpline
210
0.0
220
0.0
230
1.0
 70
    24
 71
     3
 72
     9
 73
     5
 74
     0
 42
0.000000001
 43
0.00000001
 40
0.0
 40
0.0
 40
0.0
 40
0.0
 40
0.4159743258695585
 40
1.0
 40
1.0
 40
1.0
 40
1.0
 10
81.02297756035397
 20
174.2009913785216
 30
0.0
 10
81.04022468193698
 20
174.2009913785216
 30
0.0
 10
81.08168666771448
 20
174.2009913785217
 30
0.0
 10
81.40213497624295
 20
174.2009913785216
 30
0.0
 10
81.58928501565525
 20
174.2009913785216
 30
0.0
  0
ARC
  5
41C
330
1F
100
AcDbEntity
  8
0
  6
Continuous
 62
     7
370
    25
100
AcDbCircle
 10
94.902729261
 20
172.9509928686
 30
0.0
 40
14.40000000000001
100
AcDbArc
 50
176.9069990694
 51
183.0930009306
  0
ARC
  5
41D
330
1F
100
AcDbEntity
  8
0
  6
Continuous
 62
     7
370
    25
100
AcDbCircle
 10
94.902729261
 20
172.9509928686
 30
0.0
 40
14.40000000000001
100
AcDbArc
 50
120.4503282018
 51
127.9385560135
  0
SPLINE
  5
41E
330
1F
100
AcDbEntity
  8
0
  6
Continuous
 62
     7
370
    25
100
AcDbSpline
210
0.0
220
0.0
230
1.0
 70
     8
 71
     3
 72
    10
 73
     6
 74
     0
 42
0.000000001
 43
0.00000001
 40
0.0
 40
0.0
 40
0.0
 40
0.0
 40
0.3048170646268881
 40
0.6279496381345315
 40
1.0
 40
1.0
 40
1.0
 40
1.0
 10
87.60493594367584
 20
185.3647848827597
 30
0.0
 10
87.63444759928508
 20
185.3634905317384
 30
0.0
 10
87.69524417405448
 20
185.3608240561707
 30
0.0
 10
88.1570503735207
 20
185.3405738646801
 30
0.0
 10
88.62060715280144
 20
185.3209646670975
 30
0.0
 10
88.86869504262289
 20
185.3104701502081
 30
0.0
  0
SPLINE
  5
41F
330
1F
100
AcDbEntity
  8
0
  6
Continuous
 62
     7
370
    25
100
AcDbSpline
210
0.0
220
0.0
230
1.0
 70
     8
 71
     3
 72
    10
 73
     6
 74
     0
 42
0.000000001
 43
0.00000001
 40
0.0
 40
0.0
 40
0.0
 40
0.0
 40
0.3048170780545977
 40
0.6279496657967799
 40
1.0
 40
1.0
 40
1.0
 40
1.0
 10
87.60493594367557
 20
160.5372002584693
 30
0.0
 10
87.63444760080785
 20
160.5384945485181
 30
0.0
 10
87.69524417871482
 20
160.5411608984771
 30
0.0
 10
88.15705033195437
 20
160.5614121252825
 30
0.0
 10
88.62060714720457
 20
160.5810183437771
 30
0.0
 10
88.86869504262262
 20
160.5915112657305
 30
0.0
  0
ARC
  5
420
330
1F
100
AcDbEntity
  8
0
  6
Continuous
 62
     7
370
    25
100
AcDbCircle
 10
94.902729261
 20
172.9509928686
 30
0.0
 40
14.4
100
AcDbArc
 50
232.0614439865
 51
239.5496717982
  0
ARC
  5
421
330
1F
100
AcDbEntity
  8
0
  6
Continuous
 62
     7
370
    25
100
AcDbCircle
 10
87.8583316558
 20
184.9337497459
 30
0.0
 40
0.50000000000001
100
AcDbArc
 50
90.0
 51
120.4503282018
  0
SPLINE
  5
422
330
1F
100
AcDbEntity
  8
0
  6
Continuous
 62
     7
370
    25
100
AcDbSpline
210
0.0
220
0.0
230
1.0
 70
    24
 71
     3
 72
    10
 73
     6
 74
     0
 42
0.000000001
 43
0.00000001
 40
0.0
 40
0.0
 40
0.0
 40
0.0
 40
0.3794739113730264
 40
0.7013823507841068
 40
1.0
 40
1.0
 40
1.0
 40
1.0
 10
89.05261541862568
 20
185.4337474567648
 30
0.0
 10
88.81849135414204
 20
185.4337474567648
 30
0.0
 10
88.38575940129577
 20
185.4337474567648
 30
0.0
 10
87.9447793430597
 20
185.4337474567648
 30
0.0
 10
87.88641731993103
 20
185.4337474567648
 30
0.0
 10
87.85833158676108
 20
185.4337474567648
 30
0.0
  0
ARC
  5
423
330
1F
100
AcDbEntity
  8
0
  6
Continuous
 62
     7
370
    25
100
AcDbCircle
 10
87.8583316558
 20
160.9682359914
 30
0.0
 40
0.5
100
AcDbArc
 50
239.5496717982
 51
270.0
  0
SPLINE
  5
424
330
1F
100
AcDbEntity
  8
0
  6
Continuous
 62
     7
370
    25
100
AcDbSpline
210
0.0
220
0.0
230
1.0
 70
    24
 71
     3
 72
    10
 73
     6
 74
     0
 42
0.000000001
 43
0.00000001
 40
0.0
 40
0.0
 40
0.0
 40
0.0
 40
0.3794739113730264
 40
0.7013823507841068
 40
1.0
 40
1.0
 40
1.0
 40
1.0
 10
89.05261541862541
 20
160.4682376844641
 30
0.0
 10
88.81849135414177
 20
160.4682376844641
 30
0.0
 10
88.3857594012955
 20
160.4682376844641
 30
0.0
 10
87.94477934305942
 20
160.4682376844641
 30
0.0
 10
87.88641731993077
 20
160.4682376844641
 30
0.0
 10
87.85833158676081
 20
160.4682376844641
 30
0.0
  0
SPLINE
  5
425
330
1F
100
AcDbEntity
  8
0
  6
Continuous
 62
     7
370
    25
100
AcDbSpline
210
0.0
220
0.0
230
1.0
 70
     8
 71
     3
 72
    10
 73
     6
 74
     0
 42
0.000000001
 43
0.00000001
 40
0.0
 40
0.0
 40
0.0
 40
0.0
 40
0.3048171041188823
 40
0.6279497194914709
 40
1.0
 40
1.0
 40
1.0
 40
1.0
 10
102.2005222845503
 20
185.3647848827596
 30
0.0
 10
102.1710106320913
 20
185.3634905315496
 30
0.0
 10
102.1102140638116
 20
185.3608240555932
 30
0.0
 10
101.6484078706397
 20
185.3405738699326
 30
0.0
 10
101.1848513581483
 20
185.320964667822
 30
0.0
 10
100.9367636512645
 20
185.310470150208
 30
0.0
  0
ARC
  5
426
330
1F
100
AcDbEntity
  8
0
  6
Continuous
 62
     7
370
    25
100
AcDbCircle
 10
94.902729261
 20
172.9509928686
 30
0.0
 40
14.4
100
AcDbArc
 50
52.0614439865
 51
59.5496717982
  0
SPLINE
  5
427
330
1F
100
AcDbEntity
  8
0
  6
Continuous
 62
     7
370
    25
100
AcDbSpline
210
0.0
220
0.0
230
1.0
 70
     8
 71
     3
 72
    10
 73
     6
 74
     0
 42
0.000000001
 43
0.00000001
 40
0.0
 40
0.0
 40
0.0
 40
0.0
 40
0.3048171175466
 40
0.6279497471537361
 40
1.0
 40
1.0
 40
1.0
 40
1.0
 10
102.20052228455
 20
160.5372002584691
 30
0.0
 10
102.171010630568
 20
160.5384945487066
 30
0.0
 10
102.1102140591508
 20
160.5411608990542
 30
0.0
 10
101.6484079122055
 20
160.5614121200301
 30
0.0
 10
101.1848513637447
 20
160.5810183430522
 30
0.0
 10
100.9367636512642
 20
160.5915112657304
 30
0.0
  0
ARC
  5
428
330
1F
100
AcDbEntity
  8
0
  6
Continuous
 62
     7
370
    25
100
AcDbCircle
 10
101.9471268663
 20
160.9682359914
 30
0.0
 40
0.5000000000000028
100
AcDbArc
 50
270.0
 51
300.4503282018
  0
SPLINE
  5
429
330
1F
100
AcDbEntity
  8
0
  6
Continuous
 62
     7
370
    25
100
AcDbSpline
210
0.0
220
0.0
230
1.0
 70
    24
 71
     3
 72
    10
 73
     6
 74
     0
 42
0.000000001
 43
0.00000001
 40
0.0
 40
0.0
 40
0.0
 40
0.0
 40
0.37947392593973
 40
0.7013823777077727
 40
1.0
 40
1.0
 40
1.0
 40
1.0
 10
100.7528432752615
 20
160.468237684464
 30
0.0
 10
100.9869673251683
 20
160.468237684464
 30
0.0
 10
101.4196992510722
 20
160.468237684464
 30
0.0
 10
101.8606794669651
 20
160.468237684464
 30
0.0
 10
101.919041098578
 20
160.468237684464
 30
0.0
 10
101.9471266414648
 20
160.468237684464
 30
0.0
  0
ARC
  5
42A
330
1F
100
AcDbEntity
  8
0
  6
Continuous
 62
     7
370
    25
100
AcDbCircle
 10
101.9471268663
 20
184.9337497459
 30
0.0
 40
0.5
100
AcDbArc
 50
59.5496717982
 51
90.0
  0
SPLINE
  5
42B
330
1F
100
AcDbEntity
  8
0
  6
Continuous
 62
     7
370
    25
100
AcDbSpline
210
0.0
220
0.0
230
1.0
 70
    24
 71
     3
 72
    10
 73
     6
 74
     0
 42
0.000000001
 43
0.00000001
 40
0.0
 40
0.0
 40
0.0
 40
0.0
 40
0.37947392593973
 40
0.7013823777077727
 40
1.0
 40
1.0
 40
1.0
 40
1.0
 10
100.7528432752617
 20
185.4337474567647
 30
0.0
 10
100.9869673251685
 20
185.4337474567647
 30
0.0
 10
101.4196992510725
 20
185.4337474567647
 30
0.0
 10
101.8606794669654
 20
185.4337474567647
 30
0.0
 10
101.9190410985783
 20
185.4337474567647
 30
0.0
 10
101.947126641465
 20
185.4337474567647
 30
0.0
  0
ARC
  5
42C
330
1F
100
AcDbEntity
  8
0
  6
Continuous
 62
     7
370
    25
100
AcDbCircle
 10
94.902729261
 20
172.9509928686
 30
0.0
 40
14.4
100
AcDbArc
 50
300.4503282018
 51
307.9385560135
  0
SPLINE
  5
42D
330
1F
100
AcDbEntity
  8
0
  6
Continuous
 62
     7
370
    25
100
AcDbSpline
210
0.0
220
0.0
230
1.0
 70
     8
 71
     3
 72
     9
 73
     5
 74
     0
 42
0.000000001
 43
0.00000001
 40
0.0
 40
0.0
 40
0.0
 40
0.0
 40
0.5840303560147446
 40
1.0
 40
1.0
 40
1.0
 40
1.0
 10
109.2817519899136
 20
172.1740162236447
 30
0.0
 10
109.2423910617351
 20
172.1742049783132
 30
0.0
 10
109.1749957152893
 20
172.1745281715625
 30
0.0
 10
108.7934449850876
 20
172.1765660096239
 30
0.0
 10
108.6347314636833
 20
172.1774136883969
 30
0.0
  0
SPLINE
  5
42E
330
1F
100
AcDbEntity
  8
0
  6
Continuous
 62
     7
370
    25
100
AcDbSpline
210
0.0
220
0.0
230
1.0
 70
     8
 71
     3
 72
     9
 73
     5
 74
     0
 42
0.000000001
 43
0.00000001
 40
0.0
 40
0.0
 40
0.0
 40
0.0
 40
0.5840158737623597
 40
1.0
 40
1.0
 40
1.0
 40
1.0
 10
108.6347314636833
 20
173.7245714528317
 30
0.0
 10
108.8485545477192
 20
173.7257065439321
 30
0.0
 10
109.214680013896
 20
173.7276501402476
 30
0.0
 10
109.2620477596036
 20
173.727877898893
 30
0.0
 10
109.2817519899137
 20
173.7279726428742
 30
0.0
  0
ARC
  5
42F
330
1F
100
AcDbEntity
  8
0
  6
Continuous
 62
     7
370
    25
100
AcDbCircle
 10
94.902729261
 20
172.9509928686
 30
0.0
 40
14.39999999999999
100
AcDbArc
 50
356.9069990694
 51
3.0930009306
  0
ARC
  5
430
330
1F
100
AcDbEntity
  8
0
  6
Continuous
 62
     7
370
    25
100
AcDbCircle
 10
108.7824806997
 20
172.2009928686
 30
0.0
 40
0.5
100
AcDbArc
 50
270.0
 51
356.9069990694
  0
SPLINE
  5
431
330
1F
100
AcDbEntity
  8
0
  6
Continuous
 62
     7
370
    25
100
AcDbSpline
210
0.0
220
0.0
230
1.0
 70
    24
 71
     3
 72
     9
 73
     5
 74
     0
 42
0.000000001
 43
0.00000001
 40
0.0
 40
0.0
 40
0.0
 40
0.0
 40
0.4159809271138384
 40
1.0
 40
1.0
 40
1.0
 40
1.0
 10
108.2161736782319
 20
171.7009937627072
 30
0.0
 10
108.3550889635732
 20
171.7009937627072
 30
0.0
 10
108.6890352488156
 20
171.7009937627072
 30
0.0
 10
108.7480281525736
 20
171.7009937627072
 30
0.0
 10
108.7824811335332
 20
171.7009937627072
 30
0.0
  0
ARC
  5
432
330
1F
100
AcDbEntity
  8
0
  6
Continuous
 62
     7
370
    25
100
AcDbCircle
 10
108.7824806997
 20
173.7009928686
 30
0.0
 40
0.5
100
AcDbArc
 50
3.0930009306
 51
90.0
  0
SPLINE
  5
433
330
1F
100
AcDbEntity
  8
0
  6
Continuous
 62
     7
370
    25
100
AcDbSpline
210
0.0
220
0.0
230
1.0
 70
    24
 71
     3
 72
     9
 73
     5
 74
     0
 42
0.000000001
 43
0.00000001
 40
0.0
 40
0.0
 40
0.0
 40
0.0
 40
0.4159743258695585
 40
1.0
 40
1.0
 40
1.0
 40
1.0
 10
108.7824811335332
 20
174.2009913785214
 30
0.0
 10
108.7652340119502
 20
174.2009913785214
 30
0.0
 10
108.7237720261727
 20
174.2009913785214
 30
0.0
 10
108.4033237176442
 20
174.2009913785214
 30
0.0
 10
108.2161736782319
 20
174.2009913785214
 30
0.0
  0
LINE
  5
434
330
1F
100
AcDbEntity
  8
0
  6
Continuous
 62
     7
370
    25
100
AcDbLine
 10
90.30419049
 20
183.3823641999
 30
0.0
 11
91.4141325853
 21
179.9663102491
 31
0.0
  0
LWPOLYLINE
  5
435
330
1F
100
AcDbEntity
  8
0
  6
Continuous
 62
     7
370
    25
100
AcDbPolyline
 90
        9
 70
   128
 43
0.0
 10
90.938604401
 20
179.8118038339
 10
91.0313753053
 20
179.8419451577
 10
91.1205811068
 20
179.8709316416
 10
91.2027936071
 20
179.897641973
 10
91.2748535271
 20
179.9210554225
 10
91.3339915793
 20
179.9402704699
 10
91.3779351037
 20
179.9545495076
 10
91.4049953796
 20
179.9633411927
 10
91.4141325853
 20
179.9663102491
  0
LINE
  5
436
330
1F
100
AcDbEntity
  8
0
  6
Continuous
 62
     7
370
    25
100
AcDbLine
 10
90.938604401
 20
179.8118038339
 30
0.0
 11
89.8477865491
 21
183.1689944727
 31
0.0
  0
SPLINE
  5
437
330
1F
100
AcDbEntity
  8
0
  6
Continuous
 62
     7
370
    25
100
AcDbSpline
210
0.0
220
0.0
230
1.0
 70
     8
 71
     3
 72
     9
 73
     5
 74
     0
 42
0.000000001
 43
0.00000001
 40
0.0
 40
0.0
 40
0.0
 40
0.0
 40
0.0638997323411374
 40
1.0
 40
1.0
 40
1.0
 40
1.0
 10
92.40281764563693
 20
179.0268963439222
 30
0.0
 10
92.4035218635829
 20
179.0282111732622
 30
0.0
 10
92.41454253487784
 20
179.0487876184493
 30
0.0
 10
92.42523366825564
 20
179.0695096380943
 30
0.0
 10
92.43524164107217
 20
179.0889075262304
 30
0.0
  0
ARC
  5
438
330
1F
100
AcDbEntity
  8
0
  6
Continuous
 62
     7
370
    25
100
AcDbCircle
 10
92.0798721223
 20
180.1826232225
 30
0.0
 40
1.200000000000027
100
AcDbArc
 50
198.0
 51
285.6119845367
  0
ARC
  5
439
330
1F
100
AcDbEntity
  8
0
  6
Continuous
 62
     7
370
    25
100
AcDbCircle
 10
92.0798721223
 20
180.1826232225
 30
0.0
 40
0.7000000000000257
100
AcDbArc
 50
198.0
 51
288.0
  0
LWPOLYLINE
  5
43A
330
1F
100
AcDbEntity
  8
0
  6
Continuous
 62
     7
370
    25
100
AcDbPolyline
 90
        9
 70
   128
 43
0.0
 10
92.4352416411
 20
179.0889075262
 10
92.4074002184
 20
179.1745966537
 10
92.3810174796
 20
179.255793081
 10
92.356982838
 20
179.3297624452
 10
92.3361058455
 20
179.3940162523
 10
92.3190903492
 20
179.4463863833
 10
92.3065095782
 20
179.4851033253
 10
92.2987872842
 20
179.5088706774
 10
92.2961840048
 20
179.5168837769
  0
LWPOLYLINE
  5
43B
330
1F
100
AcDbEntity
  8
0
  6
Continuous
 62
     7
370
    25
100
AcDbPolyline
 90
        9
 70
   128
 43
0.0
 10
93.1512247413
 20
176.7235344512
 10
93.243995762
 20
176.7536795003
 10
93.3332015635
 20
176.7826622588
 10
93.4154141802
 20
176.8093763156
 10
93.4874741003
 20
176.8327897651
 10
93.546612036
 20
176.8520048125
 10
93.5905555604
 20
176.8662838502
 10
93.6176159527
 20
176.8750755353
 10
93.626753042
 20
176.8780445916
  0
LINE
  5
43C
330
1F
100
AcDbEntity
  8
0
  6
Continuous
 62
     7
370
    25
100
AcDbLine
 10
93.1512247413
 20
176.7235344512
 30
0.0
 11
92.4028176456
 21
179.0268963439
 31
0.0
  0
LWPOLYLINE
  5
43D
330
1F
100
AcDbEntity
  8
0
  6
Continuous
 62
     7
370
    25
100
AcDbPolyline
 90
        9
 70
   128
 43
0.0
 10
92.724159557
 20
179.6559414131
 10
92.7187506683
 20
179.6453243358
 10
92.7027063086
 20
179.6138381822
 10
92.6765673436
 20
179.5625372095
 10
92.6412143387
 20
179.4931536777
 10
92.5978386882
 20
179.4080233438
 10
92.5479021031
 20
179.3100184066
 10
92.4930874832
 20
179.2024357481
 10
92.4352416411
 20
179.0889075262
  0
LINE
  5
43E
330
1F
100
AcDbEntity
  8
0
  6
Continuous
 62
     7
370
    25
100
AcDbLine
 10
92.724159557
 20
179.6559414131
 30
0.0
 11
93.626753042
 21
176.8780445916
 31
0.0
  0
LINE
  5
43F
330
1F
100
AcDbEntity
  8
0
  6
Continuous
 62
     7
370
    25
100
AcDbLine
 10
83.622769184
 20
174.6009944243
 30
0.0
 11
87.1527294736
 21
174.6009944243
 31
0.0
  0
LINE
  5
440
330
1F
100
AcDbEntity
  8
0
  6
Continuous
 62
     7
370
    25
100
AcDbLine
 10
87.1527294736
 20
174.6009944243
 30
0.0
 11
87.1527294736
 21
174.100993411
 31
0.0
  0
LINE
  5
441
330
1F
100
AcDbEntity
  8
0
  6
Continuous
 62
     7
370
    25
100
AcDbLine
 10
87.1527294736
 20
174.100993411
 30
0.0
 11
83.5608818676
 21
174.100993411
 31
0.0
  0
CIRCLE
  5
442
330
1F
100
AcDbEntity
  8
0
  6
Continuous
 62
     7
370
    25
100
AcDbCircle
 10
90.0486272948
 20
176.4777043824
 30
0.0
 40
1.599999999999994
  0
ARC
  5
443
330
1F
100
AcDbEntity
  8
0
  6
Continuous
 62
     7
370
    25
100
AcDbCircle
 10
90.7735834996
 20
175.9509928686
 30
0.0
 40
2.500000000000008
100
AcDbArc
 50
270.0
 51
18.0
  0
LINE
  5
444
330
1F
100
AcDbEntity
  8
0
  6
Continuous
 62
     7
370
    25
100
AcDbLine
 10
88.3516871478
 20
173.4509935839
 30
0.0
 11
90.7735835869
 21
173.4509935839
 31
0.0
  0
ARC
  5
445
330
1F
100
AcDbEntity
  8
0
  6
Continuous
 62
     7
370
    25
100
AcDbCircle
 10
87.152729261
 20
173.4009928686
 30
0.0
 40
1.199999999999993
100
AcDbArc
 50
2.3880154633
 51
90.0
  0
SPLINE
  5
446
330
1F
100
AcDbEntity
  8
0
  6
Continuous
 62
     7
370
    25
100
AcDbSpline
210
0.0
220
0.0
230
1.0
 70
     8
 71
     3
 72
     9
 73
     5
 74
     0
 42
0.000000001
 43
0.00000001
 40
0.0
 40
0.0
 40
0.0
 40
0.0
 40
0.0638823120374852
 40
1.0
 40
1.0
 40
1.0
 40
1.0
 10
88.35168714780875
 20
173.4509935838934
 30
0.0
 10
88.35065448067654
 20
173.4499178535811
 30
0.0
 10
88.33448933105566
 20
173.4330786021823
 30
0.0
 10
88.31808539623974
 20
173.4165063323899
 30
0.0
 10
88.30272938270636
 20
173.4009927375075
 30
0.0
  0
LINE
  5
447
330
1F
100
AcDbEntity
  8
0
  6
Continuous
 62
     7
370
    25
100
AcDbLine
 10
87.8527292158
 20
173.4009927375
 30
0.0
 11
88.3027293827
 21
173.4009927375
 31
0.0
  0
ARC
  5
448
330
1F
100
AcDbEntity
  8
0
  6
Continuous
 62
     7
370
    25
100
AcDbCircle
 10
87.152729261
 20
173.4009928686
 30
0.0
 40
0.6999999999999886
100
AcDbArc
 50
360.0
 51
90.0
  0
LINE
  5
449
330
1F
100
AcDbEntity
  8
0
  6
Continuous
 62
     7
370
    25
100
AcDbLine
 10
90.7735835869
 20
173.4509935839
 30
0.0
 11
90.7735835869
 21
172.9509925706
 31
0.0
  0
LINE
  5
44A
330
1F
100
AcDbEntity
  8
0
  6
Continuous
 62
     7
370
    25
100
AcDbLine
 10
90.7735835869
 20
172.9509925706
 30
0.0
 11
87.8527292158
 21
172.9509925706
 31
0.0
  0
LWPOLYLINE
  5
44B
330
1F
100
AcDbEntity
  8
0
  6
Continuous
 62
     7
370
    25
100
AcDbPolyline
 90
        9
 70
   128
 43
0.0
 10
88.3027293827
 20
173.4009927375
 10
88.2126323055
 20
173.3108965916
 10
88.1272565681
 20
173.2255203886
 10
88.0494785603
 20
173.1477437777
 10
87.9819194894
 20
173.0801819129
 10
87.9268559735
 20
173.025118397
 10
87.8861432071
 20
172.9844084246
 10
87.8611539598
 20
172.9594191773
 10
87.8527292158
 20
172.9509925706
  0
ARC
  5
44C
330
1F
100
AcDbEntity
  8
0
  6
Continuous
 62
     7
370
    25
100
AcDbCircle
 10
90.7735834996
 20
175.9509928686
 30
0.0
 40
3.0
100
AcDbArc
 50
270.0
 51
18.0
  0
LINE
  5
44D
330
1F
100
AcDbEntity
  8
0
  6
Continuous
 62
     7
370
    25
100
AcDbLine
 10
87.8527292158
 20
172.9509925706
 30
0.0
 11
87.8527292158
 21
173.4009927375
 31
0.0
  0
LINE
  5
44E
330
1F
100
AcDbEntity
  8
0
  6
Continuous
 62
     7
370
    25
100
AcDbLine
 10
92.2961840048
 20
179.5168837769
 30
0.0
 11
92.724159557
 21
179.6559414131
 31
0.0
  0
CIRCLE
  5
44F
330
1F
100
AcDbEntity
  8
0
  6
Continuous
 62
     7
370
    25
100
AcDbCircle
 10
100.902729261
 20
172.9509928686
 30
0.0
 40
1.599999999999994
  0
CIRCLE
  5
450
330
1F
100
AcDbEntity
  8
0
  6
Continuous
 62
     7
370
    25
100
AcDbCircle
 10
96.7568312273
 20
178.6573319664
 30
0.0
 40
1.599999999999994
  0
CIRCLE
  5
451
330
1F
100
AcDbEntity
  8
0
  6
Continuous
 62
     7
370
    25
100
AcDbCircle
 10
90.0486272948
 20
169.4242813549
 30
0.0
 40
1.599999999999994
  0
CIRCLE
  5
452
330
1F
100
AcDbEntity
  8
0
  6
Continuous
 62
     7
370
    25
100
AcDbCircle
 10
96.7568312273
 20
167.2446537709
 30
0.0
 40
1.600000000000023
  0
LINE
  5
453
330
1F
100
AcDbEntity
  8
0
  6
Continuous
 62
     7
370
    25
100
AcDbLine
 10
93.6015625126
 20
165.2249342067
 30
0.0
 11
93.2152913525
 21
164.0361158414
 31
0.0
  0
ARC
  5
454
330
1F
100
AcDbEntity
  8
0
  6
Continuous
 62
     7
370
    25
100
AcDbCircle
 10
92.935822987
 20
165.4412472199
 30
0.0
 40
0.700000000000021
100
AcDbArc
 50
342.0
 51
72.0
  0
LINE
  5
455
330
1F
100
AcDbEntity
  8
0
  6
Continuous
 62
     7
370
    25
100
AcDbLine
 10
92.2961840048
 20
166.3851013643
 30
0.0
 11
93.1521348763
 21
166.1069860918
 31
0.0
  0
ARC
  5
456
330
1F
100
AcDbEntity
  8
0
  6
Continuous
 62
     7
370
    25
100
AcDbCircle
 10
92.0798721223
 20
165.7193625148
 30
0.0
 40
0.7000000000000123
100
AcDbArc
 50
72.0
 51
162.0
  0
LINE
  5
457
330
1F
100
AcDbEntity
  8
0
  6
Continuous
 62
     7
370
    25
100
AcDbLine
 10
91.0278614252
 20
164.7468528015
 30
0.0
 11
91.4141325853
 21
165.9356748922
 31
0.0
  0
LINE
  5
458
330
1F
100
AcDbEntity
  8
0
  6
Continuous
 62
     7
370
    25
100
AcDbLine
 10
93.2152913525
 20
164.0361158414
 30
0.0
 11
91.0278614252
 21
164.7468528015
 31
0.0
  0
LINE
  5
459
330
1F
100
AcDbEntity
  8
0
  6
Continuous
 62
     7
370
    25
100
AcDbLine
 10
101.8485638421
 20
169.3260280652
 30
0.0
 11
102.8598348718
 21
168.5912965102
 31
0.0
  0
ARC
  5
45A
330
1F
100
AcDbEntity
  8
0
  6
Continuous
 62
     7
370
    25
100
AcDbCircle
 10
101.437114331
 20
168.7597148108
 30
0.0
 40
0.7000000000000055
100
AcDbArc
 50
54.0
 51
144.0
  0
LINE
  5
45B
330
1F
100
AcDbEntity
  8
0
  6
Continuous
 62
     7
370
    25
100
AcDbLine
 10
100.3417956751
 20
168.4430485828
 30
0.0
 11
100.8708022643
 21
169.1711640222
 31
0.0
  0
ARC
  5
45C
330
1F
100
AcDbEntity
  8
0
  6
Continuous
 62
     7
370
    25
100
AcDbCircle
 10
100.9081076039
 20
168.0315995159
 30
0.0
 40
0.7000000000000169
100
AcDbArc
 50
144.0
 51
234.0
  0
LINE
  5
45D
330
1F
100
AcDbEntity
  8
0
  6
Continuous
 62
     7
370
    25
100
AcDbLine
 10
101.5079293508
 20
166.7305549843
 30
0.0
 11
100.4966578554
 21
167.4652865393
 31
0.0
  0
LINE
  5
45E
330
1F
100
AcDbEntity
  8
0
  6
Continuous
 62
     7
370
    25
100
AcDbLine
 10
102.8598348718
 20
168.5912965102
 30
0.0
 11
101.5079293508
 21
166.7305549843
 31
0.0
  0
LINE
  5
45F
330
1F
100
AcDbEntity
  8
0
  6
Continuous
 62
     7
370
    25
100
AcDbLine
 10
100.4966578554
 20
178.4366986019
 30
0.0
 11
101.5079293508
 21
179.1714301569
 31
0.0
  0
ARC
  5
460
330
1F
100
AcDbEntity
  8
0
  6
Continuous
 62
     7
370
    25
100
AcDbCircle
 10
100.9081076039
 20
177.8703862214
 30
0.0
 40
0.6999999999999887
100
AcDbArc
 50
126.0
 51
216.0
  0
LINE
  5
461
330
1F
100
AcDbEntity
  8
0
  6
Continuous
 62
     7
370
    25
100
AcDbLine
 10
100.8708022643
 20
176.730821119
 30
0.0
 11
100.3417956751
 21
177.4589365585
 31
0.0
  0
ARC
  5
462
330
1F
100
AcDbEntity
  8
0
  6
Continuous
 62
     7
370
    25
100
AcDbCircle
 10
101.437114331
 20
177.1422709264
 30
0.0
 40
0.7000000000000169
100
AcDbArc
 50
216.0
 51
306.0
  0
LINE
  5
463
330
1F
100
AcDbEntity
  8
0
  6
Continuous
 62
     7
370
    25
100
AcDbLine
 10
102.8598348718
 20
177.3106923563
 30
0.0
 11
101.8485638421
 21
176.5759608013
 31
0.0
  0
LINE
  5
464
330
1F
100
AcDbEntity
  8
0
  6
Continuous
 62
     7
370
    25
100
AcDbLine
 10
101.5079293508
 20
179.1714301569
 30
0.0
 11
102.8598348718
 21
177.3106923563
 31
0.0
  0
LINE
  5
465
330
1F
100
AcDbEntity
  8
0
  6
Continuous
 62
     7
370
    25
100
AcDbLine
 10
85.9027288031
 20
171.8009917302
 30
0.0
 11
85.9027288031
 21
174.100993411
 31
0.0
  0
LINE
  5
466
330
1F
100
AcDbEntity
  8
0
  6
Continuous
 62
     7
370
    25
100
AcDbLine
 10
87.1527294736
 20
171.8009917302
 30
0.0
 11
85.9027288031
 21
171.8009917302
 31
0.0
  0
ARC
  5
467
330
1F
100
AcDbEntity
  8
0
  6
Continuous
 62
     7
370
    25
100
AcDbCircle
 10
87.152729261
 20
172.5009928686
 30
0.0
 40
0.6999999999999886
100
AcDbArc
 50
270.0
 51
0.0
  0
ARC
  5
468
330
1F
100
AcDbEntity
  8
0
  6
Continuous
 62
     7
370
    25
100
AcDbCircle
 10
92.935822987
 20
180.4607385174
 30
0.0
 40
0.7000000000000075
100
AcDbArc
 50
288.0
 51
18.0
  0
LINE
  5
469
330
1F
100
AcDbEntity
  8
0
  6
Continuous
 62
     7
370
    25
100
AcDbLine
 10
93.2152913525
 20
181.8658730252
 30
0.0
 11
93.6015625126
 21
180.6770509345
 31
0.0
  0
LINE
  5
46A
330
1F
100
AcDbEntity
  8
0
  6
Continuous
 62
     7
370
    25
100
AcDbLine
 10
91.0278614252
 20
181.1551323397
 30
0.0
 11
93.2152913525
 21
181.8658730252
 31
0.0
  0
LINE
  5
46B
330
1F
100
AcDbEntity
  8
0
  6
Continuous
 62
     7
370
    25
100
AcDbLine
 10
93.1521348763
 20
179.7949990494
 30
0.0
 11
92.724159557
 21
179.6559414131
 31
0.0
  0
LINE
  5
46C
330
1F
100
AcDbEntity
  8
0
  6
Continuous
 62
     7
370
    25
100
AcDbLine
 10
87.8527292158
 20
172.9509925706
 30
0.0
 11
87.8527292158
 21
172.5009924037
 31
0.0
  0
LINE
  5
46D
330
1F
100
AcDbEntity
  8
0
  6
Continuous
 62
     7
370
    25
100
AcDbLine
 10
86.0524975802
 20
182.60932921
 30
0.0
 11
85.1742305901
 21
183.5677867992
 31
0.0
  0
LINE
  5
46E
330
1F
100
AcDbEntity
  8
0
  6
Continuous
 62
     7
370
    25
100
AcDbLine
 10
85.5487349551
 20
183.8991811735
 30
0.0
 11
86.4275849532
 21
182.9400828345
 31
0.0
  0
SPLINE
  5
46F
330
1F
100
AcDbEntity
  8
0
  6
Continuous
 62
     7
370
    25
100
AcDbSpline
210
0.0
220
0.0
230
1.0
 70
     8
 71
     3
 72
    12
 73
     8
 74
     0
 42
0.000000001
 43
0.00000001
 40
0.0
 40
0.0
 40
0.0
 40
0.0
 40
0.2146651482184225
 40
0.429329297407988
 40
0.6439853367297331
 40
0.8585926117366698
 40
1.0
 40
1.0
 40
1.0
 40
1.0
 10
85.17423059005816
 20
183.5677867991683
 30
0.0
 10
85.17830189402548
 20
183.5715251111579
 30
0.0
 10
85.18644448301272
 20
183.5790017177393
 30
0.0
 10
85.25016357794006
 20
183.6370540113061
 30
0.0
 10
85.34462207077723
 20
183.7217417998851
 30
0.0
 10
85.450213744804
 20
183.8146059694177
 30
0.0
 10
85.52072729641489
 20
183.8751380924375
 30
0.0
 10
85.54873495508511
 20
183.8991811735389
 30
0.0
  0
LINE
  5
470
330
1F
100
AcDbEntity
  8
0
  6
Continuous
 62
     7
370
    25
100
AcDbLine
 10
103.7529611136
 20
163.2926596565
 30
0.0
 11
104.6312281038
 21
162.3341983421
 31
0.0
  0
LINE
  5
471
330
1F
100
AcDbEntity
  8
0
  6
Continuous
 62
     7
370
    25
100
AcDbLine
 10
104.2567237388
 20
162.002807693
 30
0.0
 11
103.3778737407
 21
162.9619023068
 31
0.0
  0
SPLINE
  5
472
330
1F
100
AcDbEntity
  8
0
  6
Continuous
 62
     7
370
    25
100
AcDbSpline
210
0.0
220
0.0
230
1.0
 70
     8
 71
     3
 72
    12
 73
     8
 74
     0
 42
0.000000001
 43
0.00000001
 40
0.0
 40
0.0
 40
0.0
 40
0.0
 40
0.2146660774515222
 40
0.429333135015029
 40
0.643987068457663
 40
0.8585981776326219
 40
1.0
 40
1.0
 40
1.0
 40
1.0
 10
104.631228103829
 20
162.3341983420605
 30
0.0
 10
104.62715678775
 20
162.3304604882339
 30
0.0
 10
104.6190141370036
 20
162.3229847635145
 30
0.0
 10
104.5552950907951
 20
162.2649254768774
 30
0.0
 10
104.4608344535651
 20
162.1802451916611
 30
0.0
 10
104.3552485770194
 20
162.08737442191
 30
0.0
 10
104.2847317372839
 20
162.0268477711813
 30
0.0
 10
104.256723738802
 20
162.0028076929802
 30
0.0
  0
LINE
  5
473
330
1F
100
AcDbEntity
  8
0
  6
Continuous
 62
     7
370
    25
100
AcDbLine
 10
85.1742305901
 20
162.3341983421
 30
0.0
 11
86.0524975802
 21
163.2926596565
 31
0.0
  0
LINE
  5
474
330
1F
100
AcDbEntity
  8
0
  6
Continuous
 62
     7
370
    25
100
AcDbLine
 10
86.4275849532
 20
162.9619023068
 30
0.0
 11
85.5487349551
 21
162.002807693
 31
0.0
  0
SPLINE
  5
475
330
1F
100
AcDbEntity
  8
0
  6
Continuous
 62
     7
370
    25
100
AcDbSpline
210
0.0
220
0.0
230
1.0
 70
     8
 71
     3
 72
    12
 73
     8
 74
     0
 42
0.000000001
 43
0.00000001
 40
0.0
 40
0.0
 40
0.0
 40
0.0
 40
0.2146547509321891
 40
0.4293170769623594
 40
0.6439119604076631
 40
0.8585365963334509
 40
1.0
 40
1.0
 40
1.0
 40
1.0
 10
85.54873495508487
 20
162.0028076929805
 30
0.0
 10
85.50612734497292
 20
162.0394690653637
 30
0.0
 10
85.42091062113998
 20
162.1127931038984
 30
0.0
 10
85.30879211336226
 20
162.2122047092461
 30
0.0
 10
85.22480662066165
 20
162.2879402938664
 30
0.0
 10
85.18053852662999
 20
162.3284194432191
 30
0.0
 10
85.17602405722536
 20
162.3325552904514
 30
0.0
 10
85.17423059005793
 20
162.3341983420607
 30
0.0
  0
LINE
  5
476
330
1F
100
AcDbEntity
  8
0
  6
Continuous
 62
     7
370
    25
100
AcDbLine
 10
104.6312281038
 20
183.5677867992
 30
0.0
 11
103.7529611136
 21
182.60932921
 31
0.0
  0
LINE
  5
477
330
1F
100
AcDbEntity
  8
0
  6
Continuous
 62
     7
370
    25
100
AcDbLine
 10
103.3778737407
 20
182.9400828345
 30
0.0
 11
104.2567237388
 21
183.8991811735
 31
0.0
  0
SPLINE
  5
478
330
1F
100
AcDbEntity
  8
0
  6
Continuous
 62
     7
370
    25
100
AcDbSpline
210
0.0
220
0.0
230
1.0
 70
     8
 71
     3
 72
    12
 73
     8
 74
     0
 42
0.000000001
 43
0.00000001
 40
0.0
 40
0.0
 40
0.0
 40
0.0
 40
0.2146573554165715
 40
0.4293192151086954
 40
0.64391151342197
 40
0.8585369036522456
 40
1.0
 40
1.0
 40
1.0
 40
1.0
 10
104.2567237388023
 20
183.8991811735386
 30
0.0
 10
104.2993312313797
 20
183.8625184755123
 30
0.0
 10
104.3845471105915
 20
183.7891923101456
 30
0.0
 10
104.4966660553129
 20
183.6897794375816
 30
0.0
 10
104.580652777944
 20
183.6140506489457
 30
0.0
 10
104.6249200324422
 20
183.5735648318247
 30
0.0
 10
104.629434602731
 20
183.5694296004745
 30
0.0
 10
104.6312281038292
 20
183.5677867991681
 30
0.0
  0
ARC
  5
479
330
1F
100
AcDbEntity
  8
0
  6
Continuous
 62
     7
370
    25
100
AcDbCircle
 10
94.902729261
 20
172.9509928686
 30
0.0
 40
14.40000000000004
100
AcDbArc
 50
127.9385560135
 51
130.5101632393
  0
ARC
  5
47A
330
1F
100
AcDbEntity
  8
0
  6
Continuous
 62
     7
370
    25
100
AcDbCircle
 10
94.902729261
 20
172.9509928686
 30
0.0
 40
14.4
100
AcDbArc
 50
229.4898367607
 51
232.0614439865
  0
ARC
  5
47B
330
1F
100
AcDbEntity
  8
0
  6
Continuous
 62
     7
370
    25
100
AcDbCircle
 10
94.902729261
 20
172.9509928686
 30
0.0
 40
14.4
100
AcDbArc
 50
49.4898367607
 51
52.0614439865
  0
ARC
  5
47C
330
1F
100
AcDbEntity
  8
0
  6
Continuous
 62
     7
370
    25
100
AcDbCircle
 10
94.902729261
 20
172.9509928686
 30
0.0
 40
14.39999999999999
100
AcDbArc
 50
307.9385560135
 51
310.5101632393
  0
LINE
  5
47D
330
1F
100
AcDbEntity
  8
0
  6
Continuous
 62
     7
370
    25
100
AcDbLine
 10
107.7992401194
 20
170.6509946151
 30
0.0
 11
109.1178624998
 21
170.6509946151
 31
0.0
  0
ARC
  5
47E
330
1F
100
AcDbEntity
  8
0
  6
Continuous
 62
     7
370
    25
100
AcDbCircle
 10
94.902729261
 20
172.9509928686
 30
0.0
 40
14.39999999999999
100
AcDbArc
 50
350.8092266206
 51
356.9069990694
  0
LINE
  5
47F
330
1F
100
AcDbEntity
  8
0
  6
Continuous
 62
     7
370
    25
100
AcDbLine
 10
109.1178624998
 20
175.2509942515
 30
0.0
 11
107.7992401194
 21
175.2509942515
 31
0.0
  0
ARC
  5
480
330
1F
100
AcDbEntity
  8
0
  6
Continuous
 62
     7
370
    25
100
AcDbCircle
 10
94.902729261
 20
172.9509928686
 30
0.0
 40
14.4
100
AcDbArc
 50
3.0930009306
 51
9.1907733794
  0
LINE
  5
481
330
1F
100
AcDbEntity
  8
0
  6
Continuous
 62
     7
370
    25
100
AcDbLine
 10
107.6999946605
 20
175.7509915395
 30
0.0
 11
109.0278837006
 21
175.7509915395
 31
0.0
  0
SPLINE
  5
482
330
1F
100
AcDbEntity
  8
0
  6
Continuous
 62
     7
370
    25
100
AcDbSpline
210
0.0
220
0.0
230
1.0
 70
     8
 71
     3
 72
    12
 73
     8
 74
     0
 42
0.000000001
 43
0.00000001
 40
0.0
 40
0.0
 40
0.0
 40
0.0
 40
0.2101412180883585
 40
0.420214799979059
 40
0.6322491695031235
 40
0.8479676772903776
 40
1.0
 40
1.0
 40
1.0
 40
1.0
 10
109.0278837006218
 20
175.7509915394539
 30
0.0
 10
109.0289568567543
 20
175.7456052696762
 30
0.0
 10
109.0311028236125
 20
175.7348344637493
 30
0.0
 10
109.0474774402404
 20
175.6510002458807
 30
0.0
 10
109.0706606998889
 20
175.5270499714355
 30
0.0
 10
109.0956815741422
 20
175.385951856907
 30
0.0
 10
109.1113747604226
 20
175.2904682476809
 30
0.0
 10
109.1178624998457
 20
175.2509942514653
 30
0.0
  0
LINE
  5
483
330
1F
100
AcDbEntity
  8
0
  6
Continuous
 62
     7
370
    25
100
AcDbLine
 10
109.0278837006
 20
170.1509936018
 30
0.0
 11
107.6999946605
 21
170.1509936018
 31
0.0
  0
SPLINE
  5
484
330
1F
100
AcDbEntity
  8
0
  6
Continuous
 62
     7
370
    25
100
AcDbSpline
210
0.0
220
0.0
230
1.0
 70
     8
 71
     3
 72
    12
 73
     8
 74
     0
 42
0.000000001
 43
0.00000001
 40
0.0
 40
0.0
 40
0.0
 40
0.0
 40
0.218632523337806
 40
0.437283983264018
 40
0.6551429169329155
 40
0.8698609217059873
 40
1.0
 40
1.0
 40
1.0
 40
1.0
 10
109.1178624998457
 20
170.6509946150536
 30
0.0
 10
109.1084441145594
 20
170.5940835842707
 30
0.0
 10
109.0896065282249
 20
170.4802565934258
 30
0.0
 10
109.0622085436567
 20
170.3290509959745
 30
0.0
 10
109.0407199218078
 20
170.2160100255395
 30
0.0
 10
109.0294049175208
 20
170.1586582889163
 30
0.0
 10
109.0283004824428
 20
170.1530935667873
 30
0.0
 10
109.0278837006218
 20
170.1509936017746
 30
0.0
  0
LINE
  5
485
330
1F
100
AcDbEntity
  8
0
  6
Continuous
 62
     7
370
    25
100
AcDbLine
 10
86.402728885
 20
171.8009917302
 30
0.0
 11
86.402728885
 21
174.100993411
 31
0.0
  0
LINE
  5
486
330
1F
100
AcDbEntity
  8
0
  6
Continuous
 62
     7
370
    25
100
AcDbLine
 10
93.3697997467
 20
164.5116416974
 30
0.0
 11
91.182369703
 21
165.2223823828
 31
0.0
  0
LINE
  5
487
330
1F
100
AcDbEntity
  8
0
  6
Continuous
 62
     7
370
    25
100
AcDbLine
 10
91.182369703
 20
180.6796064837
 30
0.0
 11
93.3697997467
 21
181.3903397186
 31
0.0
  0
LINE
  5
488
330
1F
100
AcDbEntity
  8
0
  6
Continuous
 62
     7
370
    25
100
AcDbLine
 10
101.1034205664
 20
178.87753828
 30
0.0
 11
102.455326553
 21
177.0167967541
 31
0.0
  0
LINE
  5
489
330
1F
100
AcDbEntity
  8
0
  6
Continuous
 62
     7
370
    25
100
AcDbLine
 10
102.455326553
 20
168.8851883871
 30
0.0
 11
101.1034205664
 21
167.0244468612
 31
0.0
  0
LINE
  5
48A
330
1F
100
AcDbEntity
  8
FORMAT
100
AcDbLine
 10
81.8241395409
 20
189.3811630117
 30
0.0
 11
107.9813189812
 21
156.5208227255
 31
0.0
  0
INSERT
  5
490
330
1F
100
AcDbEntity
  8
FORMAT
100
AcDbBlockReference
  2
SW_NOTE_6
 10
74.4729577929
 20
195.0500564367
 30
0.0
  0
LEADER
  5
492
330
1F
100
AcDbEntity
  8
FORMAT
100
AcDbLeader
  3
SLDDIMSTYLE2
 76
     2
 10
81.8241395409
 20
189.3811630117
 30
0.0
 10
74.4729577929
 20
195.0500564367
 30
0.0
  0
INSERT
  5
498
330
1F
100
AcDbEntity
  8
FORMAT
100
AcDbBlockReference
  2
SW_NOTE_7
 10
112.1546681665
 20
145.8937009811
 30
0.0
  0
LEADER
  5
499
330
1F
100
AcDbEntity
  8
FORMAT
100
AcDbLeader
  3
SLDDIMSTYLE2
 76
     2
 10
97.5490822943
 20
165.8545680732
 30
0.0
 10
112.1546681665
 20
145.8937009811
 30
0.0
  0
INSERT
  5
4A5
330
1F
100
AcDbEntity
  8
FORMAT
100
AcDbBlockReference
  2
SW_CENTERMARKSYMBOL_0
 10
94.902729261
 20
172.9509928686
 30
0.0
  0
ENDSEC
  0
SECTION
  2
OBJECTS
  0
DICTIONARY
  5
C
330
0
100
AcDbDictionary
281
     1
  3
ACAD_GROUP
350
D
  3
ACAD_LAYOUT
350
1A
  3
ACAD_MLINESTYLE
350
17
  3
ACAD_PLOTSETTINGS
350
19
  3
ACAD_PLOTSTYLENAME
350
E
  3
ACAD_SCALELIST
350
47
  0
DICTIONARY
  5
D
102
{ACAD_REACTORS
330
C
102
}
330
C
100
AcDbDictionary
281
     1
  0
DICTIONARY
  5
1A
102
{ACAD_REACTORS
330
C
102
}
330
C
100
AcDbDictionary
281
     1
  3
Layout1
350
1E
  3
Layout2
350
26
  3
Model
350
22
  0
DICTIONARY
  5
17
102
{ACAD_REACTORS
330
C
102
}
330
C
100
AcDbDictionary
281
     1
  3
Standard
350
18
  0
DICTIONARY
  5
19
102
{ACAD_REACTORS
330
C
102
}
330
C
100
AcDbDictionary
281
     1
  0
ACDBDICTIONARYWDFLT
  5
E
102
{ACAD_REACTORS
330
C
102
}
330
C
100
AcDbDictionary
281
     1
  3
Normal
350
F
100
AcDbDictionaryWithDefault
340
F
  0
DICTIONARY
  5
47
102
{ACAD_REACTORS
330
C
102
}
330
C
100
AcDbDictionary
281
     1
  3
A0
350
48
  3
A1
350
49
  3
A2
350
4A
  3
A3
350
4B
  3
A4
350
4C
  3
A5
350
4D
  3
A6
350
4E
  3
A7
350
4F
  3
A8
350
50
  3
A9
350
51
  3
B0
350
52
  3
B1
350
53
  3
B2
350
54
  3
B3
350
55
  3
B4
350
56
  3
B5
350
57
  3
B6
350
58
  3
B7
350
59
  3
B8
350
5A
  3
B9
350
5B
  3
C0
350
5C
  3
C1
350
5D
  3
C2
350
5E
  3
C3
350
5F
  3
C4
350
60
  3
C5
350
61
  3
C6
350
62
  3
C7
350
63
  3
C8
350
64
  3
C9
350
65
  3
D0
350
66
  3
D1
350
67
  3
D2
350
68
  0
LAYOUT
  5
1E
102
{ACAD_REACTORS
330
1A
102
}
330
1A
100
AcDbPlotSettings
  1

  2
none_device
  4

  6

 40
0.0
 41
0.0
 42
0.0
 43
0.0
 44
0.0
 45
0.0
 46
0.0
 47
0.0
 48
0.0
 49
0.0
140
0.0
141
0.0
142
1.0
143
1.0
 70
   688
 72
     1
 73
     0
 74
     5
  7

 75
    16
147
1.0
148
0.0
149
0.0
100
AcDbLayout
  1
Layout1
 70
     1
 71
     1
 10
0.0
 20
0.0
 11
420.0
 21
297.0
 12
0.0
 22
0.0
 32
0.0
 14
1.0000000000E+20
 24
1.0000000000E+20
 34
1.0000000000E+20
 15
-1.0000000000E+20
 25
-1.0000000000E+20
 35
-1.0000000000E+20
146
0.0
 13
0.0
 23
0.0
 33
0.0
 16
1.0
 26
0.0
 36
0.0
 17
0.0
 27
1.0
 37
0.0
 76
     0
330
1B
  0
LAYOUT
  5
26
102
{ACAD_REACTORS
330
1A
102
}
330
1A
100
AcDbPlotSettings
  1

  2
none_device
  4

  6

 40
0.0
 41
0.0
 42
0.0
 43
0.0
 44
0.0
 45
0.0
 46
0.0
 47
0.0
 48
0.0
 49
0.0
140
0.0
141
0.0
142
1.0
143
1.0
 70
   688
 72
     1
 73
     0
 74
     5
  7

 75
    16
147
1.0
148
0.0
149
0.0
100
AcDbLayout
  1
Layout2
 70
     1
 71
     2
 10
0.0
 20
0.0
 11
0.0
 21
0.0
 12
0.0
 22
0.0
 32
0.0
 14
0.0
 24
0.0
 34
0.0
 15
0.0
 25
0.0
 35
0.0
146
0.0
 13
0.0
 23
0.0
 33
0.0
 16
1.0
 26
0.0
 36
0.0
 17
0.0
 27
1.0
 37
0.0
 76
     0
330
23
  0
LAYOUT
  5
22
102
{ACAD_REACTORS
330
1A
102
}
330
1A
100
AcDbPlotSettings
  1

  2
none_device
  4
Letter_(8.50_x_11.00_Inches)
  6

 40
6.35
 41
6.35
 42
6.35000508
 43
6.35000508
 44
215.9
 45
279.4
 46
0.0
 47
0.0
 48
0.0
 49
0.0
140
0.0
141
0.0
142
1.0
143
1.0
 70
  1712
 72
     1
 73
     0
 74
     0
  7

 75
     0
147
1.0
148
0.0
149
0.0
100
AcDbLayout
  1
Model
 70
     1
 71
     0
 10
0.0
 20
0.0
 11
420.0
 21
297.0
 12
0.0
 22
0.0
 32
0.0
 14
0.0
 24
0.0
 34
0.0
 15
420.0
 25
297.0
 35
0.0
146
0.0
 13
0.0
 23
0.0
 33
0.0
 16
1.0
 26
0.0
 36
0.0
 17
0.0
 27
1.0
 37
0.0
 76
     0
330
1F
331
29
  0
MLINESTYLE
  5
18
102
{ACAD_REACTORS
330
17
102
}
330
17
100
AcDbMlineStyle
  2
Standard
 70
     0
  3

 62
   256
 51
90.0
 52
90.0
 71
     2
 49
0.5
 62
   256
  6
BYLAYER
 49
-0.5
 62
   256
  6
BYLAYER
  0
ACDBPLACEHOLDER
  5
F
102
{ACAD_REACTORS
330
E
102
}
330
E
  0
SCALE
  5
48
102
{ACAD_REACTORS
330
47
102
}
330
47
100
AcDbScale
 70
     0
300
1:1
140
1.0
141
1.0
290
     1
  0
SCALE
  5
49
102
{ACAD_REACTORS
330
47
102
}
330
47
100
AcDbScale
 70
     0
300
1:2
140
1.0
141
2.0
290
     0
  0
SCALE
  5
4A
102
{ACAD_REACTORS
330
47
102
}
330
47
100
AcDbScale
 70
     0
300
1:4
140
1.0
141
4.0
290
     0
  0
SCALE
  5
4B
102
{ACAD_REACTORS
330
47
102
}
330
47
100
AcDbScale
 70
     0
300
1:5
140
1.0
141
5.0
290
     0
  0
SCALE
  5
4C
102
{ACAD_REACTORS
330
47
102
}
330
47
100
AcDbScale
 70
     0
300
1:8
140
1.0
141
8.0
290
     0
  0
SCALE
  5
4D
102
{ACAD_REACTORS
330
47
102
}
330
47
100
AcDbScale
 70
     0
300
1:10
140
1.0
141
10.0
290
     0
  0
SCALE
  5
4E
102
{ACAD_REACTORS
330
47
102
}
330
47
100
AcDbScale
 70
     0
300
1:16
140
1.0
141
16.0
290
     0
  0
SCALE
  5
4F
102
{ACAD_REACTORS
330
47
102
}
330
47
100
AcDbScale
 70
     0
300
1:20
140
1.0
141
20.0
290
     0
  0
SCALE
  5
50
102
{ACAD_REACTORS
330
47
102
}
330
47
100
AcDbScale
 70
     0
300
1:30
140
1.0
141
30.0
290
     0
  0
SCALE
  5
51
102
{ACAD_REACTORS
330
47
102
}
330
47
100
AcDbScale
 70
     0
300
1:40
140
1.0
141
40.0
290
     0
  0
SCALE
  5
52
102
{ACAD_REACTORS
330
47
102
}
330
47
100
AcDbScale
 70
     0
300
1:50
140
1.0
141
50.0
290
     0
  0
SCALE
  5
53
102
{ACAD_REACTORS
330
47
102
}
330
47
100
AcDbScale
 70
     0
300
1:100
140
1.0
141
100.0
290
     0
  0
SCALE
  5
54
102
{ACAD_REACTORS
330
47
102
}
330
47
100
AcDbScale
 70
     0
300
2:1
140
2.0
141
1.0
290
     0
  0
SCALE
  5
55
102
{ACAD_REACTORS
330
47
102
}
330
47
100
AcDbScale
 70
     0
300
4:1
140
4.0
141
1.0
290
     0
  0
SCALE
  5
56
102
{ACAD_REACTORS
330
47
102
}
330
47
100
AcDbScale
 70
     0
300
8:1
140
8.0
141
1.0
290
     0
  0
SCALE
  5
57
102
{ACAD_REACTORS
330
47
102
}
330
47
100
AcDbScale
 70
     0
300
10:1
140
10.0
141
1.0
290
     0
  0
SCALE
  5
58
102
{ACAD_REACTORS
330
47
102
}
330
47
100
AcDbScale
 70
     0
300
100:1
140
100.0
141
1.0
290
     0
  0
SCALE
  5
59
102
{ACAD_REACTORS
330
47
102
}
330
47
100
AcDbScale
 70
     0
300
1/128" = 1'-0"
140
0.0078125
141
12.0
290
     0
  0
SCALE
  5
5A
102
{ACAD_REACTORS
330
47
102
}
330
47
100
AcDbScale
 70
     0
300
1/64" = 1'-0"
140
0.015625
141
12.0
290
     0
  0
SCALE
  5
5B
102
{ACAD_REACTORS
330
47
102
}
330
47
100
AcDbScale
 70
     0
300
1/32" = 1'-0"
140
0.03125
141
12.0
290
     0
  0
SCALE
  5
5C
102
{ACAD_REACTORS
330
47
102
}
330
47
100
AcDbScale
 70
     0
300
1/16" = 1'-0"
140
0.0625
141
12.0
290
     0
  0
SCALE
  5
5D
102
{ACAD_REACTORS
330
47
102
}
330
47
100
AcDbScale
 70
     0
300
3/32" = 1'-0"
140
0.09375
141
12.0
290
     0
  0
SCALE
  5
5E
102
{ACAD_REACTORS
330
47
102
}
330
47
100
AcDbScale
 70
     0
300
1/8" = 1'-0"
140
0.125
141
12.0
290
     0
  0
SCALE
  5
5F
102
{ACAD_REACTORS
330
47
102
}
330
47
100
AcDbScale
 70
     0
300
3/16" = 1'-0"
140
0.1875
141
12.0
290
     0
  0
SCALE
  5
60
102
{ACAD_REACTORS
330
47
102
}
330
47
100
AcDbScale
 70
     0
300
1/4" = 1'-0"
140
0.25
141
12.0
290
     0
  0
SCALE
  5
61
102
{ACAD_REACTORS
330
47
102
}
330
47
100
AcDbScale
 70
     0
300
3/8" = 1'-0"
140
0.375
141
12.0
290
     0
  0
SCALE
  5
62
102
{ACAD_REACTORS
330
47
102
}
330
47
100
AcDbScale
 70
     0
300
1/2" = 1'-0"
140
0.5
141
12.0
290
     0
  0
SCALE
  5
63
102
{ACAD_REACTORS
330
47
102
}
330
47
100
AcDbScale
 70
     0
300
3/4" = 1'-0"
140
0.75
141
12.0
290
     0
  0
SCALE
  5
64
102
{ACAD_REACTORS
330
47
102
}
330
47
100
AcDbScale
 70
     0
300
1" = 1'-0"
140
1.0
141
12.0
290
     0
  0
SCALE
  5
65
102
{ACAD_REACTORS
330
47
102
}
330
47
100
AcDbScale
 70
     0
300
1-1/2" = 1'-0"
140
1.5
141
12.0
290
     0
  0
SCALE
  5
66
102
{ACAD_REACTORS
330
47
102
}
330
47
100
AcDbScale
 70
     0
300
3" = 1'-0"
140
3.0
141
12.0
290
     0
  0
SCALE
  5
67
102
{ACAD_REACTORS
330
47
102
}
330
47
100
AcDbScale
 70
     0
300
6" = 1'-0"
140
6.0
141
12.0
290
     0
  0
SCALE
  5
68
102
{ACAD_REACTORS
330
47
102
}
330
47
100
AcDbScale
 70
     0
300
1'-0" = 1'-0"
140
12.0
141
12.0
290
     0
  0
ENDSEC
  0
EOF
